osu file format v5

[General]
AudioFilename: Bleach_-_Alones.mp3
AudioLeadIn: 0
PreviewTime: -1
Countdown: 1
SampleSet: Normal
StackLeniency: 0.7
Mode: 0
LetterboxInBreaks: 1

[Metadata]
Title:Alones
Artist:Aqua Timez
Creator:EBAfan101
Version:Normal
Source:
Tags:

[Difficulty]
HPDrainRate:5
CircleSize:5
OverallDifficulty:5
SliderMultiplier:1.4
SliderTickRate:1

[Events]
//Background and Video events
//Break Periods
2,173387,184857
//Storyboard Layer 0 (Background)
//Storyboard Layer 1 (Failing)
//Storyboard Layer 2 (Passing)
//Storyboard Layer 3 (Foreground)
//Storyboard Sound Samples
//Background Colour Transformations
3,100,163,162,255

[TimingPoints]
64695,138.383885333369,4,1,0,100,1

[HitObjects]
96,160,23162,1,0
128,192,23918,1,0
160,192,24421,1,0
128,160,24925,1,0
128,192,25429,1,0
160,192,25680,1,0
160,160,25932,1,0
224,160,26436,1,0
192,256,26939,1,0
256,160,27443,1,0
224,192,27695,1,0
224,192,28198,1,0
288,192,28450,1,0
128,192,28953,1,0
224,192,29457,1,0
224,192,30464,5,0
160,192,30716,1,0
160,128,30968,1,0
224,160,31723,1,0
192,128,31975,1,0
160,192,32982,5,0
192,224,33989,5,0
192,224,34241,1,0
192,160,34744,1,0
160,192,35248,1,0
224,192,35500,1,0
192,160,35751,1,0
160,192,36255,1,0
192,160,36507,1,0
128,224,37766,5,0
192,224,38269,1,0
160,192,38521,1,0
160,192,39025,1,0
192,192,39276,1,0
128,160,40535,5,0
192,192,41039,1,0
160,192,41542,1,0
160,160,41794,1,0
128,192,42046,1,0
192,160,42550,1,0
192,128,42801,1,0
160,160,43053,1,0
224,192,43557,1,0
192,128,43808,1,0
128,192,44312,5,0
160,192,44564,1,0
128,160,45571,1,0
192,160,45823,1,0
128,224,46830,5,0
192,224,47082,1,0
160,160,47585,1,0
128,160,47837,1,0
192,160,48592,1,0
160,128,48844,1,0
128,160,49348,1,0
160,192,50607,5,0
128,224,51614,5,0
192,224,52117,1,0
160,192,52621,1,0
160,192,52873,1,0
128,192,54131,5,0
224,192,54887,1,0
192,224,55390,1,0
128,256,55894,1,0
192,192,56397,1,0
128,192,56649,1,0
128,224,56901,1,0
192,192,57405,1,0
160,160,57908,1,0
96,192,59167,5,0
192,192,59671,1,0
160,160,60174,1,0
128,192,60678,1,0
224,192,61181,1,0
128,128,61685,1,0
96,192,62440,1,0
224,192,63196,1,0
224,128,63699,1,0
224,128,63864,1,0
96,160,64706,5,0
192,160,65210,1,0
160,128,65713,1,0
128,160,66217,1,0
224,160,66720,1,0
192,128,66972,1,0
192,128,67224,1,0
288,128,67728,1,0
160,128,68231,1,0
160,192,69742,1,0
288,160,70497,1,0
128,160,71001,1,0
192,160,71504,1,0
160,160,72444,1,0
224,160,72998,1,0
224,128,73689,1,0
192,160,73966,1,0
256,160,74105,1,0
160,160,75627,5,0
192,160,76042,1,0
192,128,76319,1,0
128,160,77287,5,0
224,160,77703,1,0
192,128,77979,1,0
192,192,78256,1,0
224,192,78533,1,0
224,160,78810,1,0
96,160,79917,5,0
192,160,80193,1,0
192,128,80609,1,0
160,192,80885,1,0
224,192,81162,1,0
192,160,81439,1,0
128,160,82131,1,0
160,160,82408,1,0
160,128,82684,1,0
128,160,83100,1,0
192,160,83376,1,0
192,128,83653,1,0
256,160,84068,1,0
224,128,84483,1,0
256,128,84760,1,0
256,160,85037,1,0
192,160,85452,1,0
192,96,85729,1,0
128,128,86006,1,0
160,192,86421,1,0
160,128,86698,1,0
128,224,87528,5,0
160,192,87805,1,0
160,160,88220,1,0
96,160,88497,1,0
128,192,88773,1,0
192,192,89188,1,0
96,192,90157,5,0
192,192,90434,1,0
192,160,90849,1,0
128,160,91126,1,0
160,192,91541,1,0
192,192,91818,1,0
64,192,92786,5,0
160,192,93063,1,0
128,128,93617,1,0
96,192,93893,1,0
160,192,94170,1,0
160,160,94585,1,0
96,160,95001,1,0
128,192,95277,1,0
160,160,95554,1,0
160,128,95969,1,0
160,128,96246,1,0
192,160,96661,1,0
192,160,96938,1,0
128,256,97768,1,0
192,192,98737,1,0
160,192,99152,1,0
160,160,99567,1,0
128,192,99982,1,0
160,192,100398,1,0
192,192,102197,5,0
160,224,102888,1,0
224,192,103857,1,0
192,160,104272,1,0
160,192,104687,1,0
224,192,105103,1,0
192,192,105656,1,0
128,192,107594,5,0
160,192,107870,1,0
160,160,108424,1,0
96,160,108839,1,0
128,192,109254,1,0
160,192,109531,1,0
128,192,110084,5,0
192,192,110361,1,0
160,160,110915,1,0
128,160,111745,1,0
128,192,112160,1,0
128,224,112714,5,0
160,224,112990,1,0
160,192,113544,1,0
128,192,113959,1,0
128,160,114374,1,0
192,160,114651,1,0
160,128,115066,1,0
128,160,115343,1,0
192,160,115897,1,0
160,128,116173,1,0
160,160,116865,1,0
224,160,117142,1,0
160,192,117972,5,0
192,192,118249,1,0
192,160,118664,1,0
160,160,119079,1,0
96,192,120186,5,0
160,192,120740,1,0
160,160,121294,1,0
128,160,121985,1,0
128,192,122677,1,0
192,192,122954,1,0
224,192,123231,1,0
160,224,125445,1,0
224,224,125860,1,0
192,160,126414,1,0
128,192,127936,5,0
192,192,128351,1,0
192,160,128766,1,0
160,160,129320,1,0
160,192,129735,1,0
192,192,130150,1,0
192,160,130427,1,0
128,160,130980,1,0
128,192,131396,1,0
64,256,133056,5,0
128,256,133610,1,0
96,192,134163,1,0
96,256,135270,1,0
128,256,135547,1,0
96,192,136239,1,0
160,224,136793,1,0
160,192,137069,1,0
160,192,137346,1,0
96,160,138315,5,0
224,192,138868,1,0
192,128,139145,1,0
160,192,139560,1,0
224,192,140114,1,0
224,160,140390,1,0
192,192,140806,1,0
256,192,141359,1,0
224,160,141774,1,0
96,224,143297,5,0
192,160,144542,1,0
160,224,145096,1,0
256,192,145926,1,0
128,192,147033,1,0
192,192,147586,1,0
192,192,147725,1,0
128,224,149247,5,0
160,224,149524,1,0
160,192,149939,1,0
96,224,150769,5,0
160,224,151046,1,0
128,192,151461,1,0
192,192,151876,1,0
160,160,152153,1,0
128,160,152430,1,0
128,224,153399,5,0
160,224,153814,1,0
160,160,154090,1,0
96,160,154367,1,0
96,192,154782,1,0
160,192,155059,1,0
96,224,155613,5,0
160,192,156028,1,0
128,160,156305,1,0
96,192,156581,1,0
160,192,156997,1,0
128,160,157273,1,0
96,192,157550,1,0
160,192,157965,1,0
160,160,158242,1,0
128,128,158657,1,0
96,128,158934,1,0
160,128,159211,1,0
160,96,159487,1,0
128,96,159903,1,0
64,96,160179,1,0
160,256,161425,5,0
160,192,161840,1,0
96,192,162117,1,0
96,224,162394,1,0
160,256,162809,1,0
96,224,164054,5,0
128,224,164331,1,0
128,192,164608,1,0
224,192,165438,1,0
160,224,166683,5,0
224,224,167237,1,0
160,160,167929,1,0
224,160,168206,1,0
192,128,168482,1,0
128,160,169174,1,0
224,192,169451,1,0
160,224,169866,1,0
224,192,170558,5,0
128,192,173187,5,0
224,192,186057,5,0
128,192,187303,5,0
224,160,188548,1,0
128,224,189932,1,0
224,128,191177,1,0
128,192,192423,1,0
128,160,194914,5,0
160,160,195191,1,0
128,128,195606,1,0
192,160,195744,1,0
192,160,196436,5,0
256,160,197128,1,0
160,160,198235,5,0
224,160,198512,1,0
192,128,198927,1,0
160,192,199342,1,0
224,160,199757,1,0
128,192,201556,5,0
224,192,201971,1,0
160,128,202248,1,0
160,224,202802,1,0
192,192,203217,1,0
96,160,203632,1,0
160,128,203909,1,0
160,224,205016,1,0
128,192,206123,5,0
192,192,206400,1,0
160,128,206676,1,0
128,224,207645,1,0
160,224,207922,1,0
128,256,208475,1,0
128,192,208891,1,0
128,192,209167,1,0
128,192,210551,5,0
192,192,210828,1,0
160,128,211105,1,0
224,192,211797,1,0
128,224,213180,5,0
224,224,213734,1,0
160,160,214426,1,0
224,160,214703,1,0
192,128,214979,1,0
160,192,215533,1,0
224,192,215948,1,0
160,224,216225,1,0
128,160,216917,1,0
128,192,217885,5,0
160,192,218162,1,0
128,128,218577,1,0
192,160,218854,1,0
192,128,219269,1,0
160,160,219546,1,0
128,192,220653,1,0
192,192,221483,1,0
64,160,222175,1,0
96,160,223421,5,0
192,160,223974,1,0
128,224,224666,1,0
160,192,225081,1,0
160,160,225358,1,0
64,192,225912,1,0
128,192,226188,1,0
128,192,226604,1,0
96,160,227157,1,0
160,192,227987,5,0
256,192,228403,1,0
224,160,228956,1,0
192,192,229371,1,0
256,192,229648,1,0
128,128,230755,1,0
128,192,231170,1,0
192,192,231585,1,0
192,128,232001,1,0
192,128,232416,1,0
128,224,232969,5,0
160,224,233384,1,0
160,192,233661,1,0
96,192,234353,1,0
160,160,235045,1,0
128,128,235460,1,0
128,160,235737,1,0
160,192,236291,1,0
160,160,236567,1,0
160,128,236982,1,0
128,160,237536,1,0
128,256,238366,5,0
192,256,238920,1,0
160,192,239335,1,0
128,192,239750,1,0
128,224,240165,1,0
192,160,241411,1,0
160,192,241964,1,0
224,224,242379,1,0
224,192,242656,1,0
128,224,243348,5,0
160,224,243625,1,0
160,192,243902,1,0
224,192,244732,1,0
192,224,245285,1,0
160,192,245701,1,0
128,192,245977,1,0
224,192,246669,1,0
192,160,246946,1,0
160,160,247361,1,0
128,192,247915,1,0
96,160,250544,5,0
192,192,250959,1,0
160,128,251513,1,0
160,224,253035,1,0
224,256,253589,1,0
224,192,254142,1,0
160,224,255664,5,0
224,224,256079,1,0
224,160,256633,1,0
