osu file format v5

[General]
AudioFilename: Bleach - 6 OP - Aqua Timez - Alones.mp3
AudioLeadIn: 0
PreviewTime: -1
Countdown: 1
SampleSet: Normal
StackLeniency: 0.7
Mode: 0
EditorBookmarks: 21471,23885,24058,32851,33368,45092,46040,46127,46299,46471,46730,51471,51644,51730,56385,56471,56558,66213,66299,66730,79489,80178,86989,89058,89144,89316

[Metadata]
Title:ALONES
Artist:Aqua Timez
Creator:Snipe
Version:Medium

[Difficulty]
HPDrainRate:5
CircleSize:6
OverallDifficulty:7
SliderMultiplier:0.9
SliderTickRate:1

[Events]
//Background and Video events
0,0,"Konvector.jpg"
//Break Periods
//Storyboard Layer 0 (Background)
//Storyboard Layer 1 (Failing)
//Storyboard Layer 2 (Passing)
//Storyboard Layer 3 (Foreground)
//Storyboard Sound Samples
//Background Colour Transformations
3,100,163,162,255

[TimingPoints]
696,344.827586206897,4,1,0,100

[HitObjects]
128,192,754,1,0
192,232,1058,1,0
240,184,1286,1,0
240,176,2275,5,0
224,96,2503,1,0
168,112,2884,1,0
136,160,3188,1,4
184,216,3492,1,4
216,160,3797,1,6
368,192,4786,5,0
344,152,5014,1,0
312,128,5318,1,0
280,144,5622,1,0
256,176,6003,1,0
240,216,6307,1,0
392,192,6992,5,0
368,152,7296,1,0
344,120,7600,1,0
304,112,7905,1,0
264,120,8209,1,0
240,144,8513,1,0
224,184,8894,5,0
208,216,9198,1,0
232,240,9502,1,0
240,208,9807,5,0
232,176,10111,1,0
208,144,10415,1,0
176,120,10720,1,0
136,104,11100,1,0
104,112,11404,1,4
336,184,12333,5,0
328,144,12592,1,0
288,128,12937,1,0
248,128,13282,1,0
224,160,13540,1,0
232,200,13885,1,4
264,88,14833,5,0
304,72,15178,1,0
240,112,15437,5,0
248,152,15782,1,0
280,176,16127,1,0
272,208,16385,1,4
416,168,17420,5,0
368,112,17678,5,0
304,144,18282,5,0
320,184,18627,1,0
352,184,18971,1,0
376,160,19316,1,0
376,128,19575,1,0
344,104,19920,1,0
248,128,20178,5,0
280,176,20609,1,0
360,200,20868,5,0
408,168,21213,1,4
392,112,21471,2,6,C|208:40|208:40|40:192|40:192|120:280,1,630
136,192,26989,5,0
136,192,27161,1,0
136,192,27420,1,0
168,200,28023,1,0
192,192,28368,1,0
176,168,28713,1,0
176,168,29058,1,0
176,168,29402,1,0
96,192,30006,5,0
96,192,30264,1,0
144,184,30609,1,0
184,168,30954,1,0
192,128,31213,1,0
168,112,31558,1,0
128,104,31902,1,0
112,160,32851,5,0
112,184,33023,1,0
112,216,33368,1,0
160,232,33799,1,0
216,216,34058,1,0
208,168,34316,1,0
192,136,34661,1,0
160,112,35006,1,0
120,104,35351,1,0
96,136,35609,1,0
96,168,35954,1,0
88,216,36299,1,0
184,184,36902,5,0
184,208,37247,1,0
184,240,37592,1,0
232,248,37851,1,0
256,208,38196,1,0
128,128,39144,5,0
120,160,39489,1,0
120,160,39747,1,0
104,208,40092,5,0
128,232,40351,1,0
160,232,40609,1,0
192,224,41040,1,0
192,192,41299,1,0
168,144,41989,5,4
344,136,43540,5,0
296,184,44144,1,0
248,232,44661,1,0
200,272,45092,2,6,C|384:104,1,247.5
128,184,46644,5,0
152,184,47161,1,0
184,184,47592,1,0
216,184,48196,1,0
240,184,48540,1,2
264,176,48885,1,2
280,152,49230,1,2
264,120,49747,1,2
232,104,50178,1,6
64,48,51644,6,0,C|424:288|464:48|464:48|40:264,1,1260
72,288,56816,5,0
112,264,57247,1,0
144,224,57678,1,0
144,184,58196,1,0
112,152,58713,1,0
72,144,58971,1,0
64,184,59230,1,0
96,232,59833,5,0
128,272,60264,1,0
128,152,61816,5,0
160,184,62075,1,0
160,224,62247,1,0
120,232,62592,1,0
88,200,62937,1,0
88,152,63196,1,0
120,120,63368,1,0
200,144,64316,5,0
208,176,64661,1,0
184,208,64833,1,0
152,208,65092,1,0
112,200,65437,1,0
80,176,65696,1,0
72,144,65868,1,0
152,136,66299,5,0
168,160,66644,1,0
176,192,66902,1,0
256,192,67851,5,4
224,192,68109,1,4
224,192,68454,1,4
200,192,68799,1,4
176,192,69058,1,4
176,192,69402,1,6
384,272,70351,5,0
384,232,70609,1,0
384,192,70954,1,0
376,160,71213,1,0
352,136,71558,1,0
320,112,71902,1,2
304,200,72506,5,0
288,224,72851,1,0
256,232,73109,1,0
216,232,73454,1,0
184,232,73799,1,0
128,224,74058,5,0
104,192,74402,1,0
104,160,74747,1,0
136,136,75006,1,0
168,120,75351,1,0
200,136,75609,1,0
208,168,75954,1,0
184,200,76299,1,0
240,208,76644,5,0
272,184,76902,1,6
152,176,77937,5,0
184,200,78196,1,0
224,216,78540,1,0
272,216,78799,1,0
280,176,79144,1,0
272,136,79489,1,2
136,176,80437,5,0
128,200,80782,1,0
128,200,81040,1,0
120,224,81385,1,0
112,248,81730,1,0
96,272,81989,1,0
240,216,82937,5,4
256,192,83196,1,0
288,152,83885,1,0
304,136,84230,1,0
328,112,84489,1,0
328,112,84833,1,0
368,96,85092,5,2
384,112,85437,1,0
384,112,85696,1,0
368,152,86040,1,0
368,152,86385,1,0
344,176,86644,1,0
312,200,86989,2,4,C|168:280|168:280|208:144|208:144|288:280,1,540
