osu file format v5

[General]
AudioFilename: Aqua - Roses Are Red.mp3
AudioLeadIn: 0
PreviewTime: -1
Countdown: 1
SampleSet: Normal
StackLeniency: 0.7
Mode: 0
LetterboxInBreaks: 1

[Metadata]
Title:Roses Are Red
Artist:Aqua
Creator:seawolflost
Version:Normal
Source:
Tags:

[Difficulty]
HPDrainRate:6
CircleSize:5
OverallDifficulty:6
SliderMultiplier:1.5
SliderTickRate:2

[Events]
//Background and Video events
//Break Periods
2,29941,43970
2,72370,85112
2,99370,112327
2,123798,126470
2,140512,153898
2,156370,157398
2,159798,160755
2,163227,164255
2,168870,181327
//Storyboard Layer 0 (Background)
//Storyboard Layer 1 (Failing)
//Storyboard Layer 2 (Passing)
//Storyboard Layer 3 (Foreground)
//Storyboard Sound Samples
//Background Colour Transformations
3,100,158,191,134

[TimingPoints]
46027.1653061097,428.571428571429,4,1,0,100,1

[Colours]
Combo1 : 255,140,160
Combo2 : 66,72,198
Combo3 : 138,67,209
Combo4 : 179,24,59

[HitObjects]
256,192,3955,1,0
128,64,4384,1,0
128,64,4812,1,0
256,64,5241,1,0
384,64,5670,1,0
384,64,6098,1,0
256,64,6527,1,0
64,320,7384,5,0
160,320,7812,1,0
256,320,8241,1,0
352,320,8670,1,0
448,320,9098,1,0
352,320,9527,1,0
256,320,9955,1,0
256,128,10884,5,0
256,128,11312,1,0
256,128,11741,1,0
256,128,12170,1,0
192,64,12598,1,0
320,64,13027,1,0
256,192,13455,1,0
64,64,14312,5,0
96,96,14741,1,0
128,128,15098,1,0
160,160,15527,1,0
320,288,16027,5,0
288,256,16455,1,0
256,224,16812,1,0
224,192,17241,1,0
256,192,17955,12,0,22670
256,192,24884,12,0,29598
128,128,45170,5,0
160,192,45598,1,0
224,128,46027,1,0
256,192,46455,1,0
320,128,46884,1,0
352,192,47312,1,0
416,128,47741,1,0
448,64,48598,5,0
384,64,49027,1,0
384,128,49455,1,0
384,192,49884,1,0
320,192,50312,1,0
256,192,50741,1,0
256,128,51170,1,0
256,192,52027,5,0
256,192,52455,1,0
256,192,52884,1,0
160,192,53312,1,0
160,192,53741,1,0
352,192,54170,1,0
352,192,54598,1,0
96,192,55455,5,0
160,192,55884,1,0
224,192,56312,1,0
288,192,56741,1,0
320,192,57170,1,0
352,192,57598,1,0
352,192,58027,1,0
192,96,58670,2,0,B|192:256,3,150
320,256,60312,6,0,B|320:96,3,150
160,64,62098,6,0,B|160:160,8,75
32,128,64170,6,0,B|416:256,1,400
256,192,65955,12,0,69170
160,128,70027,5,0
256,128,70455,1,0
352,128,70884,1,0
352,256,71312,5,0
256,256,71741,1,0
160,256,72170,1,0
192,128,86312,5,0
256,128,86741,1,0
320,128,87170,2,0,B|320:192|320:192,1,50
320,192,87598,1,0
256,128,88027,5,0
192,128,88455,1,0
192,192,88884,2,0,B|256:192,1,50
256,192,89312,1,0
192,128,89741,5,0
256,128,90170,1,0
320,128,90598,2,0,B|320:192,2,50
384,64,91455,5,0
320,64,91884,1,0
96,64,92312,2,0,B|256:64,1,150
256,192,93170,5,0
256,192,93598,1,0
256,192,94027,1,0
256,96,94884,5,0
256,96,95312,1,0
256,96,95741,1,0
256,192,96598,5,0
256,192,97027,1,0
256,192,97455,1,0
256,288,98312,5,0
256,288,98741,1,0
256,288,99170,1,0
192,96,113527,6,0,B|192:256,3,150
256,96,115241,6,0,B|256:192,7,75
160,128,117170,5,0
256,128,117598,1,0
352,128,118027,1,0
256,128,118455,1,0
256,192,118884,12,0,120170
192,128,120812,5,0
256,128,121027,1,0
320,128,121241,1,0
256,192,121455,1,0
192,256,121884,5,0
256,256,122098,1,0
320,256,122312,1,0
320,256,122741,6,0,B|160:256,2,150
160,160,127670,5,0
288,160,128098,5,0
320,160,128312,1,0
352,160,128527,1,0
384,160,128741,1,0
384,256,129384,1,0
320,256,129812,5,0
288,256,130027,1,0
256,256,130241,1,0
224,256,130455,1,0
256,128,131098,1,0
352,128,131527,5,0
384,128,131741,1,0
416,128,131955,1,0
448,128,132170,1,0
256,192,132741,12,0,134098
128,96,134598,5,0
224,96,134955,1,0
256,96,135170,1,0
288,96,135384,1,0
320,96,135598,1,0
128,192,136241,5,0
224,192,136670,1,0
256,192,136884,1,0
288,192,137098,1,0
320,192,137312,1,0
160,128,137955,5,0
160,128,138384,1,0
160,128,138598,1,0
160,128,138812,1,0
160,128,139027,1,0
224,128,139455,6,0,B|224:224|224:224|224:224,4,75
256,192,155098,5,0
256,192,155527,5,0
256,192,155741,1,0
256,192,155955,1,0
256,192,156170,1,0
256,64,158598,5,0
256,64,158955,5,0
256,64,159170,1,0
256,64,159384,1,0
256,64,159598,1,0
256,320,161955,5,0
256,320,162384,5,0
256,320,162598,1,0
256,320,162812,1,0
256,320,163027,1,0
64,192,165455,5,0
64,192,165812,5,0
64,192,166027,1,0
64,192,166241,1,0
64,192,166455,5,0
256,192,167170,12,0,168670
288,128,182527,5,0
256,96,182955,5,0
320,96,183170,1,0
320,160,183384,1,0
256,160,183598,1,0
192,128,184241,1,0
160,96,184670,5,0
224,96,184884,1,0
160,160,185098,1,0
224,160,185312,1,0
192,224,185955,1,0
160,192,186384,5,0
224,192,186598,1,0
160,256,186812,1,0
224,256,187027,1,0
256,192,187670,5,0
256,192,187884,1,0
256,192,188098,1,0
256,192,188312,5,0
256,192,188527,1,0
256,192,188741,1,0
256,192,188955,1,0
192,96,189384,6,0,B|288:96,5,75
256,96,191098,6,0,B|256:192,5,75
256,160,192812,6,0,B|160:160,5,75
256,192,194384,12,0,195884
256,192,196241,12,0,197598
256,192,198027,12,0,199312
256,192,199812,12,0,200741
256,64,201455,5,0
256,64,201598,1,0
256,96,201812,1,0
256,128,202027,1,0
256,160,202241,1,0
256,192,202455,1,0
256,224,202670,1,0
256,192,203098,12,0,204455
256,192,204670,12,0,206170
256,192,206527,12,0,207670
