osu file format v9

[General]
AudioFilename: aqua - aquarium - roses are red.mp3
AudioLeadIn: 0
PreviewTime: -1
Countdown: 1
SampleSet: Soft
StackLeniency: 0.7
Mode: 0
LetterboxInBreaks: 1

[Editor]
DistanceSpacing: 0.8
BeatDivisor: 4
GridSize: 8

[Metadata]
Title:Roses Are Red
Artist:Aqua
Creator:SmosherML
Version:Normal
Source:
Tags:roses are red and violets blue aqua

[Difficulty]
HPDrainRate:4
CircleSize:4
OverallDifficulty:4
ApproachRate:5
SliderMultiplier:1.60000000596046
SliderTickRate:2

[Events]
//Background and Video events
0,0,"RosesRedVioletBlue 1.jpg"
Video,0,"Aqua - Roses Are Red HD.avi"
//Break Periods
2,17140,23013
//Storyboard Layer 0 (Background)
//Storyboard Layer 1 (Fail)
//Storyboard Layer 2 (Pass)
//Storyboard Layer 3 (Foreground)
//Storyboard Sound Samples
//Background Colour Transformations
3,100,163,162,255

[TimingPoints]
-6,428.663284989641,4,2,0,100,1,0
30873,-100,4,2,1,100,0,1
44574,-100,4,2,0,100,0,0
72009,-100,4,2,1,100,0,1
85726,-100,4,2,0,100,0,0
92585,-166.666666666667,4,2,0,100,0,0
99443,-100,4,2,0,100,0,0
126878,-100,4,2,1,100,0,1
150883,-100,4,2,0,100,0,0
154283,-166.666666666667,4,2,0,100,0,0
167998,-100,4,2,1,100,0,1
181747,-100,4,2,1,100,0,0
209140,-100,4,2,0,100,0,0

[Colours]
Combo1 : 255,0,128
Combo2 : 154,96,219
Combo3 : 255,0,0
Combo4 : 0,255,0
Combo5 : 0,242,242
Combo6 : 255,255,0
SliderBorder: 255,255,255

[HitObjects]
256,64,3423,5,0
328,160,3851,1,0
184,160,4280,1,0
256,248,4709,1,0
360,248,5137,2,0,B|352:336|256:416|160:336|152:240,1,320.000001192092
256,288,6852,5,0
184,192,7281,1,0
328,192,7709,1,0
256,104,8138,1,0
152,112,8567,2,0,B|160:24|256:-56|352:24|360:120,1,320.000001192092
152,112,10281,6,0,B|168:208|168:208|280:288|280:288|296:400,1,320.000001192092
224,344,11567,1,8
152,368,11996,2,0,B|168:280|168:280|280:200|280:200|296:88,1,320.000001192092
168,40,13711,6,0,B|112:200,1,160.000000596046
216,176,14568,2,0,B|160:336,1,160.000000596046,0|8
348,327,15425,6,0,B|296:176,1,160.000000596046
396,191,16283,2,0,B|344:40,1,160.000000596046,0|8
112,192,24213,5,0
208,112,24642,2,0,B|296:48,1,80.000000298023,0|8
304,144,25070,2,0,B|384:176,1,80.000000298023,0|8
488,248,25928,5,0
392,328,26356,2,0,B|304:392,1,80.000000298023,0|8
296,296,26785,2,0,B|216:264,1,80.000000298023,0|8
88,224,27642,5,0
24,96,28285,2,0,B|40:56|88:24|136:56|152:104,1,160.000000596046
256,96,29143,1,0
256,96,30857,5,4
352,56,31286,1,0
472,48,31715,2,0,B|480:192|408:184|328:176|344:344,1,320.000001192092
256,344,33001,1,8
160,312,33429,2,0,B|174:163|94:171|22:179|30:43,1,320.000001192092
136,64,34715,5,8
280,64,35144,1,0
200,136,35573,1,8
128,216,36001,1,0
200,296,36430,1,8
280,216,36859,1,0
376,328,37716,6,0,B|416:376|480:360|488:288|448:240,1,160.000000596046,0|8
332,258,38573,2,0,B|292:210|228:226|220:298|260:346,1,160.000000596046,0|8
165,331,39431,2,0,B|155:224|199:135|316:140|384:197,1,320.000001192092
368,312,40717,1,8
263,326,41145,2,0,B|268:222|223:135|111:141|36:200,1,320.000001192092
256,192,42860,12,0,44574
256,96,45003,1,8
152,160,45432,1,0
256,216,45860,1,8
344,280,46289,1,0
256,344,46718,1,8
168,280,47146,1,0
40,184,48004,6,0,B|24:72|96:0|200:24|232:144,1,320.000001192092
184,224,49290,1,8
272,280,49718,2,0,B|296:376|400:400|472:328|456:216,1,320.000001192092
368,96,51433,6,0,B|265:76|256:199,1,160.000000596046
344,232,52290,1,0
256,304,52719,1,8
168,232,53148,1,0
256,181,53576,2,0,B|248:74|144:93,1,160.000000596046
146,268,54862,6,0,B|249:288|258:165,1,160.000000596046
170,132,55720,1,0
258,60,56148,1,8
346,132,56577,1,0
258,183,57006,2,0,B|265:289|370:271,1,160.000000596046
344,136,58077,6,0,B|264:88|264:88|288:16,1,160.000000596046
160,25,58935,2,0,B|184:88|184:88|104:136,1,160.000000596046,0|0
104,232,59792,1,8
72,320,60221,2,0,B|161:394|248:312|248:312|327:395|432:320,1,400.000001490115
432,232,61721,5,0
352,144,62150,1,8
296,240,62578,1,0
232,152,63007,1,8
115,142,63650,2,0,B|115:30|235:-66|355:30|355:158,1,400.000001490115
231,107,65150,5,0
159,203,65579,1,8
87,107,66007,1,0
96,264,66436,2,0,B|113:298|158:336|209:298|225:250,1,160.000000596046,8|0
218,146,67294,2,0,B|202:106|154:75|106:106|90:154,1,160.000000596046,8|0
160,200,68151,1,0
39,231,68794,2,0,B|39:343|159:439|279:343|279:215,1,400.000001490115
256,192,70294,12,0,72009
192,184,72652,6,0,B|176:136|224:104,1,80.000000298023
293,136,73081,2,0,B|309:184|261:216,1,80.000000298023,0|0
160,288,73938,5,8
272,296,74367,2,0,B|320:296|320:296|320:264,1,80.000000298023
392,256,74795,2,0,B|392:208|392:208|424:208,1,80.000000298023
408,104,75653,5,8
328,176,76081,2,0,B|280:96,1,80.000000298023
328,32,76510,2,0,B|240:32,1,80.000000298023
175,127,77367,2,0,B|119:175|119:175|31:111|-84:237|31:375|121:303|121:303|175:367,1,480.000001788138
216,264,79082,5,8
328,192,79511,2,0,B|376:272,1,80.000000298023
328,336,79939,2,0,B|416:336,1,80.000000298023
464,232,80797,5,8
384,152,81225,2,0,B|288:152,1,80.000000298023
272,224,81654,2,0,B|168:224,1,80.000000298023
64,224,82511,5,8
144,144,82940,2,0,B|240:144,1,80.000000298023
256,72,83369,2,0,B|360:72,1,80.000000298023
256,192,84012,12,0,85726
256,104,86155,1,8
328,192,86583,1,0
256,264,87012,1,8
336,344,87441,1,0
408,272,87869,1,8
328,192,88298,1,0
408,112,88727,1,8
328,192,89155,6,0,B|391:265|365:405|232:400|176:304,1,320.000001192092
176,216,90441,1,8
72,208,90870,2,0,B|17:135|40:-8|184:0|240:96,1,320.000001192092
320,176,92585,6,0,B|304:264|213:241|213:241|192:336|99:309,1,288.000007939338
32,224,94299,1,0
80,104,94728,1,8
192,168,95157,1,0
256,72,95585,1,8
192,168,96014,2,0,B|208:256|299:233|299:233|320:328|413:301,1,288.000007939338
256,192,97729,12,0,99443
184,80,99872,5,8
256,160,100301,1,0
336,80,100729,1,8
441,72,101158,2,0,B|445:177|349:177|349:177|349:281|240:272,1,320.000001192092
256,160,102873,5,0
336,80,103301,1,8
264,0,103730,1,0
184,80,104159,1,8
72,72,104587,2,0,B|68:177|164:177|164:177|164:281|272:272,1,320.000001192092
432,256,106302,6,0,B|448:144|376:72|272:96|240:216,1,320.000001192092
296,264,107588,1,8
336,192,108017,2,0,B|312:96|208:72|136:144|152:256,1,320.000001192092
16,264,109731,6,0,B|-16:144|72:64|160:144|160:-8,1,320.000001192092
256,88,111017,1,8
352,10,111446,2,0,B|352:144|440:80|528:144|496:264,1,320.000001192092
400,336,112946,6,0,B|256:248,1,160.000000596046,0|8
144,240,113804,2,0,B|288:152,1,160.000000596046,0|8
256,48,114661,1,0
144,8,115090,2,0,B|144:136|256:208|368:136|368:0,1,400.000001490115
416,160,116590,6,0,B|401:236|322:205|322:297,1,160.000000596046,0|8
196,277,117447,2,0,B|171:198|111:232|100:153,1,160.000000596046,0|8
79,38,118519,2,0,B|183:-10|255:86|255:86|335:-10|447:46,1,400.000001490115
440,176,120448,5,0
360,280,120877,1,8
232,272,121305,1,0
176,160,121734,1,8
216,40,122163,1,0
328,0,122591,1,8
432,56,123020,1,0
400,224,123663,6,0,B|392:344|264:336|256:264|248:192|120:184|112:312,1,400.000001490115
256,192,125163,12,4,126878
341,164,127521,6,0,B|341:108|261:116,1,80.000000298023
253,196,127949,2,0,B|205:188|205:140,1,80.000000298023,0|0
256,40,128807,5,8
144,88,129235,2,0,B|208:144,1,80.000000298023
296,168,129664,2,0,B|232:224,1,80.000000298023
336,296,130521,5,8
448,248,130950,2,0,B|384:192,1,80.000000298023
296,168,131379,2,0,B|360:112,1,80.000000298023
160,88,132236,2,0,B|48:88|48:88|-16:88|-72:176|-16:256|48:256|48:256|176:256,1,480.000001788138
256,264,133951,5,8
392,336,134594,2,0,B|427:374|484:363|503:295|460:242,1,160.000000596046
256,120,135665,5,8
124,49,136308,2,0,B|88:8|28:21|8:86|55:134,1,160.000000596046
46,255,137380,5,8
180,304,137809,2,0,B|180:368|116:376,1,80.000000298023
248,359,138237,2,0,B|256:311|320:311,1,80.000000298023
382,247,138880,2,0,B|502:167|446:-41|318:-57|158:-25|142:191|278:255,1,640.000002384184
366,159,141238,6,0,B|382:111|334:79,1,80.000000298023
273,112,141667,2,0,B|257:160|305:192,1,80.000000298023,0|0
320,272,142524,5,8
216,320,142953,2,0,B|160:304|168:232,1,80.000000298023
96,264,143381,2,0,B|80:320|8:312,1,80.000000298023
40,168,144239,5,8
104,96,144667,2,0,B|128:144|128:144|176:144,1,80.000000298023
146,216,145096,2,0,B|120:216|120:216|96:264,1,80.000000298023
256,264,145953,2,0,B|264:120|424:96|520:224|448:384|312:360,1,480.000001788138
350,254,147668,5,8
256,264,148097,2,0,B|208:264|224:304|184:304|184:304,1,80.000000298023
112,304,148525,2,0,B|64:304|80:264|40:264|40:264,1,80.000000298023
0,152,149383,5,8
104,96,149811,2,0,B|128:96|128:96|152:120|152:120|184:120,1,80.000000298023
176,200,150240,2,0,B|152:200|152:200|128:224|128:224|96:224,1,80.000000298023
320,256,154312,6,0,B|432:272|512:144|432:16|312:40,1,384.000010585784
256,96,156456,1,0
344,144,156884,1,0
264,208,157313,1,0
256,312,157742,6,0,B|144:328|64:208|144:72|264:96,1,384.000010585784
352,160,159885,1,0
264,208,160314,1,0
344,272,160742,1,0
424,320,161171,6,0,B|400:416|264:416|312:256|208:256|264:416|128:416|104:320,1,384.000010585784
168,280,163314,1,0
232,208,163743,1,0
160,144,164172,1,0
79,116,164600,2,0,B|75:28|152:-39|249:24|238:123,1,288.000007939338
256,192,166529,12,4,168030
256,80,168458,5,8
344,144,168887,1,0
256,208,169315,1,8
160,264,169744,1,0
256,328,170173,1,8
352,272,170601,1,0
256,208,171030,1,8
168,144,171459,5,0
64,208,171887,1,8
96,328,172316,1,0
208,328,172745,1,8
256,208,173173,1,0
168,144,173602,6,0,B|152:104|104:72|56:104|40:160,1,160.000000596046,8|0
194,254,174459,2,0,B|210:294|258:326|306:294|322:238,1,160.000000596046,8|4
328,152,175317,5,8
256,80,175745,1,0
184,152,176174,1,8
256,224,176603,2,0,B|296:240|328:288|296:344|240:352,1,160.000000596046,0|8
324,154,177460,2,0,B|288:144|256:88|288:48|328:32,1,160.000000596046,0|8
416,128,178317,2,0,B|400:256|280:256|248:184|248:184|216:248|88:248|88:120,1,480.000001788138,0|8
256,192,180032,12,0,181747
152,208,182390,6,0,B|200:240|248:192,1,80.000000298023
240,288,182818,2,0,B|288:256|336:304,1,80.000000298023,0|0
440,192,183676,5,8
352,120,184104,2,0,B|296:120|296:56,1,80.000000298023
224,72,184533,2,0,B|225:118|169:118,1,80.000000298023
32,192,185390,5,8
128,264,185819,2,0,B|184:264|184:328,1,80.000000298023
256,312,186248,2,0,B|254:265|310:265,1,80.000000298023
381,176,187105,2,0,B|381:24|245:-80|109:24|109:192,1,480.000001788138
184,144,188820,5,8
304,168,189248,2,0,B|336:216|288:256,1,80.000000298023
232,280,189677,2,0,B|280:352,1,80.000000298023
424,272,190534,5,8
304,248,190963,2,0,B|272:200|320:160,1,80.000000298023
376,136,191392,2,0,B|328:64,1,80.000000298023
192,64,192249,5,8
112,128,192678,2,0,B|112:184|192:272|272:184|272:112,1,240.000000894069
360,88,193749,2,0,B|336:280|192:352|32:280|24:80,1,560.000002086161
120,48,195678,5,8
240,88,196107,2,0,B|264:128|264:128|256:176,1,80.000000298023
341,160,196536,2,0,B|335:127|335:127|359:87,1,80.000000298023
480,240,197393,5,8
360,232,197822,2,0,B|336:192|336:192|344:144,1,80.000000298023
259,160,198250,2,0,B|264:192|264:192|240:232,1,80.000000298023
112,232,199108,5,8
176,304,199536,2,0,B|120:376|8:344|24:216,1,240.000000894069
176,200,200822,2,0,B|168:48|328:40|336:128|344:216|512:192|496:16,1,480.000001788138
400,64,202537,5,8
256,160,202966,2,0,B|256:208|288:216|288:216|288:240,1,80.000000298023
368,208,203394,2,0,B|368:160|336:152|336:152|336:128,1,80.000000298023
253,61,204252,5,8
256,160,204680,2,0,B|240:200|240:200|256:232|240:256,1,80.000000298023
328,224,205109,2,0,B|344:184|344:184|328:152|344:128,1,80.000000298023
187,113,205966,5,8
255,61,206395,2,0,B|199:-11|87:21|103:149,1,240.000000894069
256,192,207467,12,0,209181
