osu file format v9

[General]
AudioFilename: aqua - aquarium - roses are red.mp3
AudioLeadIn: 0
PreviewTime: -1
Countdown: 1
SampleSet: Soft
StackLeniency: 0.7
Mode: 0
LetterboxInBreaks: 1

[Editor]
DistanceSpacing: 0.8
BeatDivisor: 4
GridSize: 8

[Metadata]
Title:Roses Are Red
Artist:Aqua
Creator:SmosherML
Version:Easy
Source:
Tags:roses are red and violets blue aqua

[Difficulty]
HPDrainRate:2
CircleSize:3
OverallDifficulty:2
ApproachRate:3
SliderMultiplier:1.40000000596046
SliderTickRate:2

[Events]
//Background and Video events
0,0,"RosesRedVioletBlue 1.jpg"
Video,0,"Aqua - Roses Are Red HD.avi"
//Break Periods
2,17140,22773
//Storyboard Layer 0 (Background)
//Storyboard Layer 1 (Fail)
//Storyboard Layer 2 (Pass)
//Storyboard Layer 3 (Foreground)
//Storyboard Sound Samples
//Background Colour Transformations
3,100,163,162,255

[TimingPoints]
-6,428.663284989641,4,2,0,100,1,0
30857,-100,4,2,1,100,0,1
44574,-100,4,2,0,100,0,0
72009,-100,4,2,1,100,0,1
85726,-100,4,2,0,100,0,0
126878,-100,4,2,1,100,0,1
150883,-100,4,2,0,100,0,0
154283,-166.666666666667,4,2,0,100,0,0
167998,-100,4,2,1,100,0,1
181747,-100,4,2,1,100,0,0
209140,-100,4,2,0,100,0,0

[Colours]
Combo1 : 255,255,0
Combo2 : 154,96,219
Combo3 : 255,0,0
Combo4 : 0,255,0
Combo5 : 0,240,240
Combo6 : 255,0,128
SliderBorder : 255,255,255

[HitObjects]
128,192,3423,1,0
312,64,4280,1,8
456,216,5137,2,0,B|488:304|440:384|336:376|304:280,1,280.000001192092,0|0
88,272,6852,5,0
288,176,7709,1,8
64,176,8567,2,8,B|32:88|80:8|184:16|216:112,1,280.000001192092,0|0
456,104,10281,6,0,B|448:219|384:211|320:203|312:323,1,280.000001192092
455,326,11996,2,0,B|447:206|383:214|319:222|311:107,1,280.000001192092
56,80,13711,5,0
149,272,14568,2,0,B|208:344|284:264,1,140.000000596046,0|8
376,312,15425,1,0
240,136,16283,2,0,B|176:64|105:144,1,140.000000596046,0|8
408,248,24213,5,0
256,192,24856,2,0,B|192:136|248:56,1,140.000000596046,8|0
104,136,25928,5,0
256,192,26571,2,0,B|320:248|264:328,1,140.000000596046,8|0
120,320,27642,5,0
117,192,28285,2,0,B|261:192,1,140.000000596046,8|0
392,192,30857,5,4
384,80,31715,2,0,B|312:48|256:104|256:104|200:40|120:80,1,280.000001192092
176,256,33429,2,0,B|176:348|256:396|336:348|335:256,1,280.000001192092
441,190,35144,1,0
256,32,36001,1,8
72,192,36859,1,0
128,312,37716,6,0,B|200:352|256:288|256:288|312:352|384:312,1,280.000001192092
336,136,39431,2,0,B|337:44|257:-4|177:44|177:140,1,280.000001192092
136,304,41145,1,0
391,296,42003,1,0
256,192,42860,12,0,44574
72,192,45432,5,0
200,296,46289,2,0,B|330:370|330:154|330:370|466:298,1,280.000001192092
419,150,48004,5,0
288,40,48861,1,8
160,144,49718,2,0,B|290:78|290:294|290:78|424:152,1,280.000001192092
376,272,51433,5,0
256,352,52290,1,8
168,248,53148,2,0,B|136:160|184:80|288:88|320:184,1,280.000001192092
376,304,54862,5,0
264,216,55720,1,8
318,82,56577,2,0,B|342:10|459:-24|503:80|468:173,1,280.000001192092
392,264,58077,6,0,B|240:200,1,140.000000596046,0|8
272,304,58935,2,0,B|128:368,1,140.000000596046,0|8
48,296,59792,1,0
128,208,60221,2,0,B|128:143|128:143|128:87|195:21|264:87|264:143|264:143|264:215,1,350.000001490115
202,265,61721,6,0,B|202:361|104:360,1,140.000000596046,0|8
40,288,62578,2,0,B|40:192|144:192,1,140.000000596046,0|8
280,200,63650,2,0,B|280:265|280:265|280:321|347:387|416:321|416:265|416:265|416:193,1,350.000001490115
280,120,65579,6,0,B|280:32|192:32,1,140.000000596046,0|8
192,120,66436,2,0,B|104:120|104:208,1,140.000000596046,0|8
192,216,67294,2,0,B|192:304|280:304,1,140.000000596046,0|8
288,208,68151,1,0
400,192,68794,2,0,B|400:112|360:24|248:-48|136:24|104:112|104:200,1,490.000002086161
256,192,70401,12,0,72009
192,47,72866,6,0,B|312:127,1,140.000000596046
304,296,73938,1,8
160,128,74581,2,0,B|40:208,1,140.000000596046,0|0
112,336,75653,1,8
272,336,76296,2,0,B|432:336,1,140.000000596046
416,232,77367,2,0,B|432:88|264:72|248:160|232:240|72:232|88:72,1,490.000002086161
256,40,79725,6,0,B|411:37,1,140.000000596046,0|8
488,184,80797,1,0
336,256,81440,2,0,B|192:256,1,140.000000596046,0|8
48,352,82511,1,0
248,352,83154,2,0,B|400:352,1,140.000000596046,0|8
328,272,84012,2,0,B|296:184|344:104|448:112|480:208,1,280.000001192092
432,328,85726,5,4
256,200,86583,1,8
64,320,87441,1,0
184,160,88298,2,8,B|213:78|316:60|365:150|333:238,1,280.000001192092,0|0
105,326,90013,5,0
256,192,90870,1,8
103,58,91727,1,0
340,51,92585,2,0,B|428:52|468:143|426:224|332:223,1,280.000001192092
152,179,94299,2,0,B|64:180|24:271|66:352|160:351,1,280.000001192092
320,272,96014,5,0
152,176,96871,1,0
256,192,97729,12,0,99443
256,96,100301,5,0
162,140,101158,2,0,B|176:227|256:267|344:227|348:118,1,280.000001192092
407,226,102873,2,0,B|376:312|296:308,1,140.000000596046,0|8
208,304,103730,2,0,B|128:304|103:222,1,140.000000596046,0|8
164,135,104587,2,0,B|178:48|258:8|346:48|350:157,1,280.000001192092
448,224,106302,6,0,B|472:296|432:392|312:368|296:264,1,280.000001192092
64,224,108017,2,0,B|40:296|80:392|200:368|216:264,1,280.000001192092
72,136,109731,6,0,B|192:48,1,140.000000596046,0|0
200,160,110589,2,0,B|336:112,1,140.000000596046,0|0
296,232,111446,2,0,B|440:232,1,140.000000596046,0|0
480,344,112303,1,0
376,336,112946,6,0,B|304:336|304:336|248:288,1,140.000000596046,0|8
143,296,113804,2,0,B|92:340|92:340|20:340,1,140.000000596046,0|8
56,240,114661,1,0
104,152,115090,2,0,B|200:152|200:152|256:96|256:96|320:152|320:152|428:154,1,350.000001490115
424,240,116590,6,0,B|344:240|344:240|314:292,1,140.000000596046,0|0
200,288,117447,2,0,B|170:235|170:235|90:235,1,140.000000596046,0|0
144,128,118519,2,0,B|168:8|256:-24|360:8|376:160,1,350.000001490115
432,288,120448,6,0,B|344:312|320:216,1,140.000000596046
256,128,121305,2,0,B|256:40,2,70.000000298023
196,236,122163,2,0,B|176:320|88:296,1,140.000000596046
96,192,123020,1,0
104,48,123663,2,0,B|200:48|200:48|256:104|256:104|320:48|320:48|432:48,1,350.000001490115
256,192,125163,12,0,126878
440,224,127735,6,0,B|448:320|352:328,1,140.000000596046
256,192,128807,1,8
88,184,129450,2,0,B|80:88|176:80,1,140.000000596046
256,192,130521,1,8
200,304,131164,2,0,B|232:336|232:336|280:336|280:336|312:304,1,140.000000596046
419,192,132236,2,0,B|352:192|352:192|312:136|312:136|256:184|256:184|200:136|200:136|160:184|160:184|80:184,1,420.000001788138
32,80,133951,5,0
88,184,134594,2,0,B|136:232|136:232|208:200,1,140.000000596046,0|8
256,80,135665,1,0
336,208,136308,2,0,B|401:178|401:178|449:226,1,140.000000596046,0|8
384,336,137380,1,0
248,328,138023,2,0,B|104:328,1,140.000000596046,0|8
56,240,138880,2,0,B|160:240|160:240|216:200|216:200|328:200,1,280.000001192092
464,192,140809,5,2
384,80,141452,2,0,B|256:144,1,140.000000596046,0|8
120,46,142524,1,0
105,190,143167,2,0,B|233:254,1,140.000000596046,0|8
368,192,144239,1,0
448,296,144882,2,0,B|320:360,1,140.000000596046,0|8
256,232,145953,2,0,B|200:104|200:104|64:104|64:104|0:240,1,420.000001788138
0,344,147668,5,0
128,288,148311,2,0,B|264:224,1,140.000000596046,0|8
368,304,149383,1,0
368,176,150026,2,0,B|241:116,1,140.000000596046,0|8
440,264,154312,6,0,B|432:152|384:56|256:-24|136:64|96:152|88:272,1,588.000016522406
192,192,157956,1,0
328,192,158599,1,0
472,200,159028,2,0,B|472:264|424:360|336:408|232:360|192:264|192:184,1,462.00001298189
64,192,162028,5,0
64,192,162457,2,0,B|64:120|104:16|208:-24|304:24|344:120|344:200,1,462.00001298189
240,264,165458,2,0,B|152:264,1,84.0000023603437
256,192,166529,12,4,168030
128,200,168887,5,0
256,64,169744,1,8
400,192,170601,1,0
256,320,171459,1,8
152,104,172316,1,0
360,96,173173,1,8
336,232,174031,2,0,B|336:320|256:376|168:320|176:224,1,280.000001192092,0|4
64,112,175745,5,0
160,232,176603,1,8
256,104,177460,1,0
360,232,178317,1,8
464,112,179175,1,0
256,192,180032,12,4,181747
408,144,182604,6,0,B|320:144|320:48,1,140.000000596046
256,192,183676,1,8
104,144,184319,2,0,B|192:144|192:48,1,140.000000596046
256,192,185390,5,8
320,320,186033,2,0,B|256:384|184:312,1,140.000000596046
192,176,187105,2,0,B|192:112|256:120|328:96|328:32|256:0|256:0|192:32|192:96|256:120|328:112|328:192,1,490.000002086161
336,352,189463,6,0,B|328:264|408:240,1,140.000000596046,0|8
472,144,190534,1,0
312,168,191177,2,0,B|248:224|184:160,1,140.000000596046,0|8
40,136,192249,1,0
110,242,192892,2,0,B|184:264|176:352,1,140.000000596046,0|8
256,280,193749,2,0,B|256:-8,1,280.000001192092
122,152,195678,5,8
256,272,196321,2,0,B|339:270|337:175,1,140.000000596046,0|8
330,40,197393,1,0
203,60,198036,2,0,B|120:62|120:152,1,140.000000596046,0|8
299,198,199108,1,0
363,301,199751,2,0,B|300:374|237:295,1,140.000000596046,0|8
104,240,200822,2,0,B|88:96|256:80|272:168|288:248|448:240|432:80,1,490.000002086161
264,40,203180,6,0,B|112:64,1,140.000000596046,0|8
24,192,204252,1,0
128,320,204895,2,0,B|280:344,1,140.000000596046,0|8
328,192,205966,1,0
160,192,206609,2,0,B|8:192,1,140.000000596046,0|8
256,192,207252,12,0,209181
