osu file format v12

[General]
AudioFilename: Aqua_-_Cartoon_Heroes.mp3
AudioLeadIn: 0
PreviewTime: 62946
Countdown: 0
SampleSet: Soft
StackLeniency: 0.7
Mode: 0
LetterboxInBreaks: 1
WidescreenStoryboard: 0

[Editor]
DistanceSpacing: 0.8
BeatDivisor: 4
GridSize: 8

[Metadata]
Title:Cartoon Heroes
TitleUnicode:
Artist:Aqua
ArtistUnicode:
Creator:DragonSparta
Version:Novice
Source:
Tags:Death_The_Kid
BeatmapID:86948
BeatmapSetID:13025

[Difficulty]
HPDrainRate:2
CircleSize:3
OverallDifficulty:2
ApproachRate:2
SliderMultiplier:0.899999999999999
SliderTickRate:2

[Events]
//Background and Video events
0,0,"Modnar GB.jpg",0,0
//Break Periods
2,155489,168729
//Storyboard Layer 0 (Background)
//Storyboard Layer 1 (Fail)
//Storyboard Layer 2 (Pass)
//Storyboard Layer 3 (Foreground)
//Storyboard Sound Samples
//Background Colour Transformations
3,100,64,0,64

[TimingPoints]
1539,468.75,4,2,0,60,1,0
22514,-100,4,1,0,60,0,0
33649,-100,4,2,0,60,0,0
48296,-100,4,1,0,60,0,0
62944,-66.6666666666667,4,1,0,90,0,1
93413,-100,4,2,0,60,0,0
110171,-100,4,1,0,60,0,0
125288,-66.6666666666667,4,1,0,90,0,1
155288,-133.333333333333,4,2,0,40,0,0
170288,-66.6666666666667,4,1,0,90,0,1
185171,-66.6666666666667,4,1,0,90,0,0
185288,-66.6666666666667,4,1,0,90,0,1
200759,-66.6666666666667,4,1,0,90,0,0
211421,-66.6666666666667,4,1,0,90,0,0
211538,-66.6666666666667,4,1,0,90,0,1
211655,-66.6666666666667,4,1,0,90,0,0

[Colours]
Combo1 : 0,0,255
Combo2 : 0,255,0
Combo3 : 255,255,0
Combo4 : 255,0,0
Combo5 : 128,0,128

[HitObjects]
256,48,7164,1,4,0:0:0:0:
256,136,7633,1,0,0:0:0:0:
256,224,8101,1,0,0:0:0:0:
344,224,8570,1,0,0:0:0:0:
432,224,9039,6,2,B|432:320|320:336|296:304,1,180
224,312,10445,1,0,0:0:0:0:
136,312,10914,1,4,0:0:0:0:
48,312,11383,1,0,0:0:0:0:
48,224,11851,1,0,0:0:0:0:
48,136,12320,1,0,0:0:0:0:
48,48,12789,6,2,B|136:8|232:48,1,180
288,96,14195,1,0,0:0:0:0:
288,184,14664,1,0,0:0:0:0:
288,272,15133,6,0,B|240:352|136:360|80:336|48:256|64:176|80:160,1,360
120,96,17476,1,0,0:0:0:0:
176,24,17945,1,2,0:0:0:0:
256,192,18414,12,0,21695,0:0:0:0:
40,32,22633,6,0,B|128:32|128:32|192:96,1,180,0|8,0:0|0:0,0:0:0:0:
248,160,24039,2,2,B|312:224|312:224|368:224,2,135
312,96,25914,1,4,0:0:0:0:
368,24,26383,6,0,B|464:24,2,89.9999999999999
368,120,27789,2,0,B|296:200,1,89.9999999999999
368,256,28726,2,2,B|408:296,2,45
256,192,29664,12,4,33414,0:0:0:0:
64,48,33883,6,0,B|40:144,2,89.9999999999999
136,96,35289,2,0,B|208:224,2,135
216,56,37164,1,4,0:0:0:0:
296,88,37633,6,0,B|488:88,1,180
456,168,39039,2,2,B|272:168,2,180,2|2|6,0:0|0:0|0:0,0:0:0:0:
456,256,41383,6,0,B|176:256,1,270
104,256,43258,1,0,0:0:0:0:
104,168,43726,1,0,0:0:0:0:
104,80,44195,1,0,0:0:0:0:
192,80,44664,6,4,B|272:80|272:80|304:112|304:112|376:112,1,180
360,200,46070,1,0,0:0:0:0:
448,200,46539,2,4,B|448:264|448:264|504:304|504:304|504:352,1,180
416,360,47945,1,0,0:0:0:0:
328,360,48414,1,4,0:0:0:0:
240,360,48883,6,2,B|144:360,2,89.9999999999999
320,312,50289,1,4,0:0:0:0:
240,272,50758,2,2,B|240:216,1,45
240,152,51461,2,0,B|240:96,1,45
240,24,52164,1,4,0:0:0:0:
336,24,52633,5,4,0:0:0:0:
424,24,53101,2,8,B|424:224,3,180
336,200,56383,1,2,0:0:0:0:
240,200,56851,1,8,0:0:0:0:
40,192,57555,5,0,0:0:0:0:
40,280,58023,2,0,B|104:280,1,45
176,280,58726,1,8,0:0:0:0:
256,192,59664,12,0,62476,0:0:0:0:
40,192,63648,6,0,B|40:272,1,67.4999979883432
40,328,64351,2,0,B|168:344|216:280|216:176,2,269.999991953373,0|8|0,0:0|0:0|0:0,0:0:0:0:
40,240,66695,1,0,0:0:0:0:
40,152,67164,1,4,0:0:0:0:
40,64,67633,6,2,B|176:64,1,134.999995976686
216,144,68570,2,2,B|368:144,1,134.999995976686
440,144,69508,1,0,0:0:0:0:
440,232,69976,1,8,0:0:0:0:
440,320,70445,1,4,0:0:0:0:
352,320,70914,5,0,0:0:0:0:
264,320,71383,2,0,B|208:280|72:376|-8:296,2,269.999991953373,0|8|0,0:0|0:0|0:0,0:0:0:0:
272,232,73726,1,0,0:0:0:0:
272,136,74195,1,8,0:0:0:0:
272,40,74664,1,4,0:0:0:0:
360,48,75133,6,2,B|448:48|448:48|448:120,1,134.999995976686
448,168,76070,2,2,B|360:168|360:168|360:224,1,134.999995976686
352,304,77008,2,0,B|280:304,1,67.4999979883432
168,304,77945,1,4,0:0:0:0:
48,40,78883,6,0,B|48:312,1,269.999991953373
256,328,80758,2,2,B|256:32,1,269.999991953373
256,192,82164,12,4,85914,0:0:0:0:
24,64,86383,6,0,B|96:24|216:120|312:56,1,269.999991953373
392,192,88258,2,0,B|320:160|192:248|104:176,1,269.999991953373,0|8,0:0|0:0,0:0:0:0:
48,216,89664,6,0,B|48:352|256:384|464:352|472:200,2,539.999983906746,2|4|2,0:0|0:0|0:0,0:0:0:0:
48,32,95758,6,0,B|112:96,1,89.9999999999999
184,48,96695,1,0,0:0:0:0:
272,48,97164,2,0,B|224:184,2,135
360,48,99039,1,4,0:0:0:0:
448,48,99508,6,0,B|448:144|376:160|296:128|288:256,1,270
296,328,101383,2,0,B|240:328,1,45
160,328,102086,2,0,B|104:328,1,45
24,328,102789,1,4,0:0:0:0:
40,240,103258,6,0,B|8:88|96:16|176:64,2,270
128,240,106539,2,2,B|160:216|168:160,1,89.9999999999999
256,152,107476,2,2,B|344:152,1,89.9999999999999
392,160,108180,2,0,B|328:288,1,135
240,280,109351,1,2,0:0:0:0:
152,280,109820,1,2,0:0:0:0:
64,280,110289,1,6,0:0:0:0:
64,184,110758,5,4,0:0:0:0:
64,96,111226,2,2,B|128:32|192:96|168:168,1,180
256,160,112633,2,0,B|312:160,1,45
320,240,113336,2,0,B|384:240,1,45
456,240,114039,1,8,0:0:0:0:
256,192,114508,12,0,117320,0:0:0:0:
96,48,117789,6,0,B|56:144,2,89.9999999999999
184,48,119195,1,8,0:0:0:0:
224,128,119664,2,0,B|272:224,2,89.9999999999999
312,128,121070,1,8,0:0:0:0:
368,56,121539,6,2,B|432:56|432:128,1,89.9999999999999
448,184,122476,2,2,B|448:376,2,180
392,184,124586,2,0,B|336:184,3,45,0|0|0|4,0:0|0:0|0:0|0:0,0:0:0:0:
264,176,125758,5,0,0:0:0:0:
176,176,126226,2,8,B|48:176|48:176|48:40|152:48|184:88|240:24,1,404.999987930059
328,24,128101,1,0,0:0:0:0:
416,24,128570,1,8,0:0:0:0:
416,120,129039,1,4,0:0:0:0:
416,208,129508,6,2,B|272:208,1,134.999995976686
280,296,130445,2,2,B|136:296,1,134.999995976686
56,296,131383,1,0,0:0:0:0:
56,208,131851,1,8,0:0:0:0:
56,120,132320,1,4,0:0:0:0:
56,32,132789,6,0,B|352:32,1,269.999991953373
408,32,134195,1,8,0:0:0:0:
408,120,134664,2,0,B|120:120,1,269.999991953373
136,208,136070,1,8,0:0:0:0:
136,296,136539,6,2,B|272:296,1,134.999995976686
264,376,137476,2,2,B|400:376,1,134.999995976686
448,304,138414,2,2,B|368:104,2,202.49999396503
360,304,140289,1,4,0:0:0:0:
256,192,140758,12,4,144039,0:0:0:0:
256,192,144508,5,0,0:0:0:0:
256,104,144976,2,2,B|376:104|376:104|376:224|480:216,1,269.999991953373
456,304,146383,1,0,0:0:0:0:
368,304,146851,2,4,B|224:304,1,134.999995976686
144,304,147789,1,4,0:0:0:0:
144,216,148258,6,0,B|72:216|72:216|120:176|72:112|16:112|48:24,1,269.999991953373
120,64,149664,1,4,0:0:0:0:
208,64,150133,2,0,B|360:64,1,134.999995976686
424,64,151070,1,0,0:0:0:0:
256,192,151539,12,4,155289,0:0:0:0:
112,56,170289,6,0,B|24:176|24:176|128:192|96:336|224:320,1,404.999987930059
304,320,172164,5,0,0:0:0:0:
392,320,172633,1,0,0:0:0:0:
480,320,173101,5,0,0:0:0:0:
480,232,173570,2,0,B|480:160,1,67.4999979883432
480,120,174039,1,0,0:0:0:0:
480,32,174508,1,0,0:0:0:0:
392,32,174976,1,0,0:0:0:0:
304,32,175445,1,0,0:0:0:0:
216,32,175914,5,8,0:0:0:0:
128,32,176383,1,0,0:0:0:0:
40,32,176851,2,2,B|40:64|40:64|96:104|96:104|96:160,2,134.999995976686
40,128,178258,5,0,0:0:0:0:
40,224,178726,2,0,B|264:352|504:224,1,472.499985918403
496,144,180836,2,4,B|416:144,1,67.4999979883432
256,192,181539,12,4,185289,0:0:0:0:
40,192,185758,6,0,B|40:32,1,134.999995976686
128,56,186695,1,0,0:0:0:0:
216,56,187164,2,2,B|336:56|344:200|448:200,1,269.999991953373
432,288,188570,1,8,0:0:0:0:
344,288,189039,1,4,0:0:0:0:
256,288,189508,6,2,B|176:320|144:224,1,134.999995976686
144,152,190445,1,8,0:0:0:0:
144,64,190914,2,2,B|424:64,1,269.999991953373
496,64,192320,1,8,0:0:0:0:
496,152,192789,1,4,0:0:0:0:
496,240,193258,6,2,B|352:240,1,134.999995976686
360,152,194195,1,2,0:0:0:0:
360,64,194664,1,0,0:0:0:0:
272,64,195133,2,0,B|192:64,1,67.4999979883432
120,64,195836,2,0,B|120:144,2,67.4999979883432
256,192,196773,12,4,200289,0:0:0:0:
24,176,200758,6,0,B|40:304|176:304|192:168,1,269.999991953373,0|8,0:0|0:0,0:0:0:0:
352,64,202633,6,0,B|472:88|480:224|336:256,1,269.999991953373,0|8,0:0|0:0,0:0:0:0:
280,248,204039,2,0,B|248:248|248:248|184:296|184:296|152:296,3,134.999995976686,0|8|0|4,0:0|0:0|0:0|0:0,0:0:0:0:
256,192,205914,12,0,209195,0:0:0:0:
256,192,209664,12,4,211539,0:0:0:0:
