osu file format v13

[General]
AudioFilename: Nightcore - Barbie Girl.mp3
AudioLeadIn: 0
PreviewTime: 42489
Countdown: 0
SampleSet: Normal
StackLeniency: 0.7
Mode: 0
LetterboxInBreaks: 0
EpilepsyWarning: 1
WidescreenStoryboard: 0

[Editor]
DistanceSpacing: 0.5
BeatDivisor: 4
GridSize: 4
TimelineZoom: 1

[Metadata]
Title:Barbie Girl (Nightcore Mix)
TitleUnicode:Barbie Girl (Nightcore Mix)
Artist:Aqua
ArtistUnicode:Aqua
Creator:Gabe
Version:Normal
Source:
Tags:Lally Gero Plastic World It's Fantastic Techno Rave Veus Remix
BeatmapID:326543
BeatmapSetID:50134

[Difficulty]
HPDrainRate:5
CircleSize:3.5
OverallDifficulty:4
ApproachRate:5
SliderMultiplier:1.2
SliderTickRate:1

[Events]
//Background and Video events
0,0,"Background.png",0,0
//Break Periods
2,57838,68487
//Storyboard Layer 0 (Background)
//Storyboard Layer 1 (Fail)
//Storyboard Layer 2 (Pass)
//Storyboard Layer 3 (Foreground)
//Storyboard Sound Samples
//Background Colour Transformations
3,100,128,255,255

[TimingPoints]
402,376.553282289444,4,1,3,60,1,0
29020,-100,4,2,3,30,0,0
30526,-100,4,1,3,60,0,1
41822,-100,4,2,0,20,0,1
42199,-100,4,1,0,60,0,1
42481,-100,4,1,0,60,0,0
42575,-100,4,1,3,60,0,1
54625,-100,4,1,0,60,0,0
55378,-100,4,1,0,50,0,0
56131,-100,4,2,0,50,0,0
56884,-100,4,2,0,40,0,0
57638,-100,4,2,0,30,0,0
69687,-100,4,2,0,50,0,0
70064,-100,4,1,0,30,0,0
70252,-100,4,2,0,50,0,0
70440,-100,4,1,0,40,0,0
70817,-100,4,1,0,50,0,0
72700,-100,4,2,0,50,0,0
73076,-100,4,1,0,30,0,0
73265,-100,4,2,0,50,0,0
73453,-100,4,1,0,40,0,0
73829,-100,4,1,0,50,0,0
75712,-100,4,1,0,30,0,0
76089,-100,4,1,0,40,0,0
76465,-100,4,1,0,30,0,0
76842,-100,4,1,0,40,0,0
77218,-100,4,1,0,50,0,0
77595,-100,4,1,0,60,0,0
77971,-100,4,1,0,40,0,0
78348,-100,4,1,0,30,0,0
78725,-100,4,1,0,50,0,0
81737,-100,4,1,3,60,0,1
93598,-100,4,1,3,40,0,0
93787,-100,4,1,3,60,0,1
105836,-100,4,1,3,60,0,0

[Colours]
Combo1 : 0,125,251
Combo2 : 196,255,255
Combo3 : 0,255,255
SliderBorder : 255,255,255

[HitObjects]
64,48,18476,6,0,B|88:100|36:168|68:228,1,180,4|0,2:1|0:0,0:0:0:0:
88,252,19229,2,0,P|144:308|204:308,1,120,8|0,0:0|0:0,0:0:0:0:
388,188,20359,1,0,0:0:0:0:
384,92,20735,2,0,P|441:106|477:152,1,120,8|0,0:0|0:0,0:0:0:0:
468,252,21488,6,0,B|396:316|324:264|324:264|268:328,1,240,4|8,2:1|0:0,0:0:0:0:
152,348,22618,1,0,0:0:0:0:
16,148,23371,2,0,L|16:80,1,60
40,64,23748,2,0,P|91:93|150:53,1,120,8|0,0:0|0:0,0:0:0:0:
256,32,24501,6,0,P|332:24|388:112,1,180,4|0,2:1|0:0,0:0:0:0:
380,132,25254,2,0,P|360:160|392:248,1,120,8|0,0:0|0:0,0:0:0:0:
468,320,26007,2,0,L|216:344,1,240,4|8,2:1|0:0,0:0:0:0:
108,352,27137,1,0,0:0:0:0:
28,264,27513,6,0,P|4:204|20:148,1,120,4|0,2:1|0:0,0:0:0:0:
48,140,28078,1,0,0:0:0:0:
76,128,28266,2,0,P|88:70|65:16,2,120,8|0|0,0:0|0:0|0:0,0:0:0:0:
156,356,29773,1,0,0:0:0:0:
368,248,30526,6,0,P|356:164|260:128,1,180,4|0,0:0|0:0,0:0:0:0:
248,136,31279,2,0,L|112:132,1,120,2|8,2:0|0:0,0:0:0:0:
24,192,32032,2,0,P|88:232|104:280,1,120,0|8,0:0|0:0,0:0:0:0:
116,300,32597,1,0,0:0:0:0:
132,328,32785,2,0,L|276:332,1,120,2|8,2:0|0:0,0:0:0:0:
368,284,33538,6,0,P|400:264|408:224,1,60,2|0,2:0|0:0,0:0:0:0:
424,216,33915,2,0,P|436:168|504:128,2,120,8|2|8,0:0|2:0|0:0,0:0:0:0:
308,240,35044,1,0,0:0:0:0:
192,268,35421,2,0,P|180:316|112:356,2,120,8|2|8,0:0|2:0|0:0,0:0:0:0:
168,152,36551,6,0,P|191:107|266:84,1,120,4|8,0:0|0:0,0:0:0:0:
372,88,37304,2,0,P|400:69|424:40,2,60,2|0|8,2:0|0:0|0:0,0:0:0:0:
312,192,38057,2,0,P|288:232|312:316,1,120,2|8,2:0|0:0,0:0:0:0:
408,352,38810,2,0,L|480:372,2,60,2|0|8,2:0|0:0|0:0,0:0:0:0:
300,301,39563,6,0,P|236:276|140:332,1,180,2|0,2:0|0:0,0:0:0:0:
124,348,40316,2,0,L|13:270,2,120,2|8|4,2:0|0:0|0:0,0:0:0:0:
296,176,41822,1,4,0:0:0:0:
296,176,42575,6,0,P|236:136|176:160,1,120,4|8,0:0|0:0,0:0:0:0:
96,216,43329,2,0,P|72:152|84:96,2,120,2|8|2,2:0|0:0|2:0,0:0:0:0:
176,308,44458,2,0,P|252:348|296:340,1,120,8|2,0:0|2:0,0:0:0:0:
400,316,45211,2,0,P|384:276|352:244,1,60,8|2,0:0|2:0,0:0:0:0:
356,240,45588,6,0,P|316:192|320:116,1,120,2|8,2:0|0:0,0:0:0:0:
396,52,46341,2,0,P|436:100|432:176,1,120,2|8,2:0|0:0,0:0:0:0:
204,208,47471,2,0,P|164:160|168:84,2,120,8|2|8,0:0|2:0|0:0,0:0:0:0:
320,244,48600,6,0,P|352:272|360:304,1,60,2|0,2:0|0:0,0:0:0:0:
364,320,48977,2,0,P|300:300|236:320,1,120,8|2,0:0|2:0,0:0:0:0:
140,364,49730,1,8,0:0:0:0:
156,244,50107,2,0,B|176:184|128:168|156:104,1,120,2|8,2:0|0:0,0:0:0:0:
164,100,50671,1,0,0:0:0:0:
180,76,50860,2,0,P|224:100|316:88,1,120,2|8,2:0|0:0,0:0:0:0:
408,68,51613,6,0,P|436:108|436:140,1,60,2|0,2:0|0:0,0:0:0:0:
432,148,51989,2,0,P|400:200|408:284,1,120,8|2,0:0|2:0,0:0:0:0:
472,352,52742,1,8,0:0:0:0:
352,360,53119,2,0,P|272:348|224:320,1,120,2|8,2:0|0:0,0:0:0:0:
216,308,53684,1,0,0:0:0:0:
196,284,53872,2,0,P|142:259|82:254,1,120,2|8,2:0|0:0,0:0:0:0:
256,192,54625,12,4,57638,0:0:0:0:
116,256,69687,6,0,P|184:232|204:172,1,120,0|0,0:0|0:0,0:0:0:0:
212,164,70252,1,0,0:0:0:0:
220,140,70440,2,0,L|352:108,1,120
336,111,72700,6,0,P|288:160|284:236,1,120
280,236,73265,1,0,0:0:0:0:
284,264,73453,2,0,P|204:220|160:236,1,120
180,224,75712,6,0,P|166:171|102:127,1,120
96,120,76277,1,0,0:0:0:0:
72,108,76465,2,0,L|200:96,1,120
308,76,77218,2,0,P|340:104|352:140,1,60
352,152,77595,2,0,P|380:216|436:240,2,120
232,144,78725,6,0,P|200:160|176:252,1,120
180,264,79289,1,0,0:0:0:0:
192,296,79478,2,0,P|244:264|316:288,1,120
320,292,80043,2,0,L|380:244,1,60
256,80,80984,6,2,L|256:20,2,60
160,156,81737,6,0,P|124:208|144:268,1,120,4|8,0:0|0:0,0:0:0:0:
152,288,82302,1,0,0:0:0:0:
172,316,82490,2,0,L|32:316,2,120,2|8|2,2:0|0:0|2:0,0:0:0:0:
284,356,83620,2,0,L|352:356,1,60,8|0,0:0|0:0,0:0:0:0:
372,344,83996,2,0,P|404:296|392:220,1,120,2|8,2:0|0:0,0:0:0:0:
324,144,84749,6,0,P|284:124|268:96,1,60,2|0,2:0|0:0,0:0:0:0:
248,88,85126,2,0,P|180:68|132:84,1,120,8|2,0:0|2:0,0:0:0:0:
52,168,85879,1,8,0:0:0:0:
104,276,86256,2,0,P|140:312|168:316,1,60,2|0,2:0|0:0,0:0:0:0:
176,328,86632,2,0,P|236:296|300:312,2,120,8|2|8,0:0|2:0|0:0,0:0:0:0:
60,352,87762,6,0,P|20:300|32:228,1,120,4|8,2:1|0:0,0:0:0:0:
32,220,88327,1,0,0:0:0:0:
44,192,88515,2,0,P|43:133|5:88,1,120,2|8,2:0|0:0,0:0:0:0:
116,40,89268,2,0,L|240:36,1,120,0|8,0:0|0:0,0:0:0:0:
256,56,89833,1,0,0:0:0:0:
276,76,90021,2,0,L|400:72,1,120,2|8,2:0|0:0,0:0:0:0:
476,164,90774,6,0,L|352:168,1,120,2|8,2:0|0:0,0:0:0:0:
328,192,91339,1,0,0:0:0:0:
304,212,91527,2,0,L|180:216,1,120,0|8,0:0|0:0,0:0:0:0:
68,256,92281,2,0,P|48:296|96:372,1,120,2|8,2:0|0:0,0:0:0:0:
196,368,93034,2,0,L|268:352,1,60,2|0,2:0|0:0,0:0:0:0:
236,296,93410,2,0,L|308:280,1,60,2|0,2:0|0:0,0:0:0:0:
328,272,93787,6,0,P|344:224|304:152,1,120,4|8,2:1|0:0,0:0:0:0:
300,128,94352,2,0,P|276:104|276:60,1,60,0|2,0:0|2:0,0:0:0:0:
368,12,94916,1,8,0:0:0:0:
432,112,95293,2,0,P|456:164|436:240,1,120,2|8,2:0|0:0,0:0:0:0:
356,304,96046,2,0,L|292:336,1,60,2|0,2:0|0:0,0:0:0:0:
256,292,96423,2,0,L|192:324,1,60,2|0,2:0|0:0,0:0:0:0:
176,332,96799,6,0,P|164:268|112:212,1,120,4|8,2:1|0:0,0:0:0:0:
56,120,97552,2,0,P|124:128|180:112,1,120,2|8,2:0|0:0,0:0:0:0:
200,100,98117,1,0,0:0:0:0:
224,84,98305,2,0,P|282:70|341:79,1,120,2|8,2:0|0:0,0:0:0:0:
432,156,99058,1,2,2:0:0:0:
364,256,99435,2,0,L|304:308,1,60,8|0,0:0|0:0,0:0:0:0:
304,316,99812,6,0,P|236:312|184:348,1,120,4|8,2:1|0:0,0:0:0:0:
172,352,100376,1,0,0:0:0:0:
148,372,100565,2,0,L|92:256,1,120,0|8,0:0|0:0,0:0:0:0:
80,144,101318,2,0,P|124:156|204:112,1,120,2|8,2:0|0:0,0:0:0:0:
280,48,102071,2,0,P|316:16|352:16,2,60,2|0|8,2:0|0:0|0:0,0:0:0:0:
192,128,102824,6,0,P|176:184|208:256,1,120,4|8,2:1|0:0,0:0:0:0:
280,328,103577,2,0,L|240:372,2,60,2|0|8,2:0|0:0|0:0,0:0:0:0:
352,228,104330,2,0,P|388:176|368:116,1,120,2|8,2:0|0:0,0:0:0:0:
360,96,104895,1,0,0:0:0:0:
340,68,105083,2,0,L|480:68,2,120,2|8|2,2:0|0:0|2:0,0:0:0:0:
228,28,106213,6,0,L|160:28,1,60,8|0,0:0|0:0,0:0:0:0:
140,40,106590,2,0,P|108:88|120:164,1,120,2|8,2:0|0:0,0:0:0:0:
188,240,107343,2,0,P|228:260|244:288,1,60,2|0,2:0|0:0,0:0:0:0:
264,296,107719,2,0,P|332:316|380:300,1,120,8|2,0:0|2:0,0:0:0:0:
460,216,108472,1,8,0:0:0:0:
408,108,108849,6,0,P|372:72|344:68,1,60,2|0,2:0|0:0,0:0:0:0:
336,56,109225,2,0,P|276:88|212:72,2,120,8|2|8,0:0|2:0|0:0,0:0:0:0:
452,32,110355,2,0,P|492:84|480:156,1,120,2|8,2:0|0:0,0:0:0:0:
480,164,110920,1,0,0:0:0:0:
468,192,111108,2,0,P|469:251|507:296,1,120,2|8,2:0|0:0,0:0:0:0:
396,344,111861,6,0,L|272:348,1,120,4|8,2:1|0:0,0:0:0:0:
256,328,112426,1,0,0:0:0:0:
236,308,112614,2,0,L|112:312,1,120,2|8,2:0|0:0,0:0:0:0:
28,232,113367,2,0,P|64:160|124:148,1,120,2|8,2:0|0:0,0:0:0:0:
128,140,113932,1,0,0:0:0:0:
156,136,114121,2,0,P|207:107|225:51,1,120,2|8,2:0|0:0,0:0:0:0:
108,28,114874,6,0,P|56:56|38:112,1,120,4|8,2:1|0:0,0:0:0:0:
48,136,115439,1,0,0:0:0:0:
56,156,115627,2,0,P|116:120|184:144,1,120,2|8,2:0|0:0,0:0:0:0:
256,192,116380,12,4,117886,2:0:0:0:
