osu file format v13

[General]
AudioFilename: Nightcore - Barbie Girl.mp3
AudioLeadIn: 0
PreviewTime: 42489
Countdown: 0
SampleSet: Normal
StackLeniency: 0.7
Mode: 0
LetterboxInBreaks: 0
StoryFireInFront: 0
EpilepsyWarning: 1
WidescreenStoryboard: 0

[Editor]
DistanceSpacing: 1.3
BeatDivisor: 4
GridSize: 4
TimelineZoom: 1

[Metadata]
Title:Barbie Girl (Nightcore Mix)
TitleUnicode:Barbie Girl (Nightcore Mix)
Artist:Aqua
ArtistUnicode:Aqua
Creator:Gabe
Version:Easy
Source:
Tags:Lally Gero Plastic World It's Fantastic Techno Rave Veus Remix
BeatmapID:326542
BeatmapSetID:50134

[Difficulty]
HPDrainRate:2
CircleSize:3
OverallDifficulty:2
ApproachRate:3
SliderMultiplier:0.799999999999999
SliderTickRate:1

[Events]
//Background and Video events
0,0,"Background.png",0,0
//Break Periods
2,57838,68247
//Storyboard Layer 0 (Background)
//Storyboard Layer 1 (Fail)
//Storyboard Layer 2 (Pass)
//Storyboard Layer 3 (Foreground)
//Storyboard Sound Samples
//Background Colour Transformations
3,100,128,255,255

[TimingPoints]
402,376.553282289444,4,1,3,50,1,0
29020,-100,4,1,3,40,0,0
29396,-100,4,1,3,5,0,0
29490,-100,4,1,3,40,0,0
29773,-100,4,1,3,5,0,0
29867,-100,4,1,3,40,0,0
30526,-100,4,1,3,60,0,1
36927,-100,4,1,2,50,0,1
37021,-100,4,1,3,60,0,1
42481,-100,4,1,3,60,0,0
42575,-100,4,1,3,60,0,1
42952,-100,4,1,2,50,0,1
43046,-100,4,1,3,60,0,1
43329,-100,4,1,3,60,0,1
43705,-100,4,1,3,60,0,1
44458,-100,4,1,2,50,0,1
44552,-100,4,1,3,60,0,1
44835,-100,4,1,3,60,0,1
45211,-100,4,1,3,60,0,1
48977,-100,4,1,2,50,0,1
49071,-100,4,1,3,60,0,1
50483,-100,4,1,2,50,0,1
51330,-100,4,1,3,60,0,1
54625,-100,4,1,3,60,0,0
55378,-100,4,1,3,50,0,0
56131,-100,4,1,3,40,0,0
56884,-100,4,1,3,30,0,0
57638,-100,4,1,3,20,0,0
69687,-100,4,1,3,60,0,0
81737,-100,4,1,3,60,0,1
100188,-100,4,1,2,50,0,1
100282,-100,4,1,3,60,0,1
101694,-100,4,1,2,50,0,1
101788,-100,4,1,3,60,0,1
109225,-100,4,1,2,50,0,1
109320,-100,4,1,3,60,0,1
112238,-100,4,1,2,50,0,1
113085,-100,4,1,3,60,0,1
115250,-100,4,1,2,50,0,1
115344,-100,4,1,3,60,0,1
117886,-100,4,1,3,60,0,0

[Colours]
Combo1 : 0,125,251
Combo2 : 196,255,255
Combo3 : 0,255,255

[HitObjects]
36,262,18476,6,0,P|80:328|156:328,1,160,4|8,0:0|0:0,0:0:0:0:
357,328,19982,2,0,P|434:326|476:262,1,160,2|8,0:2|0:0,0:0:0:0:
328,116,21488,5,0,0:0:0:0:
256,40,21865,1,2,0:2:0:0:
184,116,22242,2,0,L|128:172,1,79.9999999999999,8|2,0:0|0:2,0:0:0:0:
328,116,23371,2,0,L|384:172,1,79.9999999999999,2|8,0:2|0:0,0:0:0:0:
416,272,24124,1,2,0:2:0:0:
324,324,24501,6,0,B|256:366|256:366|188:324,1,160,4|8,0:0|0:0,0:0:0:0:
104,132,26007,2,0,B|132:92|180:92|180:92|256:92,1,160,2|8,0:2|0:0,0:0:0:0:
397,239,27513,2,0,B|369:279|321:279|321:279|250:279,1,160,2|8,0:2|0:0,0:0:0:0:
176,205,28643,1,2,0:2:0:0:
172,99,29020,6,0,P|256:29|340:100,1,240,2|2,0:2|0:3,0:0:0:0:
336,205,30526,5,4,0:0:0:0:
332,308,30902,2,0,B|297:345|251:344|251:344|183:344,1,160,8|8,0:0|0:0,0:0:0:0:
184,240,32032,1,2,0:2:0:0:
184,136,32409,2,0,B|219:99|265:100|265:100|333:100,1,160,8|8,0:0|0:0,0:0:0:0:
418,160,33538,5,2,0:2:0:0:
494,230,33915,2,0,L|442:301,1,79.9999999999999,8|2,0:0|0:2,0:0:0:0:
368,360,34668,2,0,B|323:387|291:363|259:339|211:363,1,160,8|8,0:0|0:0,0:0:0:0:
116,320,35798,1,2,0:2:0:0:
42,246,36174,1,8,0:0:0:0:
42,138,36551,6,0,P|84:72|168:72,1,160,2|2,0:2|0:2,0:0:0:0:
256,104,37680,1,8,0:0:0:0:
348,152,38057,2,0,L|359:240,2,79.9999999999999,2|8|2,0:2|0:0|0:2,0:0:0:0:
434,95,39186,6,0,L|454:255,1,160,8|8,0:0|0:0,0:0:0:0:
383,330,40316,1,2,0:2:0:0:
290,376,40693,2,0,L|210:365,1,79.9999999999999,8|4,0:0|0:0,0:0:0:0:
178,266,41446,1,8,0:0:0:0:
154,164,41822,2,0,L|74:153,1,79.9999999999999,4|2,0:0|0:0,0:0:0:0:
47,52,42575,6,0,L|211:75,1,160,4|2,0:0|0:2,0:0:0:0:
300,120,43705,1,8,0:0:0:0:
372,192,44082,2,0,P|402:264|372:336,1,160,2|2,0:2|0:2,0:0:0:0:
296,264,45211,2,0,L|216:264,1,79.9999999999999,8|2,0:0|0:2,0:0:0:0:
139,335,45964,2,0,P|110:263|140:192,2,160,8|8|8,0:0|0:0|0:0,0:0:0:0:
216,264,47847,2,0,L|296:264,1,79.9999999999999,2|8,0:2|0:0,0:0:0:0:
372,336,48600,6,0,B|452:337|452:337|508:281,1,160,2|2,0:2|0:2,0:0:0:0:
464,196,49730,1,8,0:0:0:0:
420,104,50107,2,0,L|248:104,2,160,2|2|2,0:2|0:2|0:2,0:0:0:0:
464,196,51989,6,0,P|428:268|352:280,1,160,8|8,0:0|0:0,0:0:0:0:
256,248,53119,1,2,0:2:0:0:
156,280,53496,2,0,P|81:265|48:196,1,160,8|8,0:0|0:0,0:0:0:0:
104,108,54625,1,4,0:0:0:0:
256,192,54813,12,4,57638,0:0:0:0:
105,359,69687,6,0,B|140:340|140:340|184:340,1,79.9999999999999,2|2,0:0|0:0,0:0:0:0:
256,272,70440,1,2,0:0:0:0:
331,340,70817,2,0,B|372:340|372:340|407:359,1,79.9999999999999,2|4,0:0|0:0,0:0:0:0:
105,25,72700,6,0,B|140:44|140:44|184:44,1,79.9999999999999,2|2,0:0|0:0,0:0:0:0:
256,112,73453,1,2,0:0:0:0:
331,44,73829,2,0,B|372:44|372:44|407:25,1,79.9999999999999,2|4,0:0|0:0,0:0:0:0:
208,352,75712,6,0,P|176:336|132:336,2,79.9999999999999,2|2|2,0:0|0:0|0:0,0:0:0:0:
304,352,76842,2,0,P|336:336|380:336,1,79.9999999999999,2|2,0:0|0:0,0:0:0:0:
432,248,77595,1,2,0:0:0:0:
504,172,77971,2,0,B|476:144|476:144|436:144,1,79.9999999999999,2|2,0:0|0:0,0:0:0:0:
432,248,78725,6,0,L|328:112,2,160,4|4|4,0:0|0:0|0:0,0:0:0:0:
352,316,80607,2,0,L|304:252,2,79.9999999999999,4|2|2,0:0|0:0|0:0,0:0:0:0:
432,248,81737,6,0,L|384:184,1,79.9999999999999,4|2,0:0|0:2,0:0:0:0:
312,108,82490,2,0,B|272:144|236:116|200:92|160:116,1,160,2|2,0:2|0:2,0:0:0:0:
72,172,83620,2,0,B|64:212|64:212|76:252,1,79.9999999999999,2|2,0:2|0:2,0:0:0:0:
144,328,84373,1,2,0:2:0:0:
244,360,84749,6,0,B|324:360|324:360|380:304,1,160,4|2,0:0|0:2,0:0:0:0:
444,220,85879,1,2,0:2:0:0:
492,128,86256,2,0,P|432:176|352:160,2,160,2|2|4,0:2|0:2|0:0,0:0:0:0:
404,72,88138,5,8,0:0:0:0:
312,24,88515,2,0,L|232:24,1,79.9999999999999,2|8,0:2|0:0,0:0:0:0:
156,96,89268,1,2,0:2:0:0:
116,192,89645,2,0,B|152:208|188:196|188:196|156:284,1,160,8|8,0:0|0:0,0:0:0:0:
244,336,90774,6,0,L|333:336,1,79.9999999999999,4|8,0:0|0:0,0:0:0:0:
397,262,91527,1,2,0:2:0:0:
470,188,91904,2,0,P|488:108|468:32,2,160,8|8|8,0:0|0:0|0:0,0:0:0:0:
397,262,93787,5,4,0:0:0:0:
324,336,94163,2,0,L|160:336,1,160,8|8,0:0|0:0,0:0:0:0:
100,252,95293,1,2,0:2:0:0:
56,156,95669,2,0,L|220:156,1,160,8|8,0:0|0:0,0:0:0:0:
308,108,96799,5,4,0:0:0:0:
404,72,97176,2,0,P|416:109|404:147,1,79.9999999999999,8|2,0:0|0:2,0:0:0:0:
360,240,97929,2,0,P|348:277|360:315,2,79.9999999999999,8|2|8,0:0|0:2|0:0,0:0:0:0:
456,278,99058,1,2,0:2:0:0:
512,192,99435,1,8,0:0:0:0:
456,108,99812,6,0,L|287:108,1,160,4|2,0:0|0:2,0:0:0:0:
222,181,100941,1,8,0:0:0:0:
164,268,101318,2,0,B|204:300|256:284|256:284|324:284,1,160,2|2,0:2|0:2,0:0:0:0:
391,210,102447,1,8,0:0:0:0:
464,136,102824,5,4,0:0:0:0:
390,62,103201,2,0,B|360:32|320:32|320:32|236:32,1,160,8|8,0:0|0:0,0:0:0:0:
72,156,104707,2,0,B|102:186|142:186|142:186|226:186,1,160,8|8,0:0|0:0,0:0:0:0:
328,188,105836,5,4,0:0:0:0:
332,84,106213,2,0,P|403:114|433:185,1,160,8|8,0:0|0:0,0:0:0:0:
400,284,107343,2,0,L|320:284,1,79.9999999999999,2|8,0:2|0:0,0:0:0:0:
224,328,108096,2,0,L|144:328,1,79.9999999999999,2|8,0:2|0:0,0:0:0:0:
88,240,108849,6,0,B|40:216|25:192|25:192|40:168|88:144,1,160,4|2,0:0|0:2,0:0:0:0:
172,84,109979,1,8,0:0:0:0:
260,32,110355,2,0,B|300:32|300:32|339:55,1,79.9999999999999,2|8,0:2|0:0,0:0:0:0:
312,156,111108,2,0,L|312:240,1,79.9999999999999,2|8,0:2|0:0,0:0:0:0:
408,192,111861,6,0,B|408:352,2,160,4|2|2,0:0|0:2|0:2,0:0:0:0:
312,156,113744,1,8,0:0:0:0:
304,56,114121,2,0,B|344:56|344:56|383:79,1,79.9999999999999,2|8,0:2|0:0,0:0:0:0:
466,113,114874,6,0,L|312:156,1,160,4|2,0:0|0:2,0:0:0:0:
216,192,116003,1,8,0:0:0:0:
140,264,116380,6,0,P|100:264|64:240,1,79.9999999999999,4|8,0:0|0:0,0:0:0:0:
66,140,117133,2,0,P|100:119|140:120,1,79.9999999999999,2|8,0:2|0:0,0:0:0:0:
216,192,117886,1,4,0:0:0:0:
