osu file format v14

[General]
AudioFilename: Yume Kataru yori Yume Utaou.mp3
AudioLeadIn: 0
PreviewTime: 39596
Countdown: 0
SampleSet: Soft
StackLeniency: 0.7
Mode: 0
LetterboxInBreaks: 0
WidescreenStoryboard: 1

[Editor]
Bookmarks: 27340
DistanceSpacing: 1.9
BeatDivisor: 4
GridSize: 4
TimelineZoom: 1

[Metadata]
Title:Yume Kataru yori Yume Utaou
TitleUnicode:ユメ語るよりユメ歌おう
Artist:Aqours
ArtistUnicode:Aqours
Creator:Nardoxyribonucleic
Version:Insane
Source:Lovelive! Sunshine!!
Tags:ラブライブ!サンシャイン!! Ending TV Size school idol project Kawaiwkyik Rizia Takami Chika 高海千歌 Inami Anju 伊波杏樹 Sakurauchi Riko 桜内梨子 Aida Rikako 逢田梨香子 Matsuura Kanan 松浦果南 Suwa Nanaka 諏訪ななか Kurosawa Dia 黒澤ダイヤ Komiya Arisa 小宮有紗 Watanabe You 渡辺 曜 Saito Shuka 斉藤朱夏 Tsushima Yoshiko 津島善子 Kobayashi Aika 小林愛香 Kunikida Hanamaru 国木田花丸 Takatsuki Kanako 高槻かなこ Ohara Mari 小原鞠莉 Suzuki Aina 鈴木愛奈 Kurosawa Ruby 黒澤ルビィ Furihata Ai 降幡 愛
BeatmapID:1032348
BeatmapSetID:483234

[Difficulty]
HPDrainRate:7
CircleSize:4
OverallDifficulty:7
ApproachRate:9
SliderMultiplier:1.7
SliderTickRate:1

[Events]
//Background and Video events
0,0,"bg4.jpg",0,0
Video,-186,"video.flv"
//Break Periods
//Storyboard Layer 0 (Background)
//Storyboard Layer 1 (Fail)
//Storyboard Layer 2 (Pass)
//Storyboard Layer 3 (Foreground)
//Storyboard Sound Samples

[TimingPoints]
540,377.358490566038,4,2,1,80,1,0
12615,-100,4,2,1,80,0,0
24690,-133.333333333333,4,2,1,80,0,0
30728,-100,4,2,1,80,0,0
33747,-100,4,2,1,40,0,0
35256,-100,4,2,1,50,0,0
36766,-100,4,2,1,60,0,0
39785,-100,4,2,1,80,0,1
50351,-100,4,2,1,80,0,0
51860,-100,4,2,1,80,0,1
63936,-133.333333333333,4,2,1,80,0,0
69973,-100,4,2,1,80,0,0
77709,-100,4,2,1,40,0,0
77898,-100,4,2,1,50,0,0
78275,-100,4,2,1,60,0,0
78653,-100,4,2,1,70,0,0
79030,-100,4,2,1,80,0,0
86389,-103.092783505155,4,2,1,80,0,0
88087,-103.092783505155,4,2,1,5,0,0

[Colours]
Combo1 : 0,128,255
Combo2 : 255,0,0
Combo3 : 255,128,0
Combo4 : 255,255,0
Combo5 : 128,64,64

[HitObjects]
112,124,540,6,0,P|154:120|196:119,1,85,4|0,0:0|0:0,0:0:0:0:
364,64,917,1,8,0:0:0:0:
464,168,1106,2,0,P|420:208|304:192,1,170,2|2,0:0|0:0,0:0:0:0:
372,116,1672,1,8,0:0:0:0:
188,152,1860,6,0,P|168:220|176:340,1,170,6|2,0:0|0:0,0:0:0:0:
308,248,2426,1,8,0:0:0:0:
424,344,2615,2,0,P|444:276|436:156,1,170,6|2,0:0|0:0,0:0:0:0:
300,44,3181,1,8,0:0:0:0:
276,152,3370,1,0,0:0:0:0:
276,152,3464,1,0,0:0:0:0:
276,152,3558,6,0,L|376:140,2,85,6|0|8,0:0|0:0|0:0,0:0:0:0:
184,192,4124,2,0,P|164:148|220:40,1,170,2|0,0:0|0:0,0:0:0:0:
264,252,4690,1,8,0:0:0:0:
60,296,4879,5,4,0:0:0:0:
72,212,5256,1,2,0:0:0:0:
84,128,5634,1,2,0:0:0:0:
152,184,5823,5,0,1:0:0:0:
156,188,5917,1,0,1:0:0:0:
160,192,6011,1,0,1:0:0:0:
164,196,6106,1,0,1:0:0:0:
168,200,6200,1,8,0:0:0:0:
348,208,6389,1,8,0:0:0:0:
348,208,6483,1,8,0:0:0:0:
348,208,6577,6,0,P|356:160|264:104,1,170,4|8,0:0|0:0,0:0:0:0:
188,264,7143,1,2,0:0:0:0:
316,320,7332,2,0,L|416:312,1,85,0|2,0:0|0:0,0:0:0:0:
256,200,7709,1,8,0:0:0:0:
224,364,7898,6,0,P|172:344|52:360,1,170,6|2,0:0|0:0,0:0:0:0:
56,176,8464,1,8,0:0:0:0:
148,248,8653,2,0,B|184:204|184:204|156:92,1,170,6|2,0:0|0:0,0:0:0:0:
28,44,9219,1,8,0:0:0:0:
56,176,9407,1,8,0:0:0:0:
56,176,9502,1,8,0:0:0:0:
56,176,9596,5,4,0:0:0:0:
244,114,9785,1,0,0:0:0:0:
148,248,9973,1,8,0:0:0:0:
336,340,10162,5,4,0:0:0:0:
344,108,10540,1,2,0:0:0:0:
148,248,10917,1,2,0:0:0:0:
484,288,11294,5,8,0:3:0:0:
484,288,11389,1,8,0:3:0:0:
484,288,11483,2,0,P|456:324|476:208,1,425,4|0,0:0|0:0,0:0:0:0:
404,256,12615,6,0,P|352:272|240:232,1,170,4|8,0:0|0:0,0:0:0:0:
188,148,13181,1,0,0:0:0:0:
335,171,13370,2,0,P|332:129|324:88,1,85
188,148,13747,1,8,0:0:0:0:
264,264,13936,6,0,P|316:280|428:240,1,170
336,172,14502,1,8,0:0:0:0:
336,172,14690,1,0,0:0:0:0:
188,336,14879,5,0,0:0:0:0:
164,232,15068,1,0,0:0:0:0:
368,244,15256,1,8,0:0:0:0:
328,344,15445,1,0,0:0:0:0:
264,136,15634,6,0,L|440:168,1,170,0|8,0:0|0:0,0:0:0:0:
431,166,16200,1,0,0:0:0:0:
444,48,16389,2,0,P|384:60|336:68,1,85
172,56,16766,1,8,0:0:0:0:
200,208,16955,6,0,P|248:228|356:168,1,170
264,136,17521,1,8,0:0:0:0:
252,312,17709,1,0,0:0:0:0:
88,232,17898,2,0,P|45:234|3:239,1,85
180,120,18275,1,8,0:0:0:0:
308,332,18464,1,0,0:0:0:0:
308,332,18558,1,0,0:0:0:0:
308,332,18653,6,0,P|328:288|236:204,1,170,4|8,0:0|0:0,0:0:0:0:
152,120,19219,1,0,0:0:0:0:
88,224,19407,2,0,P|131:223|172:216,1,85
44,128,19785,1,8,0:0:0:0:
40,316,19973,6,0,P|81:323|124:324,1,85
280,224,20351,1,0,0:0:0:0:
236,380,20540,1,8,0:0:0:0:
200,284,20728,1,0,0:0:0:0:
324,336,20917,1,0,0:0:0:0:
348,168,21106,1,0,0:0:0:0:
176,300,21294,2,0,L|76:292,1,85,8|0,0:0|0:0,0:0:0:0:
0,192,21672,6,0,P|40:144|160:160,1,170,0|8,0:0|0:0,0:0:0:0:
141,144,22238,1,0,0:0:0:0:
264,120,22426,2,0,P|260:180|252:224,1,85
176,300,22804,1,8,0:0:0:0:
0,236,22992,2,0,P|42:230|84:228,1,85
264,348,23370,5,4,0:0:0:0:
176,184,23558,1,8,0:0:0:0:
376,208,23747,1,0,1:0:0:0:
376,208,23841,1,0,1:0:0:0:
376,208,23936,1,0,1:0:0:0:
176,300,24124,1,0,0:0:0:0:
312,128,24313,2,0,L|304:184,1,42.5,2|2,0:0|0:0,0:0:0:0:
352,328,24502,2,0,L|360:272,1,42.5,2|2,0:0|0:0,0:0:0:0:
456,188,24690,5,4,0:0:0:0:
248,40,25068,1,0,0:0:0:0:
168,92,25256,1,8,0:0:0:0:
248,136,25445,2,0,P|244:188|232:228,1,63.7500024318696
176,300,25823,2,8,P|136:296|32:276,2,127.500004863739,8|0|0,0:0|0:0|0:0,0:0:0:0:
268,272,26766,2,0,P|270:311|276:352,1,63.7500024318696,8|0,0:0|0:0,0:0:0:0:
344,204,27143,1,0,0:0:0:0:
412,320,27332,1,8,0:0:0:0:
472,232,27521,1,0,0:0:0:0:
472,232,27615,1,8,0:0:0:0:
472,232,27709,5,4,0:0:0:0:
344,204,27898,1,0,0:0:0:0:
472,136,28087,1,0,0:0:0:0:
344,204,28275,2,0,L|260:184,1,63.7500024318696,8|0,0:0|0:0,0:0:0:0:
188,156,28653,1,0,0:0:0:0:
300,96,28841,1,8,0:0:0:0:
256,280,29030,1,0,0:0:0:0:
256,280,29124,1,8,0:0:0:0:
256,280,29219,6,0,P|208:292|108:284,1,127.500004863739
80,72,29785,2,0,P|128:60|228:68,1,127.500004863739,8|0,0:0|0:0,0:0:0:0:
356,167,30351,1,8,0:0:0:0:
352,191,30445,1,8,0:0:0:0:
348,215,30540,1,8,0:0:0:0:
344,239,30634,1,8,0:0:0:0:
340,267,30728,6,0,L|236:283,1,85,4|0,0:0|0:0,0:0:0:0:
60,260,31106,1,8,0:0:0:0:
176,360,31294,2,0,P|216:296|172:188,1,170,4|0,0:0|0:0,0:0:0:0:
36,52,31860,1,8,0:0:0:0:
136,128,32049,1,8,0:0:0:0:
136,128,32143,1,8,0:0:0:0:
136,128,32238,6,0,P|180:124|236:116,1,85,4|0,0:0|0:0,0:0:0:0:
368,24,32615,1,8,0:0:0:0:
468,192,32804,1,4,0:0:0:0:
348,136,32992,1,8,0:0:0:0:
344,172,33087,1,8,0:0:0:0:
340,204,33181,1,8,0:0:0:0:
336,236,33275,1,8,0:0:0:0:
332,268,33370,2,0,L|316:372,1,85,8|0,0:0|0:0,0:0:0:0:
132,288,33747,5,4,1:0:0:0:
224,228,33936,1,0,1:0:0:0:
204,356,34124,1,0,1:0:0:0:
88,288,34313,1,0,1:0:0:0:
308,140,34502,5,0,1:0:0:0:
264,304,34690,1,0,1:0:0:0:
128,208,34879,1,0,1:0:0:0:
352,236,35068,1,0,1:0:0:0:
160,368,35256,5,0,1:0:0:0:
196,144,35445,1,0,1:0:0:0:
376,308,35634,1,0,1:0:0:0:
192,272,35823,1,0,1:0:0:0:
404,104,36011,5,0,1:0:0:0:
264,304,36200,1,0,1:0:0:0:
180,48,36389,1,0,1:0:0:0:
352,236,36578,1,0,1:0:0:0:
160,368,36766,5,2,0:0:0:0:
256,192,36955,12,0,38275,0:0:0:0:
136,124,38464,5,12,0:0:0:0:
392,188,38653,1,12,0:0:0:0:
172,264,38841,1,8,0:0:0:0:
272,128,39030,5,0,0:0:0:0:
268,160,39124,1,0,0:0:0:0:
264,192,39219,1,0,0:0:0:0:
260,224,39313,1,0,0:0:0:0:
256,256,39407,5,8,0:0:0:0:
247,297,39501,1,8,0:0:0:0:
220,329,39595,1,8,0:0:0:0:
181,344,39690,1,8,0:0:0:0:
139,339,39784,5,4,0:0:0:0:
36,216,39973,1,2,0:0:0:0:
186,180,40162,2,0,P|181:222|172:264,1,85,8|2,0:0|0:0,0:0:0:0:
172,264,40445,1,8,0:0:0:0:
172,264,40540,1,0,0:0:0:0:
16,140,40728,1,2,0:0:0:0:
236,75,40917,1,8,0:0:0:0:
92,12,41106,6,0,P|80:56|120:208,1,170,2|2,0:0|0:0,0:0:0:0:
272,280,41672,1,8,0:0:0:0:
280,144,41860,1,2,0:0:0:0:
280,144,41955,1,8,0:0:0:0:
280,144,42049,2,0,L|192:156,1,85,0|2,0:0|0:0,0:0:0:0:
87,252,42426,2,0,L|172:264,1,85,8|2,0:0|0:0,0:0:0:0:
384,332,42804,5,4,0:0:0:0:
372,208,42992,1,2,0:0:0:0:
272,280,43181,1,8,0:0:0:0:
456,208,43370,1,2,0:0:0:0:
456,208,43464,1,8,0:0:0:0:
456,208,43558,1,0,0:0:0:0:
344,356,43747,1,2,0:0:0:0:
292,180,43936,1,8,0:0:0:0:
448,312,44124,1,2,0:0:0:0:
224,364,44313,6,0,P|184:316|216:204,1,170,4|8,0:0|0:0,0:0:0:0:
288,88,44879,1,2,0:0:0:0:
288,88,44973,1,8,0:0:0:0:
288,88,45068,2,0,P|240:100|184:104,1,85,0|2,0:0|0:0,0:0:0:0:
60,208,45445,1,8,0:0:0:0:
56,68,45634,1,10,0:0:0:0:
76,52,45728,1,8,0:0:0:0:
100,40,45823,6,0,P|144:72|116:204,1,170,4|8,0:0|0:0,0:0:0:0:
36,300,46389,1,2,0:0:0:0:
36,300,46483,1,8,0:0:0:0:
35,300,46577,2,0,P|74:284|119:279,1,85,0|2,0:0|0:0,0:0:0:0:
232,332,46955,1,8,0:0:0:0:
324,244,47143,1,2,0:0:0:0:
440,296,47332,6,0,L|436:380,1,85,4|2,0:0|0:0,0:0:0:0:
324,244,47709,1,8,0:0:0:0:
432,152,47898,2,0,P|400:120|264:120,1,170,6|2,0:0|0:0,0:0:0:0:
124,72,48464,1,8,0:0:0:0:
204,244,48653,2,0,L|212:168,1,42.5
36,120,48841,5,4,0:0:0:0:
48,232,49030,1,2,0:0:0:0:
124,72,49219,2,0,P|136:112|132:164,1,85,8|2,0:0|0:0,0:0:0:0:
134,154,49502,1,8,0:0:0:0:
134,154,49596,1,0,0:0:0:0:
36,120,49785,1,2,0:0:0:0:
248,276,49973,1,8,0:0:0:0:
220,92,50162,1,2,0:0:0:0:
64,304,50350,5,4,0:0:0:0:
264,184,50540,1,2,0:0:0:0:
180,372,50728,1,8,0:0:0:0:
32,224,50917,1,6,0:0:0:0:
272,72,51106,1,8,0:0:0:0:
300,76,51200,1,8,0:0:0:0:
328,80,51294,1,8,0:0:0:0:
356,84,51389,1,8,0:0:0:0:
384,88,51483,1,8,0:0:0:0:
412,92,51577,1,8,0:0:0:0:
440,96,51672,1,8,0:0:0:0:
468,100,51766,1,8,0:0:0:0:
496,104,51860,5,4,0:0:0:0:
432,224,52049,2,0,P|387:219|340:212,1,85,2|8,0:0|0:0,0:0:0:0:
216,144,52426,1,2,0:0:0:0:
216,144,52521,1,8,0:0:0:0:
216,144,52615,2,0,P|222:185|226:228,1,85,0|2,0:0|0:0,0:0:0:0:
180,376,52992,1,8,0:0:0:0:
140,256,53181,6,0,P|188:240|284:316,1,170,2|2,0:0|0:0,0:0:0:0:
408,360,53747,1,8,0:0:0:0:
432,224,53936,1,2,0:0:0:0:
432,224,54030,1,8,0:0:0:0:
432,224,54124,2,0,P|432:172|408:124,1,85,0|2,0:0|0:0,0:0:0:0:
276,300,54502,2,0,P|276:352|300:400,1,85,8|2,0:0|0:0,0:0:0:0:
312,172,54879,5,4,0:0:0:0:
156,140,55068,1,2,0:0:0:0:
216,232,55256,1,8,0:0:0:0:
280,88,55445,1,2,0:0:0:0:
280,88,55540,1,8,0:0:0:0:
280,88,55634,2,0,P|276:44|268:-4,1,85,0|2,0:0|0:0,0:0:0:0:
152,216,56011,1,8,0:0:0:0:
76,80,56200,1,2,0:0:0:0:
88,292,56389,6,0,P|132:312|252:240,1,170,4|8,0:0|0:0,0:0:0:0:
352,112,56955,1,0,1:0:0:0:
352,112,57049,1,0,1:0:0:0:
352,112,57143,2,0,B|336:200|336:200|352:264,2,127.5,8|8|8,0:0|0:0|0:0,0:0:0:0:
428,190,57898,6,0,L|512:176,1,85
444,344,58275,2,0,P|404:316|268:332,1,170,12|0,0:0|0:0,0:0:0:0:
188,368,58841,1,2,0:0:0:0:
104,188,59030,1,8,0:0:0:0:
40,288,59219,6,0,P|122:301|196:263,1,170,6|2,0:0|0:0,0:0:0:0:
264,48,59785,2,0,P|252:96|248:152,1,85,8|2,0:0|0:0,0:0:0:0:
248,131,60068,1,8,0:0:0:0:
248,131,60162,1,0,0:0:0:0:
304,324,60351,2,0,P|316:276|320:220,1,85,2|8,0:0|0:0,0:0:0:0:
108,192,60728,1,2,0:0:0:0:
36,332,60917,6,0,L|208:312,1,170,4|8,0:0|0:0,0:0:0:0:
352,208,61483,1,2,0:0:0:0:
352,208,61577,1,8,0:0:0:0:
352,208,61672,2,0,L|336:304,1,85,0|2,0:0|0:0,0:0:0:0:
228,188,62049,1,8,0:0:0:0:
444,112,62238,1,2,0:0:0:0:
444,112,62332,1,0,0:0:0:0:
444,112,62426,5,4,0:0:0:0:
352,208,62615,1,8,0:0:0:0:
284,68,62804,1,8,0:0:0:0:
272,280,62992,1,8,0:3:0:0:
272,280,63087,1,8,0:3:0:0:
272,280,63181,1,8,0:3:0:0:
124,208,63370,1,0,0:0:0:0:
328,360,63558,2,0,P|292:368|236:372,1,85,12|0,0:0|0:0,0:0:0:0:
56,248,63936,6,0,P|44:212|100:132,1,127.500004863739,4|0,0:0|0:0,0:0:0:0:
204,188,64502,2,0,P|200:232|192:272,1,63.7500024318696,2|0,0:0|0:0,0:0:0:0:
108,324,64879,2,0,L|72:328,2,31.8750012159348,2|2|6,0:0|0:0|0:0,0:0:0:0:
205,373,65256,6,0,P|268:380|328:360,1,127.500004863739,2|0,0:0|0:0,0:0:0:0:
360,208,65823,1,2,0:0:0:0:
360,208,66011,1,0,0:0:0:0:
272,264,66200,1,0,0:0:0:0:
432,288,66389,2,0,L|436:240,1,31.8750012159348,8|0,0:0|0:0,0:0:0:0:
448,132,66577,1,8,0:0:0:0:
360,208,66766,1,0,0:0:0:0:
288,116,66955,6,0,L|296:48,2,63.7500024318696,4|2|0,0:0|0:0|0:0,0:0:0:0:
216,180,67521,2,0,P|176:188|92:152,1,127.500004863739,2|2,0:0|0:0,0:0:0:0:
64,68,68087,1,8,0:0:0:0:
64,68,68275,1,4,0:0:0:0:
24,352,68653,5,8,0:0:0:0:
96,272,68841,1,8,0:0:0:0:
160,368,69030,1,0,0:0:0:0:
184,364,69124,1,8,0:0:0:0:
208,360,69219,1,8,0:0:0:0:
272,264,69407,5,8,0:3:0:0:
388,360,69596,2,0,L|396:304,1,31.8750012159348
360,216,69785,2,0,L|352:272,1,31.8750012159348
256,308,69973,6,0,P|200:328|100:240,1,170,4|8,0:0|0:0,0:0:0:0:
144,116,70540,2,0,P|200:96|300:184,1,170,4|8,0:0|0:0,0:0:0:0:
352,252,71106,1,4,0:0:0:0:
352,252,71483,5,0,0:0:0:0:
212,184,71672,1,0,0:0:0:0:
328,80,71860,2,0,P|336:128|340:180,1,85,8|0,0:0|0:0,0:0:0:0:
223,268,72238,2,0,P|215:226|211:183,1,85,8|0,0:0|0:0,0:0:0:0:
76,104,72615,2,0,P|84:152|88:204,1,85,8|0,0:0|0:0,0:0:0:0:
172,336,72992,6,0,P|216:352|308:272,1,170,4|8,0:0|0:0,0:0:0:0:
256,173,73558,2,0,L|72:189,1,170,4|8,0:0|0:0,0:0:0:0:
216,44,74124,1,4,0:0:0:0:
216,44,74502,6,0,L|220:88,2,42.5
356,76,74879,2,0,L|347:168,1,85,12|0,0:0|0:0,0:0:0:0:
344,200,75162,1,0,0:0:0:0:
344,200,75256,2,0,B|384:224|384:224|480:204,2,127.5,4|8|8,0:0|0:0|0:0,0:0:0:0:
197,322,76011,6,0,P|177:241|216:168,1,170,4|8,0:0|0:0,0:0:0:0:
356,344,76577,1,8,0:3:0:0:
356,344,76672,1,8,0:3:0:0:
356,344,76766,1,4,0:3:0:0:
268,252,76955,1,0,0:0:0:0:
463,207,77144,1,0,0:0:0:0:
356,344,77332,6,0,B|300:364|300:364|180:340,1,170,4|0,0:0|1:0,0:0:0:0:
40,308,77898,1,0,1:0:0:0:
40,308,78087,1,0,1:0:0:0:
36,164,78275,1,8,0:0:0:0:
64,168,78370,1,8,0:0:0:0:
92,172,78464,1,8,0:0:0:0:
120,176,78558,1,8,0:0:0:0:
148,180,78653,1,8,0:0:0:0:
176,184,78747,1,8,0:0:0:0:
204,188,78841,1,8,0:0:0:0:
232,192,78936,1,8,0:0:0:0:
260,196,79030,6,0,L|352:188,1,85,4|0,0:0|0:0,0:0:0:0:
432,124,79407,1,8,0:0:0:0:
480,304,79596,2,0,P|436:328|328:272,1,170,2|2,0:0|0:0,0:0:0:0:
320,96,80162,1,8,0:0:0:0:
429,180,80351,6,0,P|344:190|260:196,1,170,4|2,0:0|0:0,0:0:0:0:
140,128,80917,1,8,0:0:0:0:
136,300,81106,2,0,P|186:294|236:290,1,85,4|0,0:0|0:0,0:0:0:0:
340,336,81483,1,2,0:0:0:0:
236,200,81672,1,8,0:0:0:0:
88,384,81860,1,8,0:0:0:0:
88,384,81955,1,8,0:0:0:0:
88,384,82049,6,0,P|52:336|80:228,1,170,4|8,0:0|0:0,0:0:0:0:
236,356,82615,5,4,0:0:0:0:
312,112,82992,1,2,0:0:0:0:
464,304,83370,1,2,0:0:0:0:
180,212,83747,5,8,0:3:0:0:
180,212,83841,1,8,0:3:0:0:
180,212,83936,2,0,L|268:204,1,85,4|0,0:0|0:0,0:0:0:0:
340,240,84219,1,0,0:0:0:0:
340,240,84313,2,0,P|344:188|288:124,2,127.5,4|8|8,0:0|0:0|0:0,0:0:0:0:
280,340,85068,5,4,0:0:0:0:
392,376,85256,1,0,0:0:0:0:
340,240,85445,1,8,0:0:0:0:
228,348,85634,1,8,0:3:0:0:
228,348,85728,1,8,0:3:0:0:
228,348,85823,1,8,0:3:0:0:
176,196,86011,2,0,L|272:188,1,85
64,152,86389,1,4,0:0:0:0:
256,192,86577,12,0,88087,0:0:0:0:
