osu file format v14

[General]
AudioFilename: Yume Kataru yori Yume Utaou.mp3
AudioLeadIn: 0
PreviewTime: 39596
Countdown: 0
SampleSet: Soft
StackLeniency: 0.7
Mode: 0
LetterboxInBreaks: 0
WidescreenStoryboard: 0

[Editor]
Bookmarks: 27340
DistanceSpacing: 1.2
BeatDivisor: 4
GridSize: 4
TimelineZoom: 1

[Metadata]
Title:Yume Kataru yori Yume Utaou
TitleUnicode:ユメ語るよりユメ歌おう
Artist:Aqours
ArtistUnicode:Aqours
Creator:Nardoxyribonucleic
Version:Hard
Source:Lovelive! Sunshine!!
Tags:ラブライブ!サンシャイン!! Ending TV Size school idol project Kawaiwkyik Rizia Takami Chika 高海千歌 Inami Anju 伊波杏樹 Sakurauchi Riko 桜内梨子 Aida Rikako 逢田梨香子 Matsuura Kanan 松浦果南 Suwa Nanaka 諏訪ななか Kurosawa Dia 黒澤ダイヤ Komiya Arisa 小宮有紗 Watanabe You 渡辺 曜 Saito Shuka 斉藤朱夏 Tsushima Yoshiko 津島善子 Kobayashi Aika 小林愛香 Kunikida Hanamaru 国木田花丸 Takatsuki Kanako 高槻かなこ Ohara Mari 小原鞠莉 Suzuki Aina 鈴木愛奈 Kurosawa Ruby 黒澤ルビィ Furihata Ai 降幡 愛
BeatmapID:1032347
BeatmapSetID:483234

[Difficulty]
HPDrainRate:6
CircleSize:4
OverallDifficulty:6
ApproachRate:8
SliderMultiplier:1.6
SliderTickRate:1

[Events]
//Background and Video events
0,0,"bg3.jpg",0,0
Video,-186,"video.flv"
//Break Periods
//Storyboard Layer 0 (Background)
//Storyboard Layer 1 (Fail)
//Storyboard Layer 2 (Pass)
//Storyboard Layer 3 (Foreground)
//Storyboard Sound Samples

[TimingPoints]
540,377.358490566038,4,2,1,80,1,0
12615,-100,4,2,1,80,0,0
24690,-133.333333333333,4,2,1,80,0,0
30728,-100,4,2,1,80,0,0
33747,-100,4,2,1,40,0,0
35256,-100,4,2,1,50,0,0
36766,-100,4,2,1,60,0,0
39785,-100,4,2,1,80,0,1
50351,-100,4,2,1,80,0,0
51860,-100,4,2,1,80,0,1
63936,-133.333333333333,4,2,1,80,0,0
69973,-100,4,2,1,80,0,0
77709,-100,4,2,1,40,0,0
77898,-100,4,2,1,50,0,0
78275,-100,4,2,1,60,0,0
78653,-100,4,2,1,70,0,0
79030,-100,4,2,1,80,0,0
86389,-103.092783505155,4,2,1,80,0,0
88087,-103.092783505155,4,2,1,5,0,0

[Colours]
Combo1 : 0,128,255
Combo2 : 255,0,0
Combo3 : 255,128,0
Combo4 : 255,255,0
Combo5 : 128,64,64

[HitObjects]
64,132,540,6,0,P|72:192|88:244,1,80,4|0,0:0|0:0,0:0:0:0:
116,292,917,1,8,0:0:0:0:
188,344,1106,2,0,P|236:344|364:304,1,160,2|2,0:0|0:0,0:0:0:0:
408,252,1672,1,8,0:0:0:0:
408,252,1860,2,0,P|404:200|440:72,1,160,6|2,0:0|0:0,0:0:0:0:
328,160,2426,1,8,0:0:0:0:
328,160,2615,2,0,P|276:176|144:176,1,160,6|2,0:0|0:0,0:0:0:0:
88,148,3181,1,8,0:0:0:0:
116,64,3370,6,0,L|124:8,2,40,0|0|6,0:0|0:0|0:0,0:0:0:0:
196,100,3747,2,0,P|244:100|292:84,1,80,0|8,0:0|0:0,0:0:0:0:
364,80,4124,2,0,P|400:116|388:224,1,160,2|0,0:0|0:0,0:0:0:0:
312,256,4690,1,8,0:0:0:0:
212,212,4879,2,0,L|220:380,2,160,4|2|2,0:0|0:0|0:0,0:0:0:0:
116,168,5823,2,0,L|117:207,4,40,0|0|0|0|8,1:0|1:0|1:0|1:0|0:0,0:0:0:0:
36,236,6389,1,8,0:0:0:0:
36,236,6483,1,8,0:0:0:0:
36,236,6577,6,0,P|64:276|176:276,1,160,4|8,0:0|0:0,0:0:0:0:
244,324,7143,2,0,P|256:280|252:164,1,160,2|2,0:0|0:0,0:0:0:0:
188,80,7709,1,8,0:0:0:0:
41,145,7898,2,0,P|94:202|172:196,1,160,6|2,0:0|0:0,0:0:0:0:
236,136,8464,1,8,0:0:0:0:
316,104,8653,2,0,P|328:148|324:264,1,160,6|2,0:0|0:0,0:0:0:0:
256,320,9219,2,0,P|216:332|160:332,1,80,8|8,0:0|0:0,0:0:0:0:
136,316,9502,1,8,0:0:0:0:
136,316,9596,6,0,P|96:304|40:304,2,80,4|0|8,0:0|0:0|0:0,0:0:0:0:
200,256,10162,2,0,L|180:88,2,160,4|2|2,0:0|0:0|0:0,0:0:0:0:
400,296,11294,5,8,0:3:0:0:
400,296,11389,1,8,0:3:0:0:
400,296,11483,2,0,P|468:212|320:260,1,400,4|0,0:0|0:0,0:0:0:0:
388,216,12615,6,0,P|408:160|392:44,1,160,4|8,0:0|0:0,0:0:0:0:
328,8,13181,1,0,0:0:0:0:
328,8,13370,2,0,L|240:12,1,80,0|0,0:0|0:0,0:0:0:0:
192,80,13747,1,8,0:0:0:0:
260,136,13936,2,0,L|100:128,1,160,0|0,0:0|0:0,0:0:0:0:
24,176,14502,2,0,P|16:216|32:280,1,80,8|0,0:0|0:0,0:0:0:0:
28,344,14879,1,0,0:0:0:0:
116,304,15068,1,0,0:0:0:0:
204,344,15256,1,8,0:0:0:0:
280,200,15634,6,0,P|323:266|353:340,1,160,0|8,0:0|0:0,0:0:0:0:
360,252,16200,1,0,0:0:0:0:
372,164,16389,2,0,P|402:90|445:23,1,160,0|8,0:0|0:0,0:0:0:0:
372,68,16955,2,0,P|292:78|213:74,1,160
132,40,17521,1,8,0:0:0:0:
132,40,17709,1,0,0:0:0:0:
52,80,17898,2,0,L|64:168,1,80,0|0,0:0|0:0,0:0:0:0:
16,232,18275,2,0,L|28:320,1,80,8|0,0:0|0:0,0:0:0:0:
92,368,18653,6,0,P|128:376|240:336,1,160,4|8,0:0|0:0,0:0:0:0:
396,256,19407,2,0,P|432:268|472:324,2,80,0|0|8,0:0|0:0|0:0,0:0:0:0:
308,276,19973,2,0,P|292:232|308:104,1,160,0|0,0:0|0:0,0:0:0:0:
364,60,20540,2,0,L|456:72,1,80,8|0,0:0|0:0,0:0:0:0:
500,168,20917,2,0,L|420:157,1,80,0|0,0:0|0:0,0:0:0:0:
344,240,21294,2,0,L|423:250,1,80,8|0,0:0|0:0,0:0:0:0:
500,332,21672,6,0,P|432:360|336:348,1,160,0|8,0:0|0:0,0:0:0:0:
276,300,22238,1,0,0:0:0:0:
344,240,22426,2,0,P|352:196|344:136,2,80,0|0|8,0:0|0:0|0:0,0:0:0:0:
276,300,22992,2,0,P|197:308|123:279,1,160,0|4,0:0|0:0,0:0:0:0:
68,212,23558,1,8,0:0:0:0:
151,117,23747,1,0,1:0:0:0:
151,117,23841,1,0,1:0:0:0:
151,117,23936,2,0,P|159:156|156:196,1,80,0|0,1:0|0:0,0:0:0:0:
197,313,24313,2,0,P|236:307|276:300,1,80,2|2,0:0|0:0,0:0:0:0:
360,344,24690,6,0,P|431:332|501:319,1,120.000004577637,4|0,0:0|0:0,0:0:0:0:
478,323,25256,1,8,0:0:0:0:
432,252,25445,2,0,L|440:184,2,60.0000022888184,0|0|8,0:0|0:0|0:0,0:0:0:0:
456,84,26200,2,0,P|412:60|320:68,1,120.000004577637,0|0,0:0|0:0,0:0:0:0:
264,84,26766,2,0,P|204:85|151:58,1,120.000004577637,8|0,0:0|0:0,0:0:0:0:
80,16,27332,1,8,0:0:0:0:
16,172,27709,5,4,0:0:0:0:
92,320,28087,1,0,0:0:0:0:
92,320,28275,2,0,L|224:312,1,120.000004577637,8|0,0:0|0:0,0:0:0:0:
292,284,28841,2,0,L|300:356,1,60.0000022888184,8|0,0:0|0:0,0:0:0:0:
376,304,29219,2,0,L|369:244,1,60.0000022888184
360,160,29596,1,0,0:0:0:0:
360,160,29785,2,0,L|479:167,1,120.000004577637,8|0,0:0|0:0,0:0:0:0:
456,80,30351,2,0,L|396:76,1,60.0000022888184,8|8,0:0|0:0,0:0:0:0:
276,76,30728,6,0,P|248:128|260:236,1,160,4|8,0:0|0:0,0:0:0:0:
324,304,31294,2,0,P|264:320|164:368,1,160,4|0,0:0|0:0,0:0:0:0:
72,384,31860,1,8,0:0:0:0:
20,296,32049,2,0,P|25:216|44:138,1,160,4|0,0:0|0:0,0:0:0:0:
108,56,32615,1,8,0:0:0:0:
200,104,32804,2,0,P|220:164|224:192,1,80,4|8,0:0|0:0,0:0:0:0:
320,220,33181,1,8,0:0:0:0:
320,220,33275,1,8,0:0:0:0:
320,220,33370,1,8,0:0:0:0:
332,324,33558,1,0,0:0:0:0:
436,316,33747,5,4,1:0:0:0:
256,192,33936,12,2,36766,0:0:0:0:
216,140,38464,5,12,0:0:0:0:
312,180,38653,1,12,0:0:0:0:
300,76,38841,1,8,0:0:0:0:
232,240,39030,2,0,P|192:237|156:220,1,80,0|0,0:0|0:0,0:0:0:0:
64,136,39407,2,0,L|60:188,3,40,8|8|8|8,0:0|0:0|0:0|0:0,0:0:0:0:
32,208,39785,6,0,P|48:256|44:296,2,80,4|2|8,0:0|0:0|0:0,0:0:0:0:
148,316,40351,1,2,0:0:0:0:
232,240,40540,1,0,0:0:0:0:
124,204,40728,1,2,0:0:0:0:
228,320,40917,1,8,0:0:0:0:
228,320,41106,6,0,P|276:336|372:268,1,160,2|2,0:0|0:0,0:0:0:0:
436,176,41672,2,0,P|384:180|328:208,1,80,8|2,0:0|0:0,0:0:0:0:
280,244,42049,2,0,P|272:188|328:68,2,160,0|8|4,0:0|0:0|0:0,0:0:0:0:
228,320,42992,5,2,0:0:0:0:
136,256,43181,1,8,0:0:0:0:
128,368,43370,1,2,0:0:0:0:
228,320,43558,1,0,0:0:0:0:
135,255,43747,2,0,P|96:260|56:284,1,80,2|8,0:0|0:0,0:0:0:0:
4,348,44124,1,2,0:0:0:0:
32,192,44313,6,0,P|44:144|56:16,1,160,4|8,0:0|0:0,0:0:0:0:
152,116,44879,1,2,0:0:0:0:
152,116,45068,2,0,P|164:164|176:292,1,160,0|8,0:0|0:0,0:0:0:0:
192,368,45634,6,0,P|216:291|251:219,1,160,4|2,0:0|0:0,0:0:0:0:
336,276,46200,2,0,P|343:315|347:355,2,80,8|2|0,0:0|0:0|0:0,0:0:0:0:
256,196,46766,1,2,0:0:0:0:
176,276,46955,2,0,P|136:272|96:264,1,80,8|2,0:0|0:0,0:0:0:0:
36,160,47332,6,0,P|32:108|104:20,1,160,4|8,0:0|0:0,0:0:0:0:
228,80,47898,2,0,P|232:132|160:220,1,160,6|2,0:0|0:0,0:0:0:0:
84,236,48464,1,8,0:0:0:0:
96,324,48653,1,0,0:0:0:0:
96,324,48747,1,0,0:0:0:0:
96,324,48841,6,0,P|136:324|188:312,1,80,4|2,0:0|0:0,0:0:0:0:
252,268,49219,1,8,0:0:0:0:
316,340,49407,1,2,0:0:0:0:
400,292,49596,2,0,P|408:332|408:371,1,80,0|2,0:0|0:0,0:0:0:0:
252,268,49973,1,8,0:0:0:0:
256,144,50162,1,2,0:0:0:0:
380,144,50351,6,0,L|464:152,1,80,4|2,0:0|0:0,0:0:0:0:
459,279,50728,2,0,L|380:272,1,80,8|6,0:0|0:0,0:0:0:0:
248,256,51106,2,0,L|240:304,3,40,8|8|8|8,0:0|0:0|0:0|0:0,0:0:0:0:
212,284,51483,2,0,L|204:332,3,40,8|8|8|8,0:0|0:0|0:0|0:0,0:0:0:0:
176,316,51860,6,0,P|140:328|92:328,1,80,4|2,0:0|0:0,0:0:0:0:
16,296,52238,1,8,0:0:0:0:
96,144,52426,1,2,0:0:0:0:
124,236,52615,1,0,0:0:0:0:
32,216,52803,1,2,0:0:0:0:
32,88,52992,1,8,0:0:0:0:
32,88,53181,6,0,P|76:104|200:64,1,160,2|2,0:0|0:0,0:0:0:0:
280,24,53747,2,0,P|296:68|284:132,1,80,8|2,0:0|0:0,0:0:0:0:
392,156,54124,2,0,P|364:204|348:344,1,160,0|8,0:0|0:0,0:0:0:0:
112,280,54879,6,0,L|32:288,2,80,4|2|8,0:0|0:0|0:0,0:0:0:0:
196,324,55445,1,2,0:0:0:0:
260,252,55634,2,0,P|268:212|264:156,1,80,0|2,0:0|0:0,0:0:0:0:
216,44,56011,1,8,0:0:0:0:
216,44,56200,1,2,0:0:0:0:
156,112,56389,6,0,P|100:128|24:56,1,160,4|8,0:0|0:0,0:0:0:0:
324,32,57143,2,0,P|344:80|336:172,2,120,8|8|8,0:0|0:0|0:0,0:0:0:0:
244,104,57898,6,0,P|230:188|224:288,1,160,0|12,0:0|0:0,0:0:0:0:
268,340,58464,2,0,P|324:348|428:304,1,160,0|2,0:0|0:0,0:0:0:0:
444,228,59030,1,8,0:0:0:0:
392,156,59219,6,0,P|336:148|232:192,1,160,6|2,0:0|0:0,0:0:0:0:
180,248,59785,2,0,P|128:260|80:252,1,80,8|2,0:0|0:0,0:0:0:0:
20,228,60162,1,0,0:0:0:0:
20,228,60351,1,2,0:0:0:0:
0,140,60540,2,0,P|15:88|46:51,1,80,8|2,0:0|0:0,0:0:0:0:
108,28,60917,6,0,P|144:52|272:32,2,160,4|8|0,0:0|0:0|0:0,0:0:0:0:
24,56,61860,1,2,0:0:0:0:
0,140,62049,2,0,P|24:180|24:232,1,80,8|2,0:0|0:0,0:0:0:0:
48,300,62426,6,0,P|88:324|140:324,1,80,4|8,0:0|0:0,0:0:0:0:
208,304,62804,1,8,0:0:0:0:
284,348,62992,1,8,0:3:0:0:
284,348,63087,1,8,0:3:0:0:
284,348,63181,2,0,P|332:344|392:336,1,80,8|0,0:3|0:0,0:0:0:0:
444,304,63558,1,12,0:0:0:0:
340,120,63936,6,0,L|332:184,1,60.0000022888184,4|0,0:0|0:0,0:0:0:0:
416,160,64313,2,0,L|424:96,2,60.0000022888184,0|2|0,0:0|0:0|0:0,0:0:0:0:
444,304,65068,1,6,0:0:0:0:
444,304,65256,2,0,P|392:328|304:332,1,120.000004577637,2|0,0:0|0:0,0:0:0:0:
248,260,65823,2,0,P|277:256|307:255,1,60.0000022888184,2|0,0:0|0:0,0:0:0:0:
164,300,66200,2,0,P|160:270|159:240,2,60.0000022888184,0|8|8,0:0|0:0|0:0,0:0:0:0:
232,100,66955,5,4,0:0:0:0:
232,100,67143,1,2,0:0:0:0:
160,68,67332,1,0,0:0:0:0:
160,68,67521,2,0,P|116:88|32:88,1,120.000004577637,2|2,0:0|0:0,0:0:0:0:
16,164,68087,1,8,0:0:0:0:
48,236,68275,2,0,P|107:236|162:259,1,120.000004577637,4|8,0:0|0:0,0:0:0:0:
204,324,68841,2,0,L|280:316,1,60.0000022888184,8|0,0:0|0:0,0:0:0:0:
332,260,69219,2,0,L|348:380,1,120.000004577637,8|0,0:0|0:0,0:0:0:0:
488,184,69973,6,0,P|456:156|336:164,1,160,4|8,0:0|0:0,0:0:0:0:
264,200,70540,2,0,P|272:152|276:28,1,160,4|8,0:0|0:0,0:0:0:0:
276,40,71106,1,4,0:0:0:0:
104,60,71483,5,0,0:0:0:0:
104,60,71672,1,0,0:0:0:0:
80,144,71860,2,0,P|40:142|0:136,1,80,8|0,0:0|0:0,0:0:0:0:
120,224,72238,2,0,P|159:222|199:216,1,80,8|0,0:0|0:0,0:0:0:0:
280,180,72615,1,8,0:0:0:0:
280,180,72804,1,0,0:0:0:0:
340,244,72992,6,0,P|360:308|308:384,1,160,4|8,0:0|0:0,0:0:0:0:
272,300,73558,2,0,B|220:284|220:284|100:312,1,160,4|8,0:0|0:0,0:0:0:0:
32,328,74124,1,4,0:0:0:0:
64,156,74502,6,0,L|56:104,2,40
128,216,74879,2,0,P|168:204|212:196,1,80,12|0,0:0|0:0,0:0:0:0:
292,212,75256,2,0,P|296:168|256:88,2,120,4|8|8,0:0|0:0|0:0,0:0:0:0:
352,276,76011,6,0,L|520:288,1,160,4|8,0:0|0:0,0:0:0:0:
488,204,76577,1,8,0:3:0:0:
488,204,76672,1,8,0:3:0:0:
488,204,76766,1,8,0:3:0:0:
392,184,76955,1,0,0:0:0:0:
432,80,77143,1,0,0:0:0:0:
320,96,77332,6,0,P|280:72|144:84,1,160,4|0,0:0|1:0,0:0:0:0:
88,108,77898,1,0,1:0:0:0:
88,108,78087,1,0,1:0:0:0:
32,176,78275,2,0,L|40:232,3,40,8|8|8|8,0:0|0:0|0:0|0:0,0:0:0:0:
68,248,78653,2,0,L|60:304,3,40,8|8|8|8,0:0|0:0|0:0|0:0,0:0:0:0:
40,324,79030,6,0,P|80:348|216:336,1,160,4|8,0:0|0:0,0:0:0:0:
260,296,79596,1,2,0:0:0:0:
420,368,79973,2,0,P|432:308|436:256,1,80,2|8,0:0|0:0,0:0:0:0:
488,204,80351,2,0,P|480:152|476:36,1,160,4|2,0:0|0:0,0:0:0:0:
400,4,80917,1,8,0:0:0:0:
368,88,81106,2,0,P|320:116|184:152,1,160,4|2,0:0|0:0,0:0:0:0:
125,64,81672,2,0,P|124:104|132:144,1,80,8|8,0:0|0:0,0:0:0:0:
92,224,82049,6,0,P|120:258|143:305,1,80,4|0,0:0|0:0,0:0:0:0:
176,368,82426,1,8,0:0:0:0:
256,332,82615,2,0,L|448:320,2,160,4|2|2,0:0|0:0|0:0,0:0:0:0:
248,156,83747,5,8,0:3:0:0:
248,156,83841,1,8,0:3:0:0:
248,156,83936,2,0,L|363:148,1,80,4|0,0:0|0:0,0:0:0:0:
416,148,84313,2,0,P|432:96|400:16,2,120,4|8|8,0:0|0:0|0:0,0:0:0:0:
376,228,85068,6,0,P|384:268|416:324,2,80,4|0|8,0:0|0:0|0:0,0:0:0:0:
304,280,85634,1,8,0:3:0:0:
304,280,85728,1,8,0:3:0:0:
304,280,85823,2,0,L|216:272,1,80,8|0,0:3|0:0,0:0:0:0:
152,220,86200,1,0,0:0:0:0:
96,284,86389,1,4,0:0:0:0:
256,192,86577,12,0,88087,0:0:0:0:
