osu file format v14

[General]
AudioFilename: Yume Kataru yori Yume Utaou.mp3
AudioLeadIn: 0
PreviewTime: 39596
Countdown: 0
SampleSet: Normal
StackLeniency: 0.7
Mode: 1
LetterboxInBreaks: 0
WidescreenStoryboard: 0

[Editor]
DistanceSpacing: 1.2
BeatDivisor: 4
GridSize: 32
TimelineZoom: 1

[Metadata]
Title:Yume Kataru yori Yume Utaou
TitleUnicode:ユメ語るよりユメ歌おう
Artist:Aqours
ArtistUnicode:Aqours
Creator:Nardoxyribonucleic
Version:Futsuu
Source:Lovelive! Sunshine!!
Tags:ラブライブ!サンシャイン!! Ending TV Size school idol project Kawaiwkyik Rizia Takami Chika 高海千歌 Inami Anju 伊波杏樹 Sakurauchi Riko 桜内梨子 Aida Rikako 逢田梨香子 Matsuura Kanan 松浦果南 Suwa Nanaka 諏訪ななか Kurosawa Dia 黒澤ダイヤ Komiya Arisa 小宮有紗 Watanabe You 渡辺 曜 Saito Shuka 斉藤朱夏 Tsushima Yoshiko 津島善子 Kobayashi Aika 小林愛香 Kunikida Hanamaru 国木田花丸 Takatsuki Kanako 高槻かなこ Ohara Mari 小原鞠莉 Suzuki Aina 鈴木愛奈 Kurosawa Ruby 黒澤ルビィ Furihata Ai 降幡 愛
BeatmapID:1031671
BeatmapSetID:483234

[Difficulty]
HPDrainRate:7
CircleSize:5
OverallDifficulty:4
ApproachRate:5
SliderMultiplier:1.4
SliderTickRate:1

[Events]
//Background and Video events
Video,-186,"video.flv"
0,0,"bg2.jpg",0,10
//Break Periods
//Storyboard Layer 0 (Background)
//Storyboard Layer 1 (Fail)
//Storyboard Layer 2 (Pass)
//Storyboard Layer 3 (Foreground)
//Storyboard Sound Samples

[TimingPoints]
540,377.358490566038,4,1,0,80,1,0
12615,-100,4,1,0,70,0,0
24690,-100,4,1,0,80,0,0
39785,-100,4,1,0,90,0,1
50351,-100,4,1,0,90,0,0
51860,-100,4,1,0,90,0,1
63936,-100,4,1,0,75,0,0
79030,-100,4,1,0,80,0,0
86577,-100,4,1,0,60,0,0
86955,-100,4,1,0,50,0,0
87332,-100,4,1,0,40,0,0
87709,-100,4,1,0,30,0,0
88087,-100,4,1,0,20,0,0

[HitObjects]
256,192,540,5,4,0:0:0:0:
256,192,1106,1,0,0:0:0:0:
256,192,1483,1,8,0:0:0:0:
256,192,1860,1,12,0:0:0:0:
256,192,2615,1,0,0:0:0:0:
256,192,2992,1,0,0:0:0:0:
256,192,3181,1,8,0:0:0:0:
256,192,3558,1,12,0:0:0:0:
256,192,4124,1,0,0:0:0:0:
256,192,4502,1,0,0:0:0:0:
256,192,4690,1,8,0:0:0:0:
256,192,4879,1,4,0:0:0:0:
256,192,5256,1,12,0:0:0:0:
256,192,5634,1,12,0:0:0:0:
256,192,6577,1,4,0:0:0:0:
256,192,7143,1,0,0:0:0:0:
256,192,7521,1,8,0:0:0:0:
256,192,7898,1,12,0:0:0:0:
256,192,8653,1,0,0:0:0:0:
256,192,9030,1,0,0:0:0:0:
256,192,9219,1,8,0:0:0:0:
256,192,9596,1,12,0:0:0:0:
256,192,10162,1,4,0:0:0:0:
256,192,10540,1,12,0:0:0:0:
256,192,10917,1,4,0:0:0:0:
256,192,11483,1,12,0:0:0:0:
256,192,12238,1,8,0:0:0:0:
256,192,12615,1,4,0:0:0:0:
256,192,12992,1,8,0:0:0:0:
256,192,13370,1,0,0:0:0:0:
256,192,13747,1,8,0:0:0:0:
256,192,13936,1,0,0:0:0:0:
256,192,14879,1,0,0:0:0:0:
256,192,15256,1,8,0:0:0:0:
256,192,15445,1,8,0:0:0:0:
256,192,15634,1,0,0:0:0:0:
256,192,16011,1,8,0:0:0:0:
256,192,16389,1,0,0:0:0:0:
256,192,16955,1,8,0:0:0:0:
256,192,17332,1,0,0:0:0:0:
256,192,17521,1,8,0:0:0:0:
256,192,17898,1,8,0:0:0:0:
256,192,18275,1,8,0:0:0:0:
256,192,18653,1,4,0:0:0:0:
256,192,19030,1,8,0:0:0:0:
256,192,19407,1,0,0:0:0:0:
256,192,19785,1,8,0:0:0:0:
256,192,19973,1,0,0:0:0:0:
256,192,20917,1,0,0:0:0:0:
256,192,21294,1,8,0:0:0:0:
256,192,21483,1,8,0:0:0:0:
256,192,21672,1,0,0:0:0:0:
256,192,22049,1,8,0:0:0:0:
256,192,22426,1,0,0:0:0:0:
256,192,22992,1,8,0:0:0:0:
256,192,23370,1,0,0:0:0:0:
256,192,23558,1,8,0:0:0:0:
256,192,23936,1,0,0:0:0:0:
256,192,24124,1,0,0:0:0:0:
256,192,24313,1,8,0:0:0:0:
256,192,24690,1,4,0:0:0:0:
256,192,25445,1,8,0:0:0:0:
256,192,25823,1,8,0:0:0:0:
256,192,26200,1,0,0:0:0:0:
256,192,26766,1,0,0:0:0:0:
256,192,27332,1,8,0:0:0:0:
256,192,27709,1,12,0:0:0:0:
256,192,28087,1,8,0:0:0:0:
256,192,28275,1,8,0:0:0:0:
256,192,28653,1,0,0:0:0:0:
256,192,28841,1,8,0:0:0:0:
256,192,29219,1,0,0:0:0:0:
256,192,29785,1,0,0:0:0:0:
256,192,30351,1,8,0:0:0:0:
256,192,30728,1,12,0:0:0:0:
256,192,31106,1,0,0:0:0:0:
256,192,31294,1,12,0:0:0:0:
256,192,32238,1,4,0:0:0:0:
256,192,32615,1,8,0:0:0:0:
256,192,32804,1,4,0:0:0:0:
256,192,33181,1,8,0:0:0:0:
256,192,33370,1,8,0:0:0:0:
256,192,33747,1,12,0:0:0:0:
256,192,34502,1,0,0:0:0:0:
256,192,34879,1,0,0:0:0:0:
256,192,35256,1,8,0:0:0:0:
256,192,36011,1,0,0:0:0:0:
256,192,36766,1,8,0:0:0:0:
256,192,37143,1,8,0:0:0:0:
256,192,37332,1,0,0:0:0:0:
256,192,37709,1,0,0:0:0:0:
256,192,38087,1,8,0:0:0:0:
256,192,38464,1,12,0:0:0:0:
256,192,38653,1,12,0:0:0:0:
256,192,39030,1,0,0:0:0:0:
256,192,39407,1,8,0:0:0:0:
256,192,39785,1,4,0:0:0:0:
256,192,40162,1,8,0:0:0:0:
256,192,40540,1,0,0:0:0:0:
256,192,40917,1,8,0:0:0:0:
256,192,41106,1,0,0:0:0:0:
256,192,41483,1,0,0:0:0:0:
256,192,41672,1,8,0:0:0:0:
256,192,42049,1,0,0:0:0:0:
256,192,42804,1,0,0:0:0:0:
256,192,43181,1,8,0:0:0:0:
256,192,43558,1,0,0:0:0:0:
256,192,43747,1,0,0:0:0:0:
256,192,44124,1,0,0:0:0:0:
256,192,44313,1,8,0:0:0:0:
256,192,44690,1,8,0:0:0:0:
256,192,44879,1,8,0:0:0:0:
256,192,45068,1,0,0:0:0:0:
256,192,45445,1,8,0:0:0:0:
256,192,45823,1,4,0:0:0:0:
256,192,46577,1,0,0:0:0:0:
256,192,46955,1,8,0:0:0:0:
256,192,47143,1,0,0:0:0:0:
256,192,47521,1,8,0:0:0:0:
256,192,47898,1,12,0:0:0:0:
256,192,48275,1,0,0:0:0:0:
256,192,48464,1,8,0:0:0:0:
256,192,48841,1,0,0:0:0:0:
256,192,49030,1,0,0:0:0:0:
256,192,49219,1,8,0:0:0:0:
256,192,49596,1,8,0:0:0:0:
256,192,49785,1,0,0:0:0:0:
256,192,49973,1,8,0:0:0:0:
256,192,50351,1,4,0:0:0:0:
256,192,50917,1,12,0:0:0:0:
256,192,51294,1,0,0:0:0:0:
256,192,51483,1,8,0:0:0:0:
256,192,51860,1,4,0:0:0:0:
256,192,52238,1,8,0:0:0:0:
256,192,52615,1,0,0:0:0:0:
256,192,52992,1,8,0:0:0:0:
256,192,53181,1,0,0:0:0:0:
256,192,53558,1,0,0:0:0:0:
256,192,53747,1,8,0:0:0:0:
256,192,54124,1,0,0:0:0:0:
256,192,54879,1,0,0:0:0:0:
256,192,55256,1,8,0:0:0:0:
256,192,55634,1,0,0:0:0:0:
256,192,55823,1,0,0:0:0:0:
256,192,56200,1,0,0:0:0:0:
256,192,56389,1,8,0:0:0:0:
256,192,56766,1,8,0:0:0:0:
256,192,57143,1,4,0:0:0:0:
256,192,57898,1,8,0:0:0:0:
256,192,58275,1,12,0:0:0:0:
256,192,58653,1,0,0:0:0:0:
256,192,59030,1,8,0:0:0:0:
256,192,59219,1,0,0:0:0:0:
256,192,59596,1,0,0:0:0:0:
256,192,59785,1,8,0:0:0:0:
256,192,60162,1,0,0:0:0:0:
256,192,60540,1,8,0:0:0:0:
256,192,60728,1,8,0:0:0:0:
256,192,60917,1,8,0:0:0:0:
256,192,61294,1,8,0:0:0:0:
256,192,61672,1,0,0:0:0:0:
256,192,61860,1,0,0:0:0:0:
256,192,62049,1,8,0:0:0:0:
256,192,62426,1,0,0:0:0:0:
256,192,62804,1,8,0:0:0:0:
256,192,62992,1,0,0:0:0:0:
256,192,63370,1,0,0:0:0:0:
256,192,63558,1,8,0:0:0:0:
256,192,63936,1,8,0:0:0:0:
256,192,64690,1,8,0:0:0:0:
256,192,65068,1,8,0:0:0:0:
256,192,65445,1,0,0:0:0:0:
256,192,65823,1,8,0:0:0:0:
256,192,66200,1,0,0:0:0:0:
256,192,66389,1,8,0:0:0:0:
256,192,66577,1,8,0:0:0:0:
256,192,66955,1,0,0:0:0:0:
256,192,67521,1,8,0:0:0:0:
256,192,67898,1,0,0:0:0:0:
256,192,68275,1,8,0:0:0:0:
256,192,69219,1,0,0:0:0:0:
256,192,69596,1,8,0:0:0:0:
256,192,69973,1,4,0:0:0:0:
256,192,70540,1,8,0:0:0:0:
256,192,71106,1,8,0:0:0:0:
256,192,71483,1,0,0:0:0:0:
256,192,71860,1,8,0:0:0:0:
256,192,72238,1,0,0:0:0:0:
256,192,72426,1,0,0:0:0:0:
256,192,72615,1,8,0:0:0:0:
256,192,72992,1,4,0:0:0:0:
256,192,73558,1,0,0:0:0:0:
256,192,74124,1,8,0:0:0:0:
256,192,74502,1,0,0:0:0:0:
256,192,74879,1,8,0:0:0:0:
256,192,75256,1,8,0:0:0:0:
256,192,76011,1,12,0:0:0:0:
256,192,76389,1,8,0:0:0:0:
256,192,76766,1,0,0:0:0:0:
256,192,77143,1,0,0:0:0:0:
256,192,77332,1,8,0:0:0:0:
256,192,77709,1,0,0:0:0:0:
256,192,77898,1,0,0:0:0:0:
256,192,78275,1,8,0:0:0:0:
256,192,78653,1,8,0:0:0:0:
256,192,78841,1,8,0:0:0:0:
256,192,79030,1,4,0:0:0:0:
256,192,79596,1,0,0:0:0:0:
256,192,79973,1,8,0:0:0:0:
256,192,80351,1,12,0:0:0:0:
256,192,81106,1,0,0:0:0:0:
256,192,81483,1,0,0:0:0:0:
256,192,81672,1,8,0:0:0:0:
256,192,82049,1,12,0:0:0:0:
256,192,82615,1,4,0:0:0:0:
256,192,82992,1,12,0:0:0:0:
256,192,83370,1,4,0:0:0:0:
256,192,83936,1,12,0:0:0:0:
256,192,84313,1,8,0:0:0:0:
256,192,84879,1,0,0:0:0:0:
256,192,85068,1,0,0:0:0:0:
256,192,85445,1,8,0:0:0:0:
256,192,85823,1,0,0:0:0:0:
256,192,86200,1,0,0:0:0:0:
256,192,86389,1,12,0:0:0:0:
256,192,86577,12,0,88087,0:0:0:0:
