osu file format v14

[General]
AudioFilename: Yume Kataru yori Yume Utaou.mp3
AudioLeadIn: 0
PreviewTime: 39596
Countdown: 0
SampleSet: Soft
StackLeniency: 0.7
Mode: 0
LetterboxInBreaks: 0
WidescreenStoryboard: 0

[Editor]
Bookmarks: 27340
DistanceSpacing: 1.9
BeatDivisor: 4
GridSize: 4
TimelineZoom: 1

[Metadata]
Title:Yume Kataru yori Yume Utaou
TitleUnicode:ユメ語るよりユメ歌おう
Artist:Aqours
ArtistUnicode:Aqours
Creator:Nardoxyribonucleic
Version:Easy
Source:Lovelive! Sunshine!!
Tags:ラブライブ!サンシャイン!! Ending TV Size school idol project Kawaiwkyik Rizia Takami Chika 高海千歌 Inami Anju 伊波杏樹 Sakurauchi Riko 桜内梨子 Aida Rikako 逢田梨香子 Matsuura Kanan 松浦果南 Suwa Nanaka 諏訪ななか Kurosawa Dia 黒澤ダイヤ Komiya Arisa 小宮有紗 Watanabe You 渡辺 曜 Saito Shuka 斉藤朱夏 Tsushima Yoshiko 津島善子 Kobayashi Aika 小林愛香 Kunikida Hanamaru 国木田花丸 Takatsuki Kanako 高槻かなこ Ohara Mari 小原鞠莉 Suzuki Aina 鈴木愛奈 Kurosawa Ruby 黒澤ルビィ Furihata Ai 降幡 愛
BeatmapID:1035918
BeatmapSetID:483234

[Difficulty]
HPDrainRate:1
CircleSize:3
OverallDifficulty:1
ApproachRate:2
SliderMultiplier:0.8
SliderTickRate:1

[Events]
//Background and Video events
0,0,"bg1.jpg",0,0
Video,-186,"video.flv"
//Break Periods
//Storyboard Layer 0 (Background)
//Storyboard Layer 1 (Fail)
//Storyboard Layer 2 (Pass)
//Storyboard Layer 3 (Foreground)
//Storyboard Sound Samples

[TimingPoints]
540,377.358490566038,4,2,1,80,1,0
12615,-100,4,2,1,80,0,0
24690,-100,4,2,1,80,0,0
30728,-100,4,2,1,80,0,0
33747,-100,4,2,1,40,0,0
35256,-100,4,2,1,50,0,0
36766,-100,4,2,1,60,0,0
39785,-100,4,2,1,80,0,1
50351,-100,4,2,1,80,0,0
51860,-100,4,2,1,80,0,1
63936,-100,4,2,1,80,0,0
69973,-100,4,2,1,80,0,0
77709,-100,4,2,1,40,0,0
77898,-100,4,2,1,50,0,0
78275,-100,4,2,1,60,0,0
78653,-100,4,2,1,70,0,0
79030,-100,4,2,1,80,0,0
86389,-100,4,2,1,80,0,0
88087,-100,4,2,1,5,0,0

[Colours]
Combo1 : 0,128,255
Combo2 : 255,0,0
Combo3 : 255,128,0
Combo4 : 255,255,0
Combo5 : 128,64,64

[HitObjects]
96,308,540,6,0,P|80:252|92:188,1,120,4|2,0:0|0:0,0:0:0:0:
156,148,1483,1,2,0:0:0:0:
224,192,1860,2,0,P|281:208|339:197,1,120,6|8,0:0|0:0,0:0:0:0:
432,68,3181,1,8,0:0:0:0:
364,24,3558,6,0,P|352:68|432:152,1,160,6|0,0:0|0:0,0:0:0:0:
412,228,4690,2,0,L|408:276,1,40,8|4,0:0|0:0,0:0:0:0:
404,348,5256,2,0,L|320:340,1,80,2|2,0:0|0:0,0:0:0:0:
124,356,6577,6,0,P|72:360|16:304,1,120,4|2,0:0|0:0,0:0:0:0:
12,240,7521,1,2,0:0:0:0:
12,160,7898,2,0,P|60:148|136:136,1,120,6|8,0:0|0:0,0:0:0:0:
288,132,9219,1,8,0:0:0:0:
364,160,9596,6,0,P|372:100|368:24,1,120,4|4,0:0|0:0,0:0:0:0:
292,36,10540,1,2,0:0:0:0:
212,24,10917,2,0,P|204:84|208:160,1,120,2|4,0:0|0:0,0:0:0:0:
400,284,12615,5,4,0:0:0:0:
336,332,12992,2,0,B|300:352|300:352|168:332,1,160,8|8,0:0|0:0,0:0:0:0:
104,352,14124,2,0,P|80:308|100:188,1,160,2|2,0:0|0:0,0:0:0:0:
144,144,15256,1,8,0:0:0:0:
220,116,15634,6,0,L|304:120,2,80,0|8|2,0:0|0:0|0:0,0:0:0:0:
80,40,17143,2,0,L|-4:44,2,80,0|8|2,0:0|0:0|0:0,0:0:0:0:
124,108,18275,2,0,P|116:160|108:192,1,80,8|4,0:0|0:0,0:0:0:0:
56,248,19030,6,0,P|60:288|164:364,1,160,8|8,0:0|0:0,0:0:0:0:
224,368,20162,2,0,L|308:372,1,80,2|8,0:0|0:0,0:0:0:0:
384,356,20917,2,0,P|392:328|416:264,1,80,2|8,0:0|0:0,0:0:0:0:
460,216,21672,5,0,0:0:0:0:
452,136,22049,2,0,P|444:108|420:44,2,80,8|2|8,0:0|0:0|0:0,0:0:0:0:
384,180,23181,2,0,B|340:176|308:216|308:216|248:228|200:172|216:104|276:80|320:104,1,320,0|4,0:0|0:0,0:0:0:0:
472,136,25445,5,0,0:0:0:0:
388,272,26200,2,0,P|436:288|512:284,2,120,0|8|8,0:0|0:0|0:0,0:0:0:0:
312,248,27709,2,0,P|268:268|180:284,2,120,4|8|8,0:0|0:0|0:0,0:0:0:0:
372,192,29219,2,0,P|380:140|336:80,1,120,0|8,0:0|0:0,0:0:0:0:
240,24,30351,2,0,L|156:32,1,80,8|4,0:0|0:0,0:0:0:0:
80,20,31106,6,0,P|60:72|52:192,1,160,8|8,0:0|0:0,0:0:0:0:
64,256,32238,2,0,P|76:312|80:380,2,120,4|4|8,0:0|0:0|0:0,0:0:0:0:
256,192,33747,12,2,36766,0:0:0:0:
296,68,39030,6,0,L|200:68,1,80,0|8,0:0|0:0,0:0:0:0:
136,80,39785,2,0,P|120:136|168:232,1,160,4|2,0:0|0:0,0:0:0:0:
232,192,40917,1,8,0:0:0:0:
304,156,41294,2,0,P|342:224|327:301,1,160,2|2,0:0|0:0,0:0:0:0:
268,356,42426,6,0,P|224:352|172:348,2,80,8|4|8,0:0|0:0|0:0,0:0:0:0:
344,380,43558,2,0,P|383:376|423:373,1,80,2|8,0:0|0:0,0:0:0:0:
480,316,44313,2,0,P|488:276|340:164,1,240,4|8,0:0|0:0,0:0:0:0:
280,180,45823,6,0,P|268:128|284:48,2,120,4|2|8,0:0|0:0|0:0,0:0:0:0:
248,252,47332,2,0,P|188:260|120:240,1,120,4|6,0:0|0:0,0:0:0:0:
28,180,48464,1,8,0:0:0:0:
68,108,48841,6,0,P|116:96|193:179,1,160,4|0,0:0|0:0,0:0:0:0:
148,232,49973,1,8,0:0:0:0:
124,308,50351,2,0,P|204:368|344:336,1,240,4|8,0:0|0:0,0:0:0:0:
404,304,51860,6,0,P|420:244|428:208,1,80,4|8,0:0|0:0,0:0:0:0:
492,184,52615,2,0,P|475:124|464:88,1,80,2|8,0:0|0:0,0:0:0:0:
416,48,53370,2,0,P|384:88|204:80,1,240,2|8,0:0|0:0,0:0:0:0:
140,52,54879,6,0,L|56:64,2,80,4|8|2,0:0|0:0|0:0,0:0:0:0:
148,132,56011,1,8,0:0:0:0:
160,212,56389,2,0,P|167:254|168:300,1,80,4|8,0:0|0:0,0:0:0:0:
132,364,57143,2,0,P|96:364|96:260,1,160,8|0,0:0|0:0,0:0:0:0:
84,184,58275,6,0,P|140:196|248:192,1,160,12|8,0:0|0:0,0:0:0:0:
320,176,59407,1,2,0:0:0:0:
364,108,59785,2,0,P|289:80|209:71,1,160,8|8,0:0|0:0,0:0:0:0:
132,84,60917,6,0,P|128:36|132:0,2,80,4|8|2,0:0|0:0|0:0,0:0:0:0:
156,160,62049,1,8,0:0:0:0:
128,236,62426,2,0,P|92:260|4:252,2,120,4|8|12,0:0|0:3|0:0,0:0:0:0:
208,224,63936,6,0,B|244:192|300:196|300:196|348:272|348:272|404:256,1,240,4|6,0:0|0:0,0:0:0:0:
464,208,65445,2,0,P|464:152|308:108,1,240,2|8,0:0|0:0,0:0:0:0:
252,152,66955,2,0,P|216:160|164:156,1,80,4|0,0:0|0:0,0:0:0:0:
96,144,67709,2,0,P|80:108|88:24,1,120,0|4,0:0|0:0,0:0:0:0:
196,76,68841,2,0,L|292:68,1,80,8|8,0:0|0:0,0:0:0:0:
344,24,69596,1,0,0:0:0:0:
426,29,69973,6,0,P|435:87|416:144,2,120,4|4|4,0:0|0:0|0:0,0:0:0:0:
268,60,71860,1,8,0:0:0:0:
188,52,72238,1,8,0:0:0:0:
108,44,72615,1,8,0:0:0:0:
28,32,72992,6,0,P|18:90|38:146,2,120,4|4|4,0:0|0:0|0:0,0:0:0:0:
180,80,74879,1,12,0:0:0:0:
236,140,75256,2,0,P|256:172|236:300,1,160,4|4,0:0|0:0,0:0:0:0:
256,192,76389,12,4,79030,0:0:0:0:
72,288,80351,6,0,B|52:236|52:236|64:180|128:160,1,160,4|4,0:0|0:0,0:0:0:0:
232,204,81672,1,8,0:0:0:0:
300,164,82049,6,0,P|312:124|308:40,1,120,4|4,0:0|0:0,0:0:0:0:
228,52,82992,1,2,0:0:0:0:
148,36,83370,2,0,P|136:76|140:160,1,120,2|4,0:0|0:0,0:0:0:0:
180,220,84313,6,0,P|172:260|76:344,1,160,4|4,0:0|0:0,0:0:0:0:
20,304,85445,1,8,0:0:0:0:
24,224,85823,2,0,L|32:132,1,80,8|0,0:3|0:0,0:0:0:0:
256,192,86389,12,0,88087,0:0:0:0:
