osu file format v14

[General]
AudioFilename: my mai tonight.mp3
AudioLeadIn: 0
PreviewTime: 59791
Countdown: 0
SampleSet: Soft
StackLeniency: 0.4
Mode: 0
LetterboxInBreaks: 0
WidescreenStoryboard: 0

[Editor]
Bookmarks: 6578,19484,31048,41774,47137,52500,60545
DistanceSpacing: 2
BeatDivisor: 8
GridSize: 32
TimelineZoom: 3.099999

[Metadata]
Title:MY Mai*TONIGHT
TitleUnicode:MY舞☆TONIGHT
Artist:Aqours
ArtistUnicode:Aqours
Creator:lit120
Version:sahuang's Expert
Source:ラブライブ!サンシャイン!!
Tags:love live sunshine school idol project festival season two 2 insert song tv size inami anju 伊波杏樹 takami chika 高海千歌 aida rikako 逢田梨香子 sakurauchi riko 桜内梨子 suwa nanaka 諏訪ななか matsuura kanan 松浦果南 komiya arisa 小宮有紗 kurosawa dia 黒澤ダイヤ saito shuka 斉藤朱夏 watanabe you 渡辺曜 kobayashi aika 小林愛香 tsushima yoshiko 津島善子 yohane ヨハネ takatsuki kanako 高槻かなこ kunikida hanamaru 国木田花丸 suzuki aina 鈴木愛奈 ohara mari 小原鞠莉 furihata ai 降幡愛 kurosawa ruby 黒澤ルビィ -Hakurei- Lasse Delis Karia [c_u_r_i] curi c_u_r_i Regraz sahuang ak74 Crystal
BeatmapID:1458242
BeatmapSetID:684769

[Difficulty]
HPDrainRate:6
CircleSize:4.8
OverallDifficulty:8.8
ApproachRate:9.2
SliderMultiplier:1.7
SliderTickRate:1

[Events]
//Background and Video events
0,0,"ruby dia.jpg",0,0
//Break Periods
//Storyboard Layer 0 (Background)
//Storyboard Layer 1 (Fail)
//Storyboard Layer 2 (Pass)
//Storyboard Layer 3 (Foreground)
//Storyboard Sound Samples

[TimingPoints]
92,810.810810810811,4,2,2,40,1,0
6578,-133.333333333333,4,2,2,40,0,0
8200,-133.333333333333,4,2,2,30,0,0
8605,-133.333333333333,4,2,2,15,0,0
9010,-133.333333333333,4,2,2,30,0,0
9416,-133.333333333333,4,2,2,15,0,0
9821,-133.333333333333,4,2,2,30,0,0
14686,-133.333333333333,4,2,2,40,0,0
15396,-133.333333333333,4,2,2,5,0,0
15497,857.142857142857,4,2,2,40,1,0
16354,571.428571428571,4,2,2,40,1,0
16354,-133.333333333333,4,2,2,40,0,0
16925,685.714285714286,4,2,1,40,1,0
18982,335.195530726257,4,2,1,5,1,0
19484,-100,4,2,1,60,0,0
20322,-100,4,2,1,80,0,0
27026,-76.9230769230769,4,2,1,80,0,0
28367,-100,4,2,1,80,0,0
30211,-76.9230769230769,4,2,1,80,0,0
30377,-76.9230769230769,4,2,1,60,0,0
30713,-100,4,2,1,60,0,0
31048,-125,4,2,1,50,0,0
35908,-166.666666666667,4,2,1,50,0,0
36327,-133.333333333333,4,2,1,5,0,0
36411,-111.111111111111,4,2,1,50,0,0
37752,-166.666666666667,4,2,1,50,0,0
38003,-100,4,2,1,5,0,0
38087,-100,4,2,1,40,0,0
39092,-100,4,2,1,55,0,0
39176,-100,4,2,1,5,0,0
40768,-100,4,2,1,60,0,0
40852,-100,4,2,1,5,0,0
40936,-83.3333333333333,4,2,1,60,0,0
41774,-100,4,2,1,60,0,0
43366,-100,4,2,1,5,0,0
43450,-100,4,2,1,60,0,0
46467,-125,4,2,1,60,0,0
47137,-111.111111111111,4,2,1,50,0,0
52165,-125,4,2,1,50,0,0
55014,-100,4,2,1,70,0,0
55182,-133.333333333333,4,2,1,50,0,0
55517,-100,4,2,1,55,0,0
55852,-80,4,2,1,60,0,0
56187,-66.6666666666667,4,2,1,65,0,0
56523,-100,4,2,1,70,0,0
56858,-100,4,2,1,75,0,0
57780,-100,4,2,1,5,0,0
57863,-100,4,2,1,75,0,0
59204,-100,4,2,1,80,0,0
59875,-133.333333333333,4,2,1,70,0,0
60210,-71.4285714285714,4,2,1,70,0,0
60546,-76.9230769230769,4,2,1,80,0,1
60796,-76.9230769230769,4,2,1,5,0,1
60880,-100,4,2,1,80,0,1
61887,-76.9230769230769,4,2,1,80,0,1
62137,-76.9230769230769,4,2,1,5,0,1
62221,-100,4,2,1,80,0,1
63227,-83.3333333333333,4,2,1,80,0,1
63563,-100,4,2,1,80,0,1
63898,-111.111111111111,4,2,1,80,0,1
64233,-125,4,2,1,80,0,1
64568,-100,4,2,1,80,0,1
68590,-90.9090909090909,4,2,1,80,0,1
71188,-100,4,2,1,5,0,0
71272,-76.9230769230769,4,2,1,80,0,1
71523,-76.9230769230769,4,2,1,5,0,1
71606,-100,4,2,1,80,0,1
72613,-76.9230769230769,4,2,1,80,0,1
72864,-76.9230769230769,4,2,1,5,0,1
72948,-100,4,2,1,80,0,1
73954,-83.3333333333333,4,2,1,80,0,1
74289,-100,4,2,1,80,0,1
74624,-111.111111111111,4,2,1,80,0,1
74959,-125,4,2,1,80,0,1
75294,-100,4,2,1,80,0,1
79317,-125,4,2,1,80,0,1
79652,-83.3333333333333,4,2,1,80,0,1
81160,-66.6666666666667,4,2,1,80,0,1
81495,-83.3333333333333,4,2,1,80,0,1
81914,-83.3333333333333,4,2,1,5,0,0
81998,-83.3333333333333,4,2,1,80,0,1
87025,-111.111111111111,4,2,1,80,0,1
87278,-111.111111111111,4,2,1,25,0,0
87361,-100,4,2,1,80,0,1
90043,-111.111111111111,4,2,1,80,0,1
91216,-100,4,2,1,70,0,0
92724,-100,4,2,1,30,0,0
95405,-100,4,2,1,10,0,0

[Colours]
Combo1 : 160,170,220
Combo2 : 105,220,160
Combo3 : 130,200,250
Combo4 : 255,128,192

[HitObjects]
103,119,5767,5,0,0:0:0:0:
182,82,6173,1,0,0:0:0:0:
268,112,6578,2,0,L|345:101,1,63.7500024318696,4|0,0:0|0:0,0:0:0:0:
468,366,7389,5,8,0:0:0:0:
431,287,7794,1,0,0:0:0:0:
461,201,8200,2,0,P|454:168|426:134,1,63.7500024318696,2|0,0:3|0:0,0:0:0:0:
168,330,9010,5,8,0:0:0:0:
217,258,9416,1,0,0:0:0:0:
304,274,9821,2,0,P|334:264|371:264,1,63.7500024318696,2|0,0:3|0:0,0:0:0:0:
272,187,10632,2,0,P|278:156|296:123,1,63.7500024318696,2|0,0:3|0:0,0:0:0:0:
180,171,11443,2,0,P|156:150|137:117,1,63.7500024318696,2|0,0:3|0:0,0:0:0:0:
472,59,12254,5,8,0:0:0:0:
435,138,12659,1,0,0:0:0:0:
469,220,13064,2,0,L|458:297,1,63.7500024318696,2|0,0:3|0:0,0:0:0:0:
326,141,13875,2,0,L|295:212,1,63.7500024318696,8|0,0:0|0:0,0:0:0:0:
138,49,14686,5,2,0:3:0:0:
165,163,15092,1,0,0:0:0:0:
430,306,15497,5,4,0:3:0:0:
294,263,15925,1,0,0:0:0:0:
86,327,16354,6,0,B|66:338|43:328|43:328|41:357|102:366,1,106.250004053116,4|0,0:0|0:0,0:0:0:0:
256,192,16925,12,0,19317,0:0:0:0:
103,212,19484,5,2,0:0:0:0:
88,209,19568,1,2,0:0:0:0:
56,181,19652,5,8,0:0:0:0:
48,140,19736,1,8,0:0:0:0:
69,104,19819,1,8,0:0:0:0:
108,89,19903,1,8,0:0:0:0:
174,130,19987,5,8,0:0:0:0:
212,130,20071,1,8,0:0:0:0:
252,131,20155,1,8,0:0:0:0:
294,134,20238,1,8,0:0:0:0:
340,75,20322,6,0,B|312:117|312:117|333:260,1,170,6|8,0:0|0:0,0:0:0:0:
329,235,20993,1,2,0:0:0:0:
347,326,21160,1,2,0:0:0:0:
265,372,21328,2,0,L|170:369,1,85,8|0,0:0|0:0,0:0:0:0:
123,273,21663,6,0,P|171:307|98:349,1,170,2|8,0:0|0:0,0:0:0:0:
102,352,22333,1,2,0:0:0:0:
33,287,22501,1,2,0:0:0:0:
63,198,22669,2,0,L|54:101,1,85,8|0,0:0|0:0,0:0:0:0:
212,58,23004,6,0,P|165:93|133:91,1,85,2|0,0:0|0:0,0:0:0:0:
298,36,23339,2,0,P|354:52|383:39,1,85,8|0,0:0|0:0,0:0:0:0:
284,167,23674,2,0,L|276:111,1,42.5,2|0,0:0|0:0,0:0:0:0:
409,177,23842,1,2,0:0:0:0:
410,185,23926,1,0,0:0:0:0:
411,193,24009,2,0,L|418:91,1,85,8|0,0:0|0:0,0:0:0:0:
470,280,24345,5,2,0:0:0:0:
358,331,24512,1,2,0:0:0:0:
256,224,24680,1,8,0:0:0:0:
154,331,24847,1,2,0:0:0:0:
42,280,25015,1,2,0:0:0:0:
238,220,25183,5,8,0:0:0:0:
256,224,25266,1,8,0:0:0:0:
271,262,25350,5,8,0:0:0:0:
263,304,25434,1,8,0:3:0:0:
234,334,25518,1,4,0:3:0:0:
194,344,25602,1,4,0:3:0:0:
154,331,25685,6,0,L|346:323,1,170,6|8,0:0|0:0,0:0:0:0:
323,323,26356,1,2,0:0:0:0:
410,353,26523,1,2,0:0:0:0:
473,283,26691,2,0,P|482:246|449:196,1,85,8|0,0:0|0:0,0:0:0:0:
333,166,26942,1,0,0:0:0:0:
320,174,27026,6,0,P|304:139|398:119,1,165.749992412568,6|0,0:0|0:0,0:0:0:0:
393,111,27361,1,8,0:0:0:0:
175,87,27529,1,2,0:0:0:0:
332,257,27697,1,2,0:0:0:0:
113,232,27864,5,8,0:0:0:0:
96,241,27948,1,8,0:0:0:0:
124,273,28032,5,8,0:0:0:0:
167,278,28116,1,8,0:0:0:0:
203,253,28199,1,8,0:3:0:0:
213,211,28283,1,4,0:3:0:0:
193,173,28367,5,6,0:0:0:0:
193,173,28535,1,2,0:0:0:0:
347,119,28702,2,0,L|411:128,1,42.5,8|0,0:0|0:0,0:0:0:0:
459,187,28870,1,2,0:0:0:0:
332,257,29037,5,8,0:3:0:0:
330,240,29121,1,0,0:0:0:0:
328,223,29205,1,2,0:0:0:0:
326,206,29289,1,2,0:0:0:0:
324,189,29373,2,0,L|388:198,1,42.5,8|0,0:0|0:0,0:0:0:0:
267,136,29540,1,2,0:0:0:0:
265,119,29624,1,2,0:0:0:0:
244,45,29708,6,0,L|308:54,1,42.5,12|0,0:0|0:0,0:0:0:0:
188,161,29875,1,2,0:0:0:0:
186,144,29959,1,2,0:0:0:0:
184,127,30043,1,8,0:0:0:0:
182,110,30127,1,0,0:0:0:0:
137,46,30211,6,0,L|156:227,1,165.749992412568,6|0,0:0|0:0,0:0:0:0:
129,288,30546,1,2,0:0:0:0:
129,288,30630,1,2,0:0:0:0:
129,288,30713,1,4,0:3:0:0:
77,228,30881,1,0,0:0:0:0:
181,348,31049,6,0,P|231:329|313:365,1,136,4|2,0:0|0:3,0:0:0:0:
398,344,31551,1,0,0:0:0:0:
505,238,31719,2,0,P|455:219|370:272,1,136,2|2,0:3|0:3,0:0:0:0:
398,344,32222,1,2,0:0:0:0:
382,250,32389,6,0,L|396:167,1,68,2|0,0:0|0:0,0:0:0:0:
371,96,32725,1,2,0:3:0:0:
291,58,32892,1,0,0:0:0:0:
204,79,33060,2,0,P|161:80|129:61,1,68,2|0,0:3|0:0,0:0:0:0:
291,58,33395,1,2,0:3:0:0:
169,54,33563,2,0,P|153:59|136:72,1,34,2|0,0:0|0:0,0:0:0:0:
95,159,33730,6,0,P|132:179|133:280,1,136,2|2,0:0|0:3,0:0:0:0:
214,359,34233,1,0,0:0:0:0:
377,219,34400,2,0,P|335:206|264:277,1,136,2|2,0:3|0:3,0:0:0:0:
214,359,34903,1,2,0:0:0:0:
267,259,35071,6,0,L|276:170,1,68,2|0,0:0|0:0,0:0:0:0:
131,197,35406,2,0,L|122:108,1,68,2|0,0:3|0:0,0:0:0:0:
288,56,35741,1,2,0:3:0:0:
168,60,35909,6,0,B|241:79|241:79|288:56,1,127.499996109009,2|0,0:0|0:0,0:0:0:0:
223,6,36412,6,0,P|205:72|268:137,1,152.999995330811,4|2,0:0|0:3,0:0:0:0:
452,319,37082,2,0,P|470:253|411:186,1,152.999995330811,2|2,0:3|0:3,0:0:0:0:
296,258,37585,1,8,0:3:0:0:
296,258,37669,1,4,0:3:0:0:
296,258,37752,6,0,P|289:295|311:327,1,76.4999976654053,2|0,0:0|0:0,0:0:0:0:
376,348,38088,5,2,0:0:0:0:
431,262,38255,1,2,0:0:0:0:
399,138,38423,1,8,0:0:0:0:
265,84,38590,1,8,0:0:0:0:
127,169,38758,1,8,0:0:0:0:
155,354,38926,1,8,0:0:0:0:
381,252,39093,6,0,L|302:244,1,42.5,8|0,0:0|0:0,0:0:0:0:
381,252,40769,6,0,L|302:244,1,42.5,8|0,0:0|0:0,0:0:0:0:
126,177,40937,6,0,B|158:168|178:182|178:182|212:167|212:167|237:185|289:181,1,152.999995330811,6|0,0:0|0:0,0:0:0:0:
338,247,41272,1,8,0:0:0:0:
359,249,41356,1,8,0:0:0:0:
381,252,41440,1,8,0:0:0:0:
208,317,41607,1,2,0:0:0:0:
206,295,41691,1,0,0:0:0:0:
204,274,41775,6,0,P|211:328|105:348,1,170,6|8,0:0|0:0,0:0:0:0:
16,233,42278,1,0,0:0:0:0:
115,101,42445,1,2,0:0:0:0:
276,116,42613,1,2,0:0:0:0:
115,101,42780,2,0,L|207:110,1,85,8|0,0:0|0:0,0:0:0:0:
337,126,43116,6,0,P|279:104|280:33,1,127.5,2|0,0:0|0:0,0:0:0:0:
272,45,43451,1,8,0:0:0:0:
361,20,43618,1,2,0:0:0:0:
448,53,43786,1,0,0:0:0:0:
455,214,43954,1,2,0:0:0:0:
459,221,44037,1,2,0:0:0:0:
464,227,44121,2,0,P|482:173|474:127,1,85,8|0,0:0|0:0,0:0:0:0:
318,157,44456,5,6,0:0:0:0:
342,247,44624,1,2,0:0:0:0:
252,271,44792,1,8,0:0:0:0:
228,181,44959,1,2,0:0:0:0:
342,247,45127,5,8,0:0:0:0:
345,281,45211,1,8,0:0:0:0:
336,315,45294,1,8,0:0:0:0:
314,343,45378,1,8,0:0:0:0:
283,361,45462,1,8,0:0:0:0:
249,365,45546,1,8,0:0:0:0:
215,357,45630,2,0,P|192:350|171:330,1,42.5,4|0,0:3|0:0,0:0:0:0:
140,255,45797,6,0,B|109:227|59:228|59:228|71:243|82:261,1,127.5,6|0,0:0|0:0,0:0:0:0:
112,324,46132,1,8,0:0:0:0:
11,280,46300,1,6,0:0:0:0:
93,96,46468,6,0,B|103:118|103:118|100:150,1,45.3333333333333,8|8,0:0|0:3,0:0:0:0:
174,158,46691,1,8,0:3:0:0:
158,57,46803,2,0,B|172:76|172:76|201:90,1,45.3333333333333,4|4,0:3|0:3,0:0:0:0:
174,158,47026,1,4,0:3:0:0:
267,29,47138,6,0,L|347:38,1,76.4999976654053,6|0,0:0|0:0,0:0:0:0:
482,144,47473,2,0,L|402:153,1,76.4999976654053,0|2,0:0|0:0,0:0:0:0:
253,54,47808,6,0,L|333:63,1,76.4999976654053,8|0,0:0|0:0,0:0:0:0:
468,169,48144,1,0,0:0:0:0:
391,177,48311,1,2,0:0:0:0:
177,142,48479,5,0,0:0:0:0:
211,209,48646,1,8,0:0:0:0:
187,280,48814,1,2,0:0:0:0:
120,314,48982,1,0,0:0:0:0:
331,243,49149,5,8,0:0:0:0:
211,209,49317,1,8,0:3:0:0:
158,125,49484,1,4,0:3:0:0:
168,49,49652,1,4,0:3:0:0:
373,183,49819,6,0,P|359:219|319:246,1,76.4999976654053,6|0,0:0|0:0,0:0:0:0:
115,184,50155,2,0,P|129:148|169:121,1,76.4999976654053,0|2,0:0|0:0,0:0:0:0:
232,323,50490,5,8,0:0:0:0:
246,224,50657,1,8,0:0:0:0:
260,125,50825,1,8,0:3:0:0:
214,36,50993,1,2,0:0:0:0:
188,30,51076,1,2,0:0:0:0:
163,25,51160,6,0,P|100:38|30:20,1,114.749996498108,6|0,0:0|0:0,0:0:0:0:
51,29,51495,1,8,0:0:0:0:
2,191,51663,2,0,P|65:178|135:196,1,114.749996498108,6|0,0:0|0:0,0:0:0:0:
173,250,51998,1,2,0:0:0:0:
191,269,52082,1,2,0:0:0:0:
209,288,52166,2,0,L|202:360,1,68,8|0,0:0|0:0,0:0:0:0:
380,229,52501,6,0,P|353:203|317:192,1,68,12|8,0:0|0:0,0:0:0:0:
146,108,52836,2,0,P|180:87|213:85,1,68,8|8,0:0|0:0,0:0:0:0:
324,118,53171,1,8,0:0:0:0:
182,10,53339,1,8,0:0:0:0:
350,104,53507,1,8,0:0:0:0:
155,23,53674,1,8,0:0:0:0:
11,105,53842,6,0,P|4:136|15:174,1,68,12|8,0:0|0:0,0:0:0:0:
189,334,54177,2,0,P|196:303|185:265,1,68,8|8,0:0|0:0,0:0:0:0:
108,157,54512,1,8,0:0:0:0:
0,299,54680,1,8,0:0:0:0:
95,131,54847,1,8,0:0:0:0:
14,326,55015,1,8,0:0:0:0:
189,334,55183,6,0,P|209:325|197:352,1,63.7500024318696,12|2,0:0|0:0,0:0:0:0:
407,203,55518,6,0,P|395:225|431:212,1,85,8|2,0:0|0:0,0:0:0:0:
131,131,55853,6,0,P|160:149|116:153,1,106.25,8|2,0:0|0:0,0:0:0:0:
374,39,56188,6,0,P|390:59|393:9,1,127.500004863739,8|2,0:0|0:0,0:0:0:0:
171,53,56523,5,12,0:0:0:0:
305,151,56691,1,8,0:0:0:0:
347,145,56775,1,8,0:0:0:0:
389,139,56859,1,8,0:0:0:0:
431,134,56942,2,0,P|417:138|337:103,1,85,8|4,0:0|0:3,0:0:0:0:
226,138,57194,5,8,0:0:0:0:
228,154,57278,1,8,0:0:0:0:
230,171,57361,1,8,0:0:0:0:
233,188,57445,1,8,0:0:0:0:
212,262,57529,5,8,0:3:0:0:
173,278,57613,1,8,0:3:0:0:
131,275,57697,2,0,P|110:270|81:245,1,42.5,4|0,0:3|0:0,0:0:0:0:
28,195,57864,5,6,0:0:0:0:
131,78,58032,1,2,0:0:0:0:
329,90,58199,1,2,0:0:0:0:
39,67,58367,5,8,0:0:0:0:
216,7,58535,1,2,0:0:0:0:
414,138,58702,1,2,0:0:0:0:
365,345,58870,6,0,P|358:317|361:295,1,42.5,12|0,0:0|0:0,0:0:0:0:
274,172,59037,1,2,0:0:0:0:
265,181,59121,1,2,0:0:0:0:
257,140,59205,5,8,0:0:0:0:
76,238,59373,1,8,0:0:0:0:
436,238,59540,1,8,0:0:0:0:
76,238,59875,6,0,L|116:227,1,31.8750012159348,0|0,0:0|0:0,0:0:0:0:
405,229,60043,1,2,0:0:0:0:
420,233,60127,1,2,0:0:0:0:
436,238,60211,2,0,B|409:115|409:115|475:158,1,178.499994552612,8|0,0:0|0:0,0:0:0:0:
455,130,60546,6,0,B|411:103|411:103|255:144,1,165.749992412568,6|0,0:0|0:0,0:0:0:0:
290,141,60881,2,0,P|303:187|337:198,1,85,8|0,0:0|0:0,0:0:0:0:
178,61,61216,5,2,0:0:0:0:
86,81,61384,1,2,0:0:0:0:
270,41,61551,2,0,L|371:47,1,85,8|0,0:0|0:0,0:0:0:0:
0,99,61887,6,0,L|187:112,1,165.749992412568,6|0,0:0|0:0,0:0:0:0:
162,122,62222,2,0,L|256:117,1,85,8|0,0:0|0:0,0:0:0:0:
351,152,62557,5,2,0:0:0:0:
349,173,62641,1,0,0:0:0:0:
347,194,62725,1,2,0:0:0:0:
345,215,62808,1,0,0:0:0:0:
319,249,62892,2,0,P|327:288|376:306,1,85,8|0,0:0|0:0,0:0:0:0:
509,226,63227,6,0,P|512:168|413:116,1,152.999995330811,6|0,0:0|0:0,0:0:0:0:
392,69,63563,6,0,P|422:102|348:106,1,127.5,8|0,0:0|0:0,0:0:0:0:
276,96,63898,6,0,P|316:104|298:183,1,114.749996498108,6|0,0:0|0:0,0:0:0:0:
253,171,64233,6,0,L|244:53,1,102,8|0,0:0|0:0,0:0:0:0:
160,32,64568,6,0,L|168:126,1,85,6|0,0:0|0:0,0:0:0:0:
120,304,64903,1,8,0:0:0:0:
38,242,65071,1,2,0:0:0:0:
66,144,65238,1,2,0:0:0:0:
167,116,65406,5,8,0:0:0:0:
186,114,65490,1,8,0:0:0:0:
219,117,65574,5,8,0:0:0:0:
248,134,65657,1,8,0:3:0:0:
268,162,65741,1,4,0:3:0:0:
275,195,65825,1,4,0:3:0:0:
268,228,65909,6,0,P|262:279|369:295,1,170,6|8,0:0|0:0,0:0:0:0:
424,229,66412,1,0,0:0:0:0:
357,307,66579,1,2,0:0:0:0:
424,229,66747,1,2,0:0:0:0:
386,40,66914,2,0,P|367:75|374:124,1,85,8|0,0:0|0:0,0:0:0:0:
222,125,67250,6,0,P|242:158|288:177,1,85,6|0,0:0|0:0,0:0:0:0:
137,70,67585,2,0,P|97:68|58:38,1,85,8|0,0:0|0:0,0:0:0:0:
143,152,67920,1,2,0:0:0:0:
83,274,68088,1,2,0:0:0:0:
165,381,68255,2,0,P|213:356|261:370,1,85,8|0,0:0|0:0,0:0:0:0:
387,303,68507,1,0,0:0:0:0:
382,290,68590,6,0,B|378:245|398:222|398:222|380:165|380:165|399:139|393:92,2,187.000005706787,6|8|6,0:0|0:0|0:0,0:0:0:0:
470,168,69428,1,2,0:0:0:0:
382,47,69596,1,8,0:0:0:0:
239,93,69764,2,0,P|213:96|173:97,1,46.7500014266968,0|0,0:0|0:0,0:0:0:0:
93,35,69931,5,6,0:0:0:0:
97,57,70015,1,0,0:0:0:0:
101,80,70099,1,2,0:0:0:0:
75,335,70266,5,8,0:0:0:0:
81,325,70350,1,0,0:0:0:0:
86,314,70434,1,2,0:0:0:0:
89,303,70518,1,0,0:0:0:0:
118,270,70602,5,8,0:0:0:0:
160,267,70685,1,8,0:0:0:0:
202,264,70769,1,2,0:0:0:0:
245,261,70853,1,2,0:0:0:0:
287,258,70937,2,0,P|294:276|300:308,1,46.7500014266968,8|0,0:0|0:0,0:0:0:0:
410,205,71104,2,0,P|416:187|414:154,1,46.7500014266968,4|4,0:3|0:3,0:0:0:0:
247,74,71272,6,0,P|267:150|344:170,1,165.749992412568,6|0,0:0|0:0,0:0:0:0:
337,160,71607,2,0,P|277:149|232:168,1,85,8|0,0:0|0:0,0:0:0:0:
123,201,71942,5,2,0:0:0:0:
143,293,72110,1,2,0:0:0:0:
103,109,72278,2,0,L|109:8,1,85,8|0,0:0|0:0,0:0:0:0:
161,379,72613,6,0,L|174:192,1,165.749992412568,6|0,0:0|0:0,0:0:0:0:
184,217,72948,2,0,L|179:123,1,85,8|0,0:0|0:0,0:0:0:0:
293,77,73283,5,2,0:0:0:0:
294,93,73367,1,0,0:0:0:0:
296,110,73451,1,2,0:0:0:0:
298,127,73535,1,0,0:0:0:0:
291,168,73618,2,0,L|384:165,1,85,8|0,0:0|0:0,0:0:0:0:
454,263,73870,1,0,0:0:0:0:
438,267,73954,6,0,B|402:287|343:262|343:262|346:294|393:322,1,152.999995330811,6|0,0:0|0:0,0:0:0:0:
302,344,74289,6,0,B|262:305|267:248|267:248|284:222,1,127.5,8|0,0:0|0:0,0:0:0:0:
350,191,74624,6,0,B|293:202|293:202|245:159,1,114.749996498108,6|0,0:0|0:0,0:0:0:0:
278,79,74959,6,0,B|327:72|327:72|383:105,1,102,8|0,0:0|0:0,0:0:0:0:
361,198,75294,6,0,B|295:204|295:204|236:173,1,127.5,6|0,0:0|0:0,0:0:0:0:
172,208,75630,1,8,0:0:0:0:
90,146,75797,1,2,0:0:0:0:
118,48,75965,1,6,0:0:0:0:
286,13,76132,5,8,0:0:0:0:
292,18,76216,1,8,0:0:0:0:
298,23,76300,2,0,L|290:74,1,42.5,8|0,0:0|0:0,0:0:0:0:
393,164,76468,1,8,0:3:0:0:
387,169,76551,1,4,0:3:0:0:
381,174,76635,6,0,B|405:225|405:225|375:342,2,170,6|8|2,0:0|0:0|0:0,0:0:0:0:
273,148,77473,1,2,0:0:0:0:
251,70,77641,2,0,P|249:106|278:153,1,85,8|0,0:0|0:0,0:0:0:0:
436,89,77976,6,0,P|469:69|488:23,1,85,6|0,0:0|0:0,0:0:0:0:
381,174,78311,2,0,P|379:214|349:253,1,85,8|0,0:0|0:0,0:0:0:0:
358,104,78646,1,2,0:0:0:0:
222,55,78814,1,2,0:0:0:0:
133,169,78982,1,8,0:0:0:0:
213,288,79149,2,0,L|267:283,1,42.5,8|8,0:3|0:3,0:0:0:0:
183,263,79317,6,0,L|304:251,1,102,6|0,0:0|0:0,0:0:0:0:
363,291,79652,6,0,B|396:224|329:211|362:142,1,152.999995330811,8|0,0:0|0:0,0:0:0:0:
444,112,79987,1,8,0:0:0:0:
406,114,80071,1,8,0:0:0:0:
368,116,80155,1,8,0:0:0:0:
330,118,80238,1,8,0:0:0:0:
292,120,80322,1,8,0:0:0:0:
136,41,80490,1,2,0:0:0:0:
126,45,80574,1,2,0:0:0:0:
116,49,80657,5,8,0:3:0:0:
292,120,80825,1,4,0:3:0:0:
242,331,80993,1,4,0:3:0:0:
239,340,81076,1,0,0:0:0:0:
236,349,81160,6,0,B|263:290|229:221|229:221|202:234|176:259,1,191.250007295609,2|0,0:0|0:0,0:0:0:0:
82,280,81495,1,2,0:0:0:0:
72,275,81579,1,2,0:0:0:0:
66,266,81663,6,0,P|49:204|123:159,1,152.999995330811,8|0,0:0|0:0,0:0:0:0:
176,179,81998,5,6,0:0:0:0:
400,107,82166,1,0,0:0:0:0:
200,64,82333,1,8,0:0:0:0:
375,221,82501,1,2,0:0:0:0:
312,28,82669,5,8,0:0:0:0:
263,257,82836,1,2,0:0:0:0:
400,107,83004,2,0,B|360:87|330:92|330:92|310:128,1,101.999996887207,8|2,0:0|0:0,0:0:0:0:
329,318,83339,5,12,0:0:0:0:
100,283,83507,1,2,0:0:0:0:
356,300,83674,1,8,0:0:0:0:
74,301,83842,1,2,0:0:0:0:
300,155,84009,5,8,0:0:0:0:
71,190,84177,1,2,0:0:0:0:
327,173,84345,1,8,0:0:0:0:
119,105,84512,1,2,0:0:0:0:
224,301,84680,6,0,B|267:258|267:213|267:213|216:169|171:185,2,203.999993774414,6|8|12,0:0|0:0|0:0,0:0:0:0:
118,361,85518,1,2,0:0:0:0:
314,373,85685,2,0,P|367:379|416:354,1,101.999996887207,8|4,0:0|0:3,0:0:0:0:
456,292,85937,1,4,0:3:0:0:
456,292,86021,5,6,0:0:0:0:
386,191,86188,1,8,0:0:0:0:
316,90,86356,1,8,0:0:0:0:
308,307,86523,5,6,0:0:0:0:
238,206,86691,1,0,0:0:0:0:
168,105,86859,1,8,0:3:0:0:
163,114,86942,1,4,0:3:0:0:
158,123,87026,6,0,P|116:129|57:124,1,76.4999976654053,4|4,0:3|0:3,0:0:0:0:
227,36,87278,1,4,0:3:0:0:
236,31,87361,6,0,P|278:25|342:33,1,85,6|2,0:0|0:0,0:0:0:0:
424,116,87697,1,8,0:0:0:0:
404,250,87864,1,2,0:0:0:0:
202,152,88032,1,8,0:0:0:0:
336,172,88199,1,2,0:0:0:0:
129,77,88367,1,8,0:0:0:0:
109,211,88535,1,2,0:0:0:0:
336,172,88702,6,0,L|320:50,1,85,12|2,0:0|0:0,0:0:0:0:
195,45,89037,1,8,0:0:0:0:
98,140,89205,1,2,0:0:0:0:
171,255,89373,1,8,0:0:0:0:
336,172,89540,5,2,0:0:0:0:
354,175,89624,1,2,0:0:0:0:
393,209,89708,5,8,0:0:0:0:
402,258,89792,1,8,0:0:0:0:
377,301,89875,1,2,0:0:0:0:
330,319,89959,1,0,0:0:0:0:
266,278,90043,6,0,P|228:269|190:287,1,76.4999976654053,6|2,0:0|0:0,0:0:0:0:
28,367,90378,2,0,P|64:376|100:363,1,76.4999976654053,8|8,0:0|0:0,0:0:0:0:
174,278,90630,1,8,0:0:0:0:
194,282,90713,5,6,0:0:0:0:
222,244,90797,1,2,0:0:0:0:
228,197,90881,1,2,0:0:0:0:
209,154,90965,1,2,0:0:0:0:
171,127,91049,2,0,P|197:131|225:115,1,38.2499988327027
366,58,91216,5,6,0:0:0:0:
256,192,91300,12,0,95406,0:0:0:0:
