osu file format v14

[General]
AudioFilename: my mai tonight.mp3
AudioLeadIn: 0
PreviewTime: 59791
Countdown: 0
SampleSet: Soft
StackLeniency: 0.4
Mode: 0
LetterboxInBreaks: 0
WidescreenStoryboard: 0

[Editor]
Bookmarks: 5767,6578,20322,31048,41774,52500,60545,71271,81997,91215,95405
DistanceSpacing: 1
BeatDivisor: 2
GridSize: 32
TimelineZoom: 2

[Metadata]
Title:MY Mai*TONIGHT
TitleUnicode:MY舞☆TONIGHT
Artist:Aqours
ArtistUnicode:Aqours
Creator:lit120
Version:Passion Dance
Source:ラブライブ!サンシャイン!!
Tags:love live sunshine school idol project festival season two 2 insert song tv size inami anju 伊波杏樹 takami chika 高海千歌 aida rikako 逢田梨香子 sakurauchi riko 桜内梨子 suwa nanaka 諏訪ななか matsuura kanan 松浦果南 komiya arisa 小宮有紗 kurosawa dia 黒澤ダイヤ saito shuka 斉藤朱夏 watanabe you 渡辺曜 kobayashi aika 小林愛香 tsushima yoshiko 津島善子 yohane ヨハネ takatsuki kanako 高槻かなこ kunikida hanamaru 国木田花丸 suzuki aina 鈴木愛奈 ohara mari 小原鞠莉 furihata ai 降幡愛 kurosawa ruby 黒澤ルビィ -Hakurei- Lasse Delis Karia [c_u_r_i] curi c_u_r_i Regraz sahuang ak74 Crystal
BeatmapID:1450423
BeatmapSetID:684769

[Difficulty]
HPDrainRate:6.5
CircleSize:4
OverallDifficulty:9
ApproachRate:9.3
SliderMultiplier:1.8
SliderTickRate:1

[Events]
//Background and Video events
0,0,"ruby dia.jpg",0,0
//Break Periods
//Storyboard Layer 0 (Background)
//Storyboard Layer 1 (Fail)
//Storyboard Layer 2 (Pass)
//Storyboard Layer 3 (Foreground)
//Storyboard Sound Samples

[TimingPoints]
92,810.810810810811,4,2,2,40,1,0
15497,857.142857142857,4,2,2,40,1,0
16354,571.428571428571,4,2,2,40,1,0
16925,685.714285714286,4,2,1,40,1,0
18982,335.195530726257,4,2,1,70,1,0
19317,-100,4,2,1,10,0,0
19487,-100,4,2,1,70,0,0
20322,-100,4,2,1,80,0,0
30964,-100,4,2,1,5,0,0
31048,-133.333333333333,4,2,1,50,0,0
36327,-133.333333333333,4,2,1,5,0,0
36411,-133.333333333333,4,2,1,50,0,0
37752,-100,4,2,1,60,0,0
38087,-100,4,2,1,62,0,0
38422,-100,4,2,1,65,0,0
38757,-100,4,2,1,67,0,0
39092,-100,4,2,1,70,0,0
41774,-100,4,2,1,70,0,0
46467,-66.6666666666667,4,2,1,70,0,0
47137,-100,4,2,1,60,0,0
52500,-100,4,2,1,70,0,0
55517,-100,4,2,1,72,0,0
55852,-100,4,2,1,75,0,0
56187,-100,4,2,1,77,0,0
56523,-100,4,2,1,80,0,0
56858,-100,4,2,1,82,0,0
57193,-100,4,2,1,85,0,0
57528,-100,4,2,1,87,0,0
57863,-100,4,2,1,90,0,0
60210,-62.5,4,2,1,90,0,0
60461,-62.5,4,2,1,5,0,0
60546,-83.3333333333333,4,2,1,90,0,1
71188,-83.3333333333333,4,2,1,90,0,0
71272,-83.3333333333333,4,2,1,90,0,1
81663,-50,4,2,1,90,0,1
81914,-83.3333333333333,4,2,1,5,0,0
81998,-83.3333333333333,4,2,1,90,0,1
87278,-83.3333333333333,4,2,1,90,0,0
87361,-83.3333333333333,4,2,1,90,0,1
91216,-100,4,2,1,90,0,0
95406,-100,4,2,1,10,0,0

[Colours]
Combo1 : 235,56,60
Combo2 : 212,80,104
Combo3 : 95,86,113
Combo4 : 221,125,83

[HitObjects]
13,276,5767,5,0,0:0:0:0:
85,330,6173,1,0,0:0:0:0:
175,116,6578,6,0,P|155:204|166:293,1,180,4|8,0:0|0:0,0:0:0:0:
236,351,7794,1,0,0:0:0:0:
326,134,8200,2,0,P|336:222|316:310,1,180,2|8,0:3|0:0,0:0:0:0:
236,351,9416,1,0,0:0:0:0:
326,134,9821,6,0,P|282:125|238:135,1,90,2|0,0:3|0:0,0:0:0:0:
109,338,10632,2,0,P|138:304|150:261,1,90,2|0,0:3|0:0,0:0:0:0:
40,48,11443,2,0,P|54:90|85:122,1,90,2|0,0:3|0:0,0:0:0:0:
238,135,12254,1,8,0:0:0:0:
150,261,12659,1,0,0:0:0:0:
326,134,13064,6,0,L|332:333,1,180,2|8,0:3|0:0,0:0:0:0:
245,286,14281,1,0,0:0:0:0:
398,252,14686,1,2,0:3:0:0:
414,96,15092,1,0,0:0:0:0:
271,34,15497,1,4,0:3:0:0:
166,151,15925,1,0,0:0:0:0:
299,163,16354,5,4,0:0:0:0:
256,192,16496,12,0,19317,0:0:0:0:
153,256,19484,6,0,L|153:328,1,45,2|2,0:0|0:0,0:0:0:0:
74,221,19652,5,8,0:0:0:0:
101,187,19736,1,8,0:0:0:0:
142,170,19819,1,8,0:0:0:0:
186,177,19903,1,8,0:0:0:0:
221,204,19987,1,8,0:0:0:0:
255,231,20071,1,8,0:0:0:0:
299,238,20155,1,8,0:0:0:0:
341,221,20238,1,8,0:0:0:0:
368,186,20322,6,0,P|369:118|362:73,1,90,6|0,0:0|0:0,0:0:0:0:
102,187,20657,2,0,P|101:255|108:300,1,90,8|0,0:0|0:0,0:0:0:0:
268,146,20993,1,2,0:0:0:0:
299,354,21160,1,2,0:0:0:0:
102,187,21328,2,0,P|101:119|108:74,1,90,8|0,0:0|0:0,0:0:0:0:
366,96,21663,6,0,P|292:140|215:100,2,180,2|8|2,0:0|0:0|0:0,0:0:0:0:
172,30,22501,1,2,0:0:0:0:
201,271,22669,2,0,P|192:211|204:158,1,90,8|0,0:0|0:0,0:0:0:0:
443,142,23004,6,0,P|408:171|368:190,1,90,2|0,0:0|0:0,0:0:0:0:
135,60,23339,2,0,P|178:75|215:100,1,90,8|0,0:0|0:0,0:0:0:0:
368,190,23674,1,2,0:0:0:0:
215,100,23842,1,2,0:0:0:0:
218,368,24009,2,0,P|210:323|214:279,1,90,8|0,0:0|0:0,0:0:0:0:
363,101,24345,5,2,0:0:0:0:
139,148,24512,1,2,0:0:0:0:
448,231,24680,1,8,0:0:0:0:
214,279,24847,1,2,0:0:0:0:
442,141,25015,5,2,0:0:0:0:
215,100,25183,1,8,0:0:0:0:
250,118,25266,1,8,0:0:0:0:
289,124,25350,1,8,0:0:0:0:
327,118,25434,1,8,0:3:0:0:
363,101,25518,2,0,P|369:153|366:176,1,45,4|4,0:3|0:3,0:0:0:0:
294,318,25685,6,0,P|237:294|122:319,2,180,6|8|2,0:0|0:0|0:0,0:0:0:0:
391,229,26523,1,2,0:0:0:0:
139,148,26691,2,0,P|173:176|217:187,1,90,8|0,0:0|0:0,0:0:0:0:
459,41,27026,6,0,P|417:56|386:89,1,90,6|0,0:0|0:0,0:0:0:0:
294,318,27361,1,8,0:0:0:0:
260,118,27529,1,2,0:0:0:0:
386,322,27697,1,2,0:0:0:0:
106,268,27864,1,8,0:0:0:0:
97,235,27948,1,8,0:0:0:0:
95,201,28032,1,8,0:0:0:0:
97,168,28116,1,8,0:0:0:0:
105,135,28199,2,0,P|144:128|173:132,1,45,8|4,0:3|0:3,0:0:0:0:
344,240,28367,5,6,0:0:0:0:
95,201,28535,1,2,0:0:0:0:
426,197,28702,1,8,0:0:0:0:
202,314,28870,1,2,0:0:0:0:
308,21,29037,5,8,0:3:0:0:
344,240,29205,1,2,0:0:0:0:
344,240,29289,1,2,0:0:0:0:
344,240,29373,1,8,0:0:0:0:
136,161,29540,1,2,0:0:0:0:
136,161,29624,1,2,0:0:0:0:
136,161,29708,6,0,L|245:159,1,90,12|2,0:0|0:0,0:0:0:0:
238,171,29959,1,2,0:0:0:0:
251,183,30043,1,8,0:0:0:0:
14,330,30211,1,6,0:0:0:0:
136,161,30378,1,0,0:0:0:0:
136,161,30462,1,0,0:0:0:0:
136,161,30546,1,2,0:0:0:0:
136,161,30630,1,2,0:0:0:0:
136,161,30713,2,0,P|175:247|174:312,1,135,4|0,0:3|0:0,0:0:0:0:
123,354,31049,6,0,P|201:324|274:347,1,135.000005149842,4|2,0:0|0:3,0:0:0:0:
332,378,31551,1,0,0:0:0:0:
400,314,31719,2,0,L|481:311,2,67.5000025749208,2|0|2,0:3|0:0|0:3,0:0:0:0:
267,241,32222,1,2,0:0:0:0:
432,108,32389,6,0,P|455:171|453:238,1,135.000005149842,2|2,0:0|0:3,0:0:0:0:
400,314,32892,1,0,0:0:0:0:
303,154,33060,2,0,P|301:105|310:58,1,67.5000025749208,2|0,0:3|0:0,0:0:0:0:
360,230,33395,1,2,0:3:0:0:
210,165,33563,1,2,0:0:0:0:
15,301,33730,6,0,P|81:291|144:315,1,135.000005149842,2|2,0:0|0:3,0:0:0:0:
237,331,34233,1,0,0:0:0:0:
267,241,34400,2,0,L|266:173,2,67.5000025749208,2|0|2,0:3|0:0|0:3,0:0:0:0:
143,134,34903,1,2,0:0:0:0:
264,39,35071,6,0,L|266:174,1,135.000005149842,2|2,0:0|0:3,0:0:0:0:
143,315,35574,2,0,P|173:298|206:292,1,67.5000025749208,0|2,0:0|0:3,0:0:0:0:
414,193,35909,2,0,B|355:203|327:253|327:253|402:258,1,168.750006437302,2|0,0:0|0:0,0:0:0:0:
476,258,36412,6,0,P|494:230|504:198,1,67.5000025749208,4|0,0:0|0:0,0:0:0:0:
333,104,36747,2,0,P|314:132|305:164,1,67.5000025749208,2|0,0:3|0:0,0:0:0:0:
482,109,37082,2,0,P|453:90|421:81,1,67.5000025749208,2|0,0:3|0:0,0:0:0:0:
327,253,37417,1,2,0:3:0:0:
333,104,37585,1,8,0:3:0:0:
333,104,37669,1,4,0:3:0:0:
333,104,37752,5,2,0:0:0:0:
504,198,37920,1,2,0:0:0:0:
255,175,38088,5,2,0:0:0:0:
482,109,38255,1,2,0:0:0:0:
224,276,38423,5,8,0:0:0:0:
410,32,38590,1,8,0:0:0:0:
399,331,38758,5,8,0:0:0:0:
261,27,38926,1,8,0:0:0:0:
246,379,39093,5,8,0:0:0:0:
246,379,40769,5,8,0:0:0:0:
261,27,40937,1,6,0:0:0:0:
261,27,41272,5,8,0:0:0:0:
261,27,41356,1,8,0:0:0:0:
261,27,41440,1,8,0:0:0:0:
388,160,41607,1,2,0:0:0:0:
128,154,41775,6,0,P|206:134|275:209,1,180,6|8,0:0|0:0,0:0:0:0:
255,287,42278,1,0,0:0:0:0:
128,154,42445,2,0,P|126:94|141:50,1,90,2|2,0:0|0:0,0:0:0:0:
341,257,42780,1,8,0:0:0:0:
293,60,42948,1,0,0:0:0:0:
186,227,43116,6,0,P|170:318|242:377,1,180,2|8,0:0|0:0,0:0:0:0:
341,257,43618,2,0,L|336:128,1,90,2|0,0:0|0:0,0:0:0:0:
163,68,43954,1,2,0:0:0:0:
163,68,44037,1,2,0:0:0:0:
163,68,44121,1,8,0:0:0:0:
186,227,44289,1,0,0:0:0:0:
408,74,44456,5,6,0:0:0:0:
224,152,44624,1,2,0:0:0:0:
466,199,44792,1,8,0:0:0:0:
305,297,44959,1,2,0:0:0:0:
286,71,45127,5,8,0:0:0:0:
314,109,45211,1,8,0:0:0:0:
323,157,45294,1,8,0:0:0:0:
310,203,45378,1,8,0:0:0:0:
297,250,45462,1,8,0:0:0:0:
305,297,45546,1,8,0:0:0:0:
334,336,45630,2,0,P|373:317|384:303,1,45,4|0,0:3|0:0,0:0:0:0:
224,152,45797,5,6,0:0:0:0:
437,250,45965,1,2,0:0:0:0:
133,215,46132,1,8,0:0:0:0:
492,168,46300,1,6,0:0:0:0:
224,152,46468,5,8,0:0:0:0:
224,152,46579,2,0,P|212:196|219:239,1,90.0000034332277,8|8,0:3|0:3,0:0:0:0:
385,246,46803,5,4,0:3:0:0:
385,246,46914,2,0,P|397:203|390:159,1,90.0000034332277,4|4,0:3|0:3,0:0:0:0:
305,199,47138,5,6,0:0:0:0:
305,199,47473,2,0,P|296:264|301:293,1,90,0|2,0:0|0:0,0:0:0:0:
248,102,47808,2,0,P|196:61|168:51,1,90,8|0,0:0|0:0,0:0:0:0:
360,101,48144,2,0,P|420:76|443:57,1,90,0|2,0:0|0:0,0:0:0:0:
305,199,48479,6,0,P|231:175|129:209,1,180,0|2,0:0|0:0,0:0:0:0:
84,277,48982,1,0,0:0:0:0:
149,46,49149,1,8,0:0:0:0:
97,121,49317,1,8,0:3:0:0:
135,203,49484,1,4,0:3:0:0:
187,128,49652,1,4,0:3:0:0:
265,292,49819,5,6,0:0:0:0:
135,203,49987,1,0,0:0:0:0:
277,136,50155,2,0,P|346:138|374:147,1,90,0|2,0:0|0:0,0:0:0:0:
172,284,50490,2,0,P|127:286|84:277,1,90,8|8,0:0|0:0,0:0:0:0:
313,215,50825,1,8,0:3:0:0:
187,128,50993,1,2,0:0:0:0:
187,128,51076,1,2,0:0:0:0:
187,128,51160,5,6,0:0:0:0:
490,112,51328,1,8,0:0:0:0:
224,209,51495,1,8,0:0:0:0:
464,354,51663,2,0,P|351:312|264:343,1,180,6|2,0:0|0:0,0:0:0:0:
270,341,52082,1,2,0:0:0:0:
252,367,52166,1,8,0:0:0:0:
156,267,52333,1,0,0:0:0:0:
505,223,52501,5,12,0:0:0:0:
296,324,52669,1,8,0:0:0:0:
434,143,52836,1,8,0:0:0:0:
378,368,53004,1,8,0:0:0:0:
340,93,53171,5,8,0:0:0:0:
464,354,53339,1,8,0:0:0:0:
508,66,53507,1,8,0:0:0:0:
237,172,53674,1,8,0:0:0:0:
505,223,53842,5,12,0:0:0:0:
267,249,54009,1,8,0:0:0:0:
434,143,54177,1,8,0:0:0:0:
207,95,54345,1,8,0:0:0:0:
431,300,54512,5,8,0:0:0:0:
104,224,54680,1,8,0:0:0:0:
434,143,54847,1,8,0:0:0:0:
164,378,55015,1,8,0:0:0:0:
505,223,55183,5,12,0:0:0:0:
267,249,55350,1,2,0:0:0:0:
508,66,55518,5,8,0:0:0:0:
431,300,55685,1,2,0:0:0:0:
258,51,55853,5,8,0:0:0:0:
506,144,56021,1,2,0:0:0:0:
163,154,56188,5,8,0:0:0:0:
508,66,56356,1,2,0:0:0:0:
272,348,56523,5,12,0:0:0:0:
382,97,56691,1,8,0:0:0:0:
399,125,56775,1,8,0:0:0:0:
409,158,56859,1,8,0:0:0:0:
410,191,56942,1,8,0:0:0:0:
403,224,57026,2,0,P|372:241|357:243,1,45,4|4,0:3|0:3,0:0:0:0:
36,172,57194,5,8,0:0:0:0:
64,154,57278,1,8,0:0:0:0:
97,144,57361,1,8,0:0:0:0:
130,144,57445,1,8,0:0:0:0:
162,153,57529,2,0,P|177:171|187:191,1,45,8|8,0:3|0:3,0:0:0:0:
187,339,57697,2,0,P|201:321|211:301,1,45,4|0,0:3|0:0,0:0:0:0:
311,40,57864,5,6,0:0:0:0:
373,314,58032,1,2,0:0:0:0:
373,314,58199,1,2,0:0:0:0:
97,144,58367,5,8,0:0:0:0:
433,133,58535,1,2,0:0:0:0:
433,133,58702,1,2,0:0:0:0:
201,358,58870,5,12,0:0:0:0:
250,97,59037,1,2,0:0:0:0:
250,97,59121,1,2,0:0:0:0:
250,97,59205,5,8,0:0:0:0:
493,253,59373,1,8,0:0:0:0:
34,222,59540,1,8,0:0:0:0:
34,222,59875,6,0,L|152:222,1,90,0|2,0:0|0:0,0:0:0:0:
92,297,60127,1,2,0:0:0:0:
92,297,60211,6,0,P|42:211|116:140,1,216,8|0,0:0|0:0,0:0:0:0:
218,235,60546,6,0,P|226:170|210:114,1,107.999996704102,6|0,0:0|0:0,0:0:0:0:
109,373,60881,2,0,P|174:380|230:364,1,107.999996704102,8|0,0:0|0:0,0:0:0:0:
447,249,61216,1,2,0:0:0:0:
218,235,61384,1,2,0:0:0:0:
444,355,61551,2,0,P|454:302|447:249,1,107.999996704102,8|0,0:0|0:0,0:0:0:0:
219,23,61887,6,0,P|208:75|216:128,1,107.999996704102,6|0,0:0|0:0,0:0:0:0:
353,298,62222,2,0,P|262:249|171:299,1,215.999993408203,8|2,0:0|0:0,0:0:0:0:
263,359,62725,1,2,0:0:0:0:
217,129,62892,2,0,P|164:118|111:126,1,107.999996704102,8|0,0:0|0:0,0:0:0:0:
353,298,63227,6,0,P|356:214|339:171,1,107.999996704102,6|0,0:0|0:0,0:0:0:0:
41,242,63563,2,0,P|38:326|55:369,1,107.999996704102,8|0,0:0|0:0,0:0:0:0:
217,129,63898,1,6,0:0:0:0:
171,299,64065,1,2,0:0:0:0:
123,50,64233,1,8,0:0:0:0:
259,245,64400,1,0,0:0:0:0:
259,245,64484,1,0,0:0:0:0:
259,245,64568,6,0,P|164:200|56:262,1,215.999993408203,6|8,0:0|0:0,0:0:0:0:
53,351,65071,1,2,0:0:0:0:
44,144,65238,1,2,0:0:0:0:
259,245,65406,1,8,0:0:0:0:
267,277,65490,1,8,0:0:0:0:
271,311,65574,1,8,0:0:0:0:
269,344,65657,1,8,0:3:0:0:
262,377,65741,2,0,P|219:366|206:353,1,53.9999983520508,4|4,0:3|0:3,0:0:0:0:
143,101,65909,6,0,P|240:58|365:104,2,215.999993408203,6|8|2,0:0|0:0|0:0,0:0:0:0:
131,208,66747,1,2,0:0:0:0:
342,85,66914,2,0,L|353:205,1,107.999996704102,8|0,0:0|0:0,0:0:0:0:
118,315,67250,6,0,P|158:278|210:267,1,107.999996704102,6|0,0:0|0:0,0:0:0:0:
426,372,67585,2,0,P|374:356|339:316,1,107.999996704102,8|0,0:0|0:0,0:0:0:0:
342,85,67920,1,2,0:0:0:0:
430,269,68088,1,2,0:0:0:0:
190,160,68255,2,0,P|181:100|190:42,1,107.999996704102,8|0,0:0|0:0,0:0:0:0:
476,120,68590,6,0,P|435:155|386:177,1,107.999996704102,6|0,0:0|0:0,0:0:0:0:
187,53,68926,2,0,P|237:71|280:103,1,107.999996704102,8|0,0:0|0:0,0:0:0:0:
203,358,69261,1,6,0:0:0:0:
430,269,69428,1,2,0:0:0:0:
99,216,69596,2,0,P|83:293|105:353,1,107.999996704102,8|0,0:0|0:0,0:0:0:0:
285,211,69931,5,6,0:0:0:0:
97,110,70099,1,2,0:0:0:0:
203,358,70266,1,8,0:0:0:0:
386,177,70434,1,2,0:0:0:0:
99,216,70602,5,8,0:0:0:0:
125,246,70685,1,8,0:0:0:0:
158,269,70769,1,2,0:0:0:0:
196,283,70853,1,2,0:0:0:0:
237,287,70937,6,0,P|263:282|286:268,1,53.9999983520508,8|0,0:0|0:0,0:0:0:0:
325,156,71104,2,0,P|320:130|307:107,1,53.9999983520508,4|4,0:3|0:3,0:0:0:0:
194,67,71272,6,0,L|196:282,2,215.999993408203,6|8|2,0:0|0:0|0:0,0:0:0:0:
307,107,72110,1,2,0:0:0:0:
106,198,72278,2,0,P|92:146|98:93,1,107.999996704102,8|0,0:0|0:0,0:0:0:0:
384,188,72613,6,0,P|398:239|392:293,1,107.999996704102,6|0,0:0|0:0,0:0:0:0:
113,303,72948,2,0,P|99:251|106:198,1,107.999996704102,8|0,0:0|0:0,0:0:0:0:
307,107,73283,1,2,0:0:0:0:
219,295,73451,1,2,0:0:0:0:
414,79,73618,2,0,P|389:32|345:2,1,107.999996704102,8|0,0:0|0:0,0:0:0:0:
106,199,73954,6,0,P|159:200|207:177,1,107.999996704102,6|0,0:0|0:0,0:0:0:0:
512,287,74289,2,0,P|458:285|410:308,1,107.999996704102,8|0,0:0|0:0,0:0:0:0:
195,55,74624,1,6,0:0:0:0:
414,79,74792,1,2,0:0:0:0:
106,199,74959,1,8,0:0:0:0:
311,189,75127,1,0,0:0:0:0:
311,189,75211,1,0,0:0:0:0:
311,189,75294,6,0,P|207:165|105:199,1,215.999993408203,6|8,0:0|0:0,0:0:0:0:
23,113,75797,1,2,0:0:0:0:
168,343,75965,1,6,0:0:0:0:
296,102,76132,1,8,0:0:0:0:
296,102,76216,1,8,0:0:0:0:
296,102,76300,1,8,0:0:0:0:
492,260,76468,1,8,0:3:0:0:
492,260,76551,1,4,0:3:0:0:
492,259,76635,6,0,P|440:274|387:265,1,107.999996704102,6|0,0:0|0:0,0:0:0:0:
296,102,76970,2,0,P|347:87|400:96,1,107.999996704102,8|0,0:0|0:0,0:0:0:0:
492,260,77306,1,2,0:0:0:0:
296,102,77473,1,2,0:0:0:0:
256,350,77641,2,0,P|309:361|360:343,1,107.999996704102,8|0,0:0|0:0,0:0:0:0:
114,124,77976,6,0,L|111:231,1,107.999996704102,6|0,0:0|0:0,0:0:0:0:
398,260,78311,2,0,L|400:152,1,107.999996704102,8|0,0:0|0:0,0:0:0:0:
216,282,78646,1,2,0:0:0:0:
319,71,78814,1,2,0:0:0:0:
360,343,78982,1,8,0:0:0:0:
400,152,79149,1,8,0:3:0:0:
400,152,79233,1,8,0:3:0:0:
400,152,79317,5,6,0:0:0:0:
111,231,79484,1,2,0:0:0:0:
451,334,79652,5,8,0:0:0:0:
207,166,79819,1,2,0:0:0:0:
481,70,79987,5,8,0:0:0:0:
483,117,80071,1,8,0:0:0:0:
485,164,80155,1,8,0:0:0:0:
487,211,80238,1,8,0:0:0:0:
489,258,80322,1,8,0:0:0:0:
302,100,80490,1,2,0:0:0:0:
302,100,80574,1,2,0:0:0:0:
302,100,80657,5,8,0:3:0:0:
493,352,80825,1,4,0:3:0:0:
111,231,80993,1,4,0:3:0:0:
111,231,81076,1,0,0:0:0:0:
111,231,81160,2,0,P|213:217|270:302,1,215.999993408203,2|2,0:0|0:0,0:0:0:0:
174,307,81579,1,2,0:0:0:0:
174,307,81663,6,0,B|127:192|191:118|191:118|268:167,1,270,8|0,0:0|0:0,0:0:0:0:
350,240,81998,5,6,0:0:0:0:
354,44,82166,1,0,0:0:0:0:
270,302,82333,5,8,0:0:0:0:
485,164,82501,1,2,0:0:0:0:
192,118,82669,5,8,0:0:0:0:
417,290,82836,1,2,0:0:0:0:
64,240,83004,5,8,0:0:0:0:
338,140,83171,1,2,0:0:0:0:
338,140,83255,1,0,0:0:0:0:
338,140,83339,5,12,0:0:0:0:
186,368,83507,1,2,0:0:0:0:
271,87,83674,5,8,0:0:0:0:
313,363,83842,1,2,0:0:0:0:
91,162,84009,5,8,0:0:0:0:
417,290,84177,1,2,0:0:0:0:
37,318,84345,5,8,0:0:0:0:
405,193,84512,1,2,0:0:0:0:
91,55,84680,6,0,P|84:108|91:162,1,107.999996704102,6|2,0:0|0:0,0:0:0:0:
495,230,85015,2,0,P|502:177|495:124,1,107.999996704102,8|2,0:0|0:0,0:0:0:0:
186,368,85350,2,0,P|239:376|293:369,1,107.999996704102,12|2,0:0|0:0,0:0:0:0:
356,98,85685,1,8,0:0:0:0:
203,209,85853,1,4,0:3:0:0:
203,209,85937,1,4,0:3:0:0:
203,209,86021,5,6,0:0:0:0:
495,124,86188,1,8,0:0:0:0:
203,33,86356,1,8,0:0:0:0:
297,339,86523,1,6,0:0:0:0:
308,350,86859,5,8,0:3:0:0:
308,350,86942,1,4,0:3:0:0:
308,350,87026,2,0,P|318:325|319:298,1,53.9999983520508,4|4,0:3|0:3,0:0:0:0:
213,261,87194,2,0,P|204:235|203:209,1,53.9999983520508,4|4,0:3|0:3,0:0:0:0:
356,98,87361,5,6,0:0:0:0:
117,171,87529,1,2,0:0:0:0:
398,255,87697,5,8,0:0:0:0:
88,300,87864,1,2,0:0:0:0:
455,155,88032,5,8,0:0:0:0:
65,227,88199,1,2,0:0:0:0:
435,379,88367,5,8,0:0:0:0:
140,244,88535,1,2,0:0:0:0:
476,234,88702,5,12,0:0:0:0:
163,317,88870,1,2,0:0:0:0:
435,77,89037,5,8,0:0:0:0:
293,376,89205,1,2,0:0:0:0:
278,34,89373,5,8,0:0:0:0:
476,234,89540,1,2,0:0:0:0:
476,234,89624,1,2,0:0:0:0:
476,234,89708,6,0,P|426:243|406:241,1,53.9999983520508,8|8,0:0|0:0,0:0:0:0:
117,171,89875,1,2,0:0:0:0:
455,155,90043,5,6,0:0:0:0:
88,300,90211,1,2,0:0:0:0:
497,313,90378,1,8,0:0:0:0:
117,171,90546,1,8,0:0:0:0:
117,171,90630,1,8,0:0:0:0:
117,171,90713,6,0,P|178:163|196:169,1,53.9999983520508,6|2,0:0|0:0,0:0:0:0:
375,176,90881,2,0,P|349:184|323:185,1,53.9999983520508,2|2,0:0|0:0,0:0:0:0:
165,41,91049,1,2,0:0:0:0:
347,343,91216,5,6,0:0:0:0:
256,192,91300,12,0,95406,0:0:0:0:
