osu file format v14

[General]
AudioFilename: my mai tonight.mp3
AudioLeadIn: 0
PreviewTime: 59791
Countdown: 0
SampleSet: Soft
StackLeniency: 0.5
Mode: 0
LetterboxInBreaks: 0
WidescreenStoryboard: 0

[Editor]
Bookmarks: 6578,19484,31048,41774,47137,52500,60545
DistanceSpacing: 0.5
BeatDivisor: 4
GridSize: 32
TimelineZoom: 3.099999

[Metadata]
Title:MY Mai*TONIGHT
TitleUnicode:MY舞☆TONIGHT
Artist:Aqours
ArtistUnicode:Aqours
Creator:lit120
Version:Karia's Extra
Source:ラブライブ!サンシャイン!!
Tags:love live sunshine school idol project festival season two 2 insert song tv size inami anju 伊波杏樹 takami chika 高海千歌 aida rikako 逢田梨香子 sakurauchi riko 桜内梨子 suwa nanaka 諏訪ななか matsuura kanan 松浦果南 komiya arisa 小宮有紗 kurosawa dia 黒澤ダイヤ saito shuka 斉藤朱夏 watanabe you 渡辺曜 kobayashi aika 小林愛香 tsushima yoshiko 津島善子 yohane ヨハネ takatsuki kanako 高槻かなこ kunikida hanamaru 国木田花丸 suzuki aina 鈴木愛奈 ohara mari 小原鞠莉 furihata ai 降幡愛 kurosawa ruby 黒澤ルビィ -Hakurei- Lasse Delis Karia [c_u_r_i] curi c_u_r_i Regraz sahuang ak74 Crystal
BeatmapID:1452625
BeatmapSetID:684769

[Difficulty]
HPDrainRate:7
CircleSize:4
OverallDifficulty:8.8
ApproachRate:9.2
SliderMultiplier:1.8
SliderTickRate:1

[Events]
//Background and Video events
0,0,"ruby dia.jpg",0,0
//Break Periods
//Storyboard Layer 0 (Background)
//Storyboard Layer 1 (Fail)
//Storyboard Layer 2 (Pass)
//Storyboard Layer 3 (Foreground)
//Storyboard Sound Samples

[TimingPoints]
92,810.810810810811,4,2,4,40,1,0
6578,-133.333333333333,4,2,4,40,0,0
8200,-133.333333333333,4,2,4,30,0,0
8605,-133.333333333333,4,2,4,15,0,0
9010,-133.333333333333,4,2,4,30,0,0
9416,-133.333333333333,4,2,4,15,0,0
9821,-133.333333333333,4,2,4,30,0,0
14686,-117.647058823529,4,2,4,40,0,0
15396,-117.647058823529,4,2,4,5,0,0
15497,857.142857142857,4,2,4,40,1,0
15497,-153.846153846154,4,2,4,40,0,0
16247,-153.846153846154,4,2,4,5,0,0
16354,571.428571428571,4,2,4,40,1,0
16925,685.714285714286,4,2,1,40,1,0
18982,335.195530726257,4,2,1,5,1,0
19484,-100,4,2,4,60,0,0
19987,-83.3333333333333,4,2,4,60,0,0
20322,-71.4285714285714,4,2,4,80,0,0
20573,-71.4285714285714,4,2,4,5,0,0
20657,-100,4,2,4,80,0,0
21914,-100,4,2,4,5,0,0
21997,-100,4,2,4,80,0,0
25685,-71.4285714285714,4,2,4,80,0,0
25936,-71.4285714285714,4,2,4,5,0,0
26020,-100,4,2,4,80,0,0
30377,-100,4,2,0,60,0,0
30713,-83.3333333333333,4,2,4,60,0,0
30964,-83.3333333333333,4,2,4,5,0,0
31048,-133.333333333333,4,2,4,50,0,0
35908,-200,4,2,4,50,0,0
36327,-200,4,2,4,5,0,0
36411,-133.333333333333,4,2,4,50,0,0
37752,-100,4,2,4,50,0,0
38003,-100,4,2,4,5,0,0
38087,-100,4,2,4,40,0,0
38422,-100,4,2,4,45,0,0
38757,-100,4,2,4,50,0,0
39092,-100,4,2,4,55,0,0
39176,-100,4,2,4,5,0,0
40768,-100,4,2,4,60,0,0
40852,-100,4,2,4,5,0,0
40936,-133.333333333333,4,2,4,60,0,0
41774,-100,4,2,4,60,0,0
43366,-100,4,2,4,5,0,0
43450,-100,4,2,4,60,0,0
44372,-100,4,2,4,5,0,0
44456,-100,4,2,4,60,0,0
45796,-100,4,2,4,60,0,0
46467,-62.5,4,2,4,60,0,0
46690,-83.3333333333333,4,2,4,60,0,0
46914,-125,4,2,4,60,0,0
47137,-133.333333333333,4,2,4,50,0,0
52165,-83.3333333333333,4,2,4,50,0,0
52416,-83.3333333333333,4,2,4,5,0,0
52500,-100,4,2,4,40,0,0
52835,-100,4,2,4,43,0,0
53003,-100,4,2,4,46,0,0
53171,-100,4,2,4,49,0,0
53506,-100,4,2,4,52,0,0
53673,-100,4,2,4,55,0,0
53841,-100,4,2,4,58,0,0
54176,-100,4,2,4,61,0,0
54344,-100,4,2,4,64,0,0
54512,-100,4,2,4,67,0,0
54847,-100,4,2,4,70,0,0
55014,-100,4,2,4,73,0,0
55182,-100,4,2,4,50,0,0
55517,-100,4,2,4,55,0,0
55852,-100,4,2,4,60,0,0
56187,-100,4,2,4,65,0,0
56523,-100,4,2,4,70,0,0
56858,-100,4,2,4,75,0,0
57109,-100,4,2,4,5,0,0
57193,-100,4,2,4,75,0,0
57444,-100,4,2,4,5,0,0
57528,-100,4,2,4,75,0,0
57780,-100,4,2,4,5,0,0
57863,-100,4,2,4,75,0,0
59204,-100,4,2,4,80,0,0
59875,-133.333333333333,4,2,4,70,0,0
60210,-83.3333333333333,4,2,4,70,0,0
60546,-90.9090909090909,4,2,4,80,0,1
60796,-90.9090909090909,4,2,4,5,0,1
60880,-90.9090909090909,4,2,4,80,0,1
62137,-90.9090909090909,4,2,4,5,0,1
62221,-90.9090909090909,4,2,4,80,0,1
63478,-90.9090909090909,4,2,4,5,0,1
63562,-125,4,2,4,80,0,1
63813,-125,4,2,4,5,0,1
63897,-83.3333333333333,4,2,4,80,0,1
64148,-83.3333333333333,4,2,4,5,0,1
64232,-111.111111111111,4,2,4,80,0,1
64484,-111.111111111111,4,2,4,5,0,1
64567,-76.9230769230769,4,2,4,80,0,1
64819,-76.9230769230769,4,2,4,5,0,1
64903,-90.9090909090909,4,2,4,80,0,1
66159,-90.9090909090909,4,2,4,5,0,1
66243,-90.9090909090909,4,2,4,80,0,1
68841,-90.9090909090909,4,2,4,5,0,1
68925,-90.9090909090909,4,2,4,80,0,1
69260,-83.3333333333333,4,2,4,80,0,1
69511,-83.3333333333333,4,2,4,5,0,1
69595,-90.9090909090909,4,2,4,80,0,1
70936,-83.3333333333333,4,2,4,80,0,1
71188,-90.9090909090909,4,2,4,5,0,0
71272,-90.9090909090909,4,2,4,80,0,1
71523,-90.9090909090909,4,2,4,5,0,1
71606,-90.9090909090909,4,2,4,80,0,1
72863,-90.9090909090909,4,2,4,5,0,1
72947,-90.9090909090909,4,2,4,80,0,1
74204,-90.9090909090909,4,2,4,5,0,1
74288,-90.9090909090909,4,2,4,80,0,1
76886,-90.9090909090909,4,2,4,5,0,1
76970,-90.9090909090909,4,2,4,80,0,1
81662,-66.6666666666667,4,2,4,80,0,1
81914,-90.9090909090909,4,2,4,5,0,0
81998,-90.9090909090909,4,2,4,80,0,1
87025,-66.6666666666667,4,2,4,80,0,1
87278,-90.9090909090909,4,2,4,5,0,0
87361,-90.9090909090909,4,2,4,80,0,1
91216,-100,4,2,0,70,0,0
92724,-100,4,2,4,30,0,0
95405,-100,4,2,4,10,0,0

[Colours]
Combo1 : 160,170,220
Combo2 : 105,220,160
Combo3 : 130,200,250
Combo4 : 255,128,192

[HitObjects]
65,71,6578,6,0,L|71:168,1,67.5000025749207,4|0,0:0|0:0,0:0:0:0:
47,286,7389,2,0,L|41:189,1,67.5000025749207
164,101,8200,6,0,L|170:198,1,67.5000025749207
163,256,9010,2,0,L|157:159,1,67.5000025749207
274,176,9821,5,2,0:0:0:0:
291,165,10632,5,2,0:0:0:0:
330,162,11443,6,0,P|297:150|245:156,1,67.5000025749208,2|0,0:0|0:0,0:0:0:0:
195,201,12254,1,0,0:0:0:0:
264,150,12659,1,0,0:0:0:0:
338,195,13064,6,0,P|371:183|423:189,1,67.5000025749208,4|0,0:0|0:0,0:0:0:0:
455,274,13875,2,0,P|422:262|370:268,1,67.5000025749208
310,327,14686,6,0,P|257:359|187:331,1,133.875002553463
205,334,15497,6,0,P|246:346|305:314,1,102.374995313645,4|0,0:3|0:0,0:0:0:0:
245,271,16354,5,4,0:0:0:0:
256,192,16496,12,0,19317,0:0:0:0:
155,113,19484,5,2,0:3:0:0:
158,121,19568,1,2,0:3:0:0:
161,129,19652,2,0,L|226:135,1,45,8|8,0:0|0:0,0:0:0:0:
342,200,19819,2,0,L|277:194,1,45,8|8,0:0|0:0,0:0:0:0:
133,236,19987,6,0,L|204:226,1,53.9999983520508,8|8,0:0|0:0,0:0:0:0:
366,82,20155,2,0,L|312:89,1,53.9999983520508,8|8,0:0|0:0,0:0:0:0:
71,46,20322,6,0,B|35:51|3:23|3:23|40:83|28:154,1,188.999994232178,4|0,0:0|0:0,0:0:0:0:
40,148,20657,2,0,P|23:193|37:250,1,90,8|0,0:0|0:0,0:0:0:0:
33,241,20909,1,0,0:0:0:0:
39,247,20993,1,2,0:3:0:0:
226,185,21160,1,2,0:3:0:0:
140,371,21328,2,0,L|127:266,1,90,8|0,0:0|0:0,0:0:0:0:
307,192,21663,6,0,P|345:258|304:317,1,135,2|0,0:3|0:0,0:0:0:0:
316,322,21998,2,0,P|361:306|417:327,1,90,8|0,0:0|0:0,0:0:0:0:
407,323,22250,1,0,0:0:0:0:
412,330,22333,1,2,0:3:0:0:
292,185,22501,1,2,0:3:0:0:
442,56,22669,2,0,L|430:159,1,90,8|0,0:0|0:0,0:0:0:0:
239,67,23004,6,0,P|281:52|335:67,1,90,2|0,0:3|0:0,0:0:0:0:
339,250,23339,2,0,P|297:265|243:250,1,90,8|0,0:0|0:0,0:0:0:0:
122,147,23674,2,0,P|164:132|218:147,1,90,2|2,0:3|0:3,0:0:0:0:
100,253,24009,2,0,P|58:268|4:253,1,90,8|0,0:0|0:0,0:0:0:0:
0,168,24345,5,2,0:3:0:0:
0,168,24512,1,2,0:3:0:0:
127,361,24680,1,8,0:0:0:0:
292,198,24847,5,2,0:3:0:0:
288,228,24931,1,2,0:3:0:0:
284,259,25015,1,2,0:3:0:0:
157,50,25183,5,8,0:0:0:0:
162,94,25266,1,8,0:0:0:0:
167,138,25350,1,8,0:0:0:0:
172,182,25434,1,8,0:0:0:0:
177,226,25518,1,8,0:0:0:0:
424,118,25685,6,0,B|378:114|347:68|347:68|310:103|249:95,1,188.999994232178,4|0,0:0|0:0,0:0:0:0:
246,107,26021,2,0,P|203:88|154:97,1,90,8|0,0:0|0:0,0:0:0:0:
156,100,26272,1,0,0:0:0:0:
152,108,26356,1,2,0:3:0:0:
85,305,26523,1,2,0:3:0:0:
20,101,26691,2,0,L|7:206,1,90,8|0,0:0|0:0,0:0:0:0:
246,107,27026,6,0,L|259:216,1,90,4|0,0:1|0:0,0:0:0:0:
163,21,27361,1,8,0:0:0:0:
340,110,27529,1,2,0:3:0:0:
150,192,27697,1,8,0:0:0:0:
348,106,27864,1,8,0:0:0:0:
342,150,27948,1,8,0:0:0:0:
337,195,28032,1,8,0:0:0:0:
331,240,28116,1,8,0:0:0:0:
325,285,28199,1,8,0:0:0:0:
246,107,28367,5,2,0:3:0:0:
411,226,28535,1,2,0:3:0:0:
156,269,28702,5,8,0:0:0:0:
371,137,28870,1,2,0:3:0:0:
96,85,29037,5,8,0:0:0:0:
200,333,29205,1,2,0:3:0:0:
230,293,29289,1,2,0:3:0:0:
229,243,29373,2,0,L|226:195,1,45,8|0,0:0|0:0,0:0:0:0:
194,130,29540,2,0,L|197:178,1,45
278,357,29708,5,8,0:0:0:0:
102,214,29875,1,2,0:3:0:0:
79,258,29959,1,2,0:3:0:0:
89,307,30043,1,8,0:0:0:0:
331,240,30211,1,2,0:3:0:0:
182,70,30378,2,0,L|177:106,6,22.5
227,150,30713,6,0,P|294:104|374:153,1,161.999995056153,2|0,0:3|0:0,0:0:0:0:
412,210,31049,6,0,L|405:300,1,67.5000025749208,4|0,0:0|0:0,0:0:0:0:
387,356,31384,2,0,L|394:266,1,67.5000025749208
326,215,31719,6,0,P|291:207|258:218,1,67.5000025749208
183,237,32054,2,0,P|217:244|250:233,1,67.5000025749208
338,124,32389,6,0,L|345:34,1,67.5000025749208,2|0,0:3|0:0,0:0:0:0:
266,30,32725,2,0,L|259:120,1,67.5000025749208
180,107,33060,2,0,L|185:39,1,67.5000025749208
109,14,33395,5,0,0:0:0:0:
180,107,33563,1,2,0:3:0:0:
22,165,33730,6,0,L|103:173,1,67.5000025749208
169,192,34065,2,0,L|88:184,1,67.5000025749208
29,250,34400,6,0,P|21:285|32:318,1,67.5000025749208
107,345,34736,2,0,P|115:310|104:277,1,67.5000025749208
101,185,35071,6,0,L|246:172,1,135.000005149842
277,245,35574,2,0,L|356:251,1,67.5000025749208
429,150,35909,6,0,B|348:156|348:156|376:177,1,112.5,2|0,0:3|0:0,0:0:0:0:
379,178,36412,1,4,0:1:0:0:
461,334,36747,6,0,L|468:247,1,67.5000025749208
382,345,37082,2,0,L|389:258,1,67.5000025749208
303,356,37417,2,0,L|310:269,1,67.5000025749208
259,219,37669,5,0,0:0:0:0:
251,213,37752,2,0,L|100:230,1,135
109,223,38088,5,8,0:0:0:0:
259,219,38255,1,8,0:0:0:0:
89,118,38423,5,8,0:0:0:0:
267,225,38590,1,8,0:0:0:0:
40,318,38758,5,8,0:0:0:0:
275,231,38926,1,8,0:0:0:0:
7,44,39093,6,0,L|2:98,1,45,8|0,0:0|0:0,0:0:0:0:
452,268,40769,6,0,L|448:313,1,45,8|0,0:0|0:0,0:0:0:0:
367,379,40937,2,0,L|353:241,1,135.000005149842,2|8,0:3|0:0,0:0:0:0:
353,239,41356,1,8,0:0:0:0:
352,233,41440,1,8,0:0:0:0:
443,126,41607,1,2,0:3:0:0:
445,119,41691,1,2,0:3:0:0:
447,111,41775,6,0,P|386:57|295:94,1,180,4|8,0:0|0:0,0:0:0:0:
251,268,42278,1,0,0:0:0:0:
300,86,42445,2,0,L|314:188,1,90,2|2,0:3|0:3,0:0:0:0:
367,20,42780,1,8,0:0:0:0:
220,137,42948,1,0,0:0:0:0:
45,26,43116,6,0,B|53:71|53:71|36:109|36:109|51:182,1,135,2|0,0:3|0:0,0:0:0:0:
68,234,43451,1,8,0:0:0:0:
220,137,43618,2,0,P|177:116|123:131,1,90,2|0,0:3|0:0,0:0:0:0:
263,262,43954,1,2,0:3:0:0:
271,260,44037,1,2,0:3:0:0:
279,259,44121,2,0,P|361:249|423:243,1,135,8|0,0:0|0:0,0:0:0:0:
472,186,44456,5,4,0:1:0:0:
454,319,44624,1,2,0:3:0:0:
324,132,44792,5,8,0:0:0:0:
352,354,44959,1,2,0:3:0:0:
103,285,45127,5,8,0:0:0:0:
147,278,45211,1,8,0:0:0:0:
191,272,45294,1,8,0:0:0:0:
235,266,45378,1,8,0:0:0:0:
279,259,45462,1,8,0:0:0:0:
323,253,45546,1,8,0:0:0:0:
367,247,45630,1,8,0:0:0:0:
102,80,45797,5,4,0:1:0:0:
102,80,45965,1,2,0:3:0:0:
191,272,46132,1,8,0:0:0:0:
268,22,46300,1,2,0:0:0:0:
477,178,46468,6,0,L|365:166,1,96,2|2,0:3|0:3,0:0:0:0:
254,217,46691,6,0,L|330:225,1,71.9999978027344,2|2,0:3|0:3,0:0:0:0:
432,288,46914,6,0,L|384:282,1,48
318,324,47138,5,4,0:0:0:0:
113,268,47473,6,0,L|108:201,1,67.5000025749208,0|2,0:0|0:3,0:0:0:0:
95,66,47808,2,0,L|108:201,1,135.000005149842,8|0,0:0|0:0,0:0:0:0:
191,272,48311,1,2,0:3:0:0:
234,156,48479,5,2,0:0:0:0:
367,173,48646,2,0,L|234:156,1,135.000005149842,8|0,0:0|0:0,0:0:0:0:
414,78,49149,5,8,0:0:0:0:
438,149,49317,1,2,0:3:0:0:
367,173,49484,1,2,0:3:0:0:
343,102,49652,1,2,0:3:0:0:
419,68,49819,5,2,0:0:0:0:
447,153,49987,1,2,0:0:0:0:
362,181,50155,1,2,0:0:0:0:
332,96,50322,1,2,0:0:0:0:
501,89,50490,5,2,0:3:0:0:
425,240,50657,2,0,P|458:235|492:231,1,67.5000025749208,8|0,0:0|0:0,0:0:0:0:
271,167,50993,5,2,0:3:0:0:
267,172,51076,1,2,0:3:0:0:
263,177,51160,1,2,0:3:0:0:
306,367,51328,1,8,0:0:0:0:
106,309,51495,5,8,0:0:0:0:
415,247,51663,1,4,0:0:0:0:
415,247,51998,5,0,0:0:0:0:
420,243,52082,1,0,0:0:0:0:
425,240,52166,2,0,B|438:127|438:127|383:178,1,161.999995056153,8|0,0:0|0:0,0:0:0:0:
339,212,52501,5,8,0:0:0:0:
339,212,52669,1,8,0:0:0:0:
169,96,52836,5,8,0:0:0:0:
221,296,53004,1,8,0:0:0:0:
299,113,53171,5,8,0:0:0:0:
299,113,53339,1,8,0:0:0:0:
86,210,53507,5,8,0:0:0:0:
304,295,53674,1,8,0:0:0:0:
236,40,53842,5,8,0:0:0:0:
236,40,54009,1,8,0:0:0:0:
134,283,54177,5,8,0:0:0:0:
379,184,54345,1,8,0:0:0:0:
109,84,54512,5,8,0:0:0:0:
109,84,54680,1,8,0:0:0:0:
214,353,54847,5,8,0:0:0:0:
324,86,55015,1,8,0:0:0:0:
25,184,55183,5,8,0:0:0:0:
174,239,55350,1,0,0:0:0:0:
25,184,55518,5,8,0:0:0:0:
216,130,55685,1,0,0:0:0:0:
25,184,55853,5,8,0:0:0:0:
221,311,56021,1,0,0:0:0:0:
25,184,56188,5,8,0:0:0:0:
263,54,56356,1,0,0:0:0:0:
25,184,56523,5,8,0:0:0:0:
314,275,56691,1,0,0:0:0:0:
108,34,56859,5,8,0:0:0:0:
107,42,56942,1,0,0:0:0:0:
106,50,57026,2,0,L|99:122,1,45
202,337,57194,5,8,0:0:0:0:
203,328,57278,1,0,0:0:0:0:
204,319,57361,2,0,L|211:247,1,45
355,47,57529,5,8,0:0:0:0:
354,55,57613,1,0,0:0:0:0:
353,64,57697,2,0,L|346:136,1,45
458,348,57864,5,8,0:0:0:0:
222,201,58032,1,2,0:3:0:0:
222,201,58199,1,2,0:3:0:0:
458,51,58367,5,8,0:0:0:0:
222,201,58535,1,2,0:3:0:0:
222,201,58702,1,2,0:3:0:0:
509,269,58870,5,8,0:0:0:0:
222,201,59037,1,2,0:3:0:0:
507,124,59205,5,8,0:0:0:0:
100,199,59373,1,8,0:0:0:0:
509,269,59540,1,8,0:0:0:0:
425,163,59875,6,0,L|416:250,1,67.5000025749208,0|2,0:0|0:3,0:0:0:0:
350,290,60127,1,2,0:3:0:0:
341,302,60211,6,0,L|323:127,1,161.999995056153,8|0,0:0|0:0,0:0:0:0:
231,57,60546,6,0,P|169:21|97:68,1,148.50000453186,4|0,0:1|0:0,0:0:0:0:
134,175,60881,2,0,P|183:186|224:154,1,99.0000030212403,8|0,0:0|0:0,0:0:0:0:
20,95,61216,1,2,0:3:0:0:
51,299,61384,1,2,0:3:0:0:
228,155,61551,2,0,P|219:207|211:254,1,99.0000030212403,8|0,0:0|0:0,0:0:0:0:
445,334,61887,6,0,P|374:340|289:351,1,148.50000453186,2|0,0:3|0:0,0:0:0:0:
323,228,62222,2,0,P|375:236|422:244,1,99.0000030212403,8|0,0:0|0:0,0:0:0:0:
427,246,62473,1,0,0:0:0:0:
433,248,62557,1,2,0:3:0:0:
296,96,62725,1,2,0:3:0:0:
189,295,62892,2,0,P|181:243|173:196,1,99.0000030212403,8|0,0:0|0:0,0:0:0:0:
30,102,63227,6,0,P|19:47|63:84,1,148.50000453186,8|0,0:1|0:0,0:0:0:0:
29,114,63563,6,0,L|167:104,1,108
285,173,63898,6,0,P|302:114|257:155,1,161.999995056153,8|0,0:1|0:0,0:0:0:0:
293,186,64233,6,0,L|150:175,1,121.499996292114
30,285,64568,6,0,P|15:222|58:271,1,175.499991966248,8|0,0:1|0:0,0:0:0:0:
29,297,64903,5,0,0:0:0:0:
136,106,65071,1,2,0:3:0:0:
185,345,65238,1,8,0:0:0:0:
427,230,65406,5,8,0:0:0:0:
391,195,65490,1,8,0:0:0:0:
343,179,65574,1,8,0:0:0:0:
293,186,65657,1,8,0:0:0:0:
255,217,65741,2,0,L|249:278,1,49.5000015106202,8|2,0:0|0:3,0:0:0:0:
109,329,65909,6,0,P|102:263|92:170,1,148.50000453186,2|0,0:0|0:0,0:0:0:0:
191,79,66244,2,0,P|185:129|179:178,1,99.0000030212403,8|0,0:0|0:0,0:0:0:0:
15,80,66579,1,2,0:3:0:0:
179,178,66747,1,2,0:3:0:0:
0,281,66914,2,0,P|52:270|105:260,1,99.0000030212403,8|0,0:0|0:0,0:0:0:0:
299,138,67250,5,2,0:3:0:0:
94,171,67417,1,0,0:0:0:0:
293,230,67585,2,0,P|312:188|286:124,1,99.0000030212403,8|0,0:0|0:0,0:0:0:0:
187,246,67920,5,2,0:3:0:0:
394,285,68088,1,2,0:3:0:0:
194,338,68255,2,0,P|175:296|201:232,1,99.0000030212403,8|0,0:0|0:0,0:0:0:0:
430,363,68590,6,0,L|356:355|282:347,1,148.50000453186,4|0,0:1|0:0,0:0:0:0:
282,347,68926,1,8,0:0:0:0:
351,145,69093,1,0,0:0:0:0:
107,256,69261,6,0,P|168:248|280:235,1,161.999995056153,4|0,0:1|0:0,0:0:0:0:
267,236,69596,1,0,0:0:0:0:
177,24,69764,2,0,L|171:76,1,49.5000015106202,2|2,0:0|0:0,0:0:0:0:
109,119,69931,5,2,0:0:0:0:
112,139,70015,1,2,0:0:0:0:
115,159,70099,1,2,0:0:0:0:
117,179,70183,1,2,0:0:0:0:
189,211,70266,5,10,0:0:0:0:
186,231,70350,1,2,0:0:0:0:
183,251,70434,1,2,0:0:0:0:
181,271,70518,1,2,0:0:0:0:
114,314,70602,6,0,L|52:304,1,49.5000015106202,2|2,0:3|0:3,0:0:0:0:
224,362,70769,2,0,L|175:369,1,49.5000015106202,2|2,0:3|0:3,0:0:0:0:
314,288,70937,6,0,B|368:302|368:302|415:281|415:281|478:295,1,161.999995056153,8|0,0:0|0:0,0:0:0:0:
356,212,71272,6,0,B|320:164|349:108|349:108|376:127|376:155,1,148.50000453186,4|0,0:1|0:0,0:0:0:0:
463,84,71607,2,0,P|455:132|448:181,1,99.0000030212403,8|0,0:0|0:0,0:0:0:0:
245,238,71942,2,0,P|234:155|219:32,1,198.000006042481,2|8,0:3|0:0,0:0:0:0:
220,41,72445,1,0,0:0:0:0:
18,170,72613,6,0,P|59:130|146:164,1,148.50000453186,2|0,0:3|0:0,0:0:0:0:
26,259,72948,2,0,P|19:217|6:147,1,99.0000030212403,8|0,0:0|0:0,0:0:0:0:
175,288,73283,1,2,0:3:0:0:
232,88,73451,1,2,0:3:0:0:
175,288,73618,2,0,P|230:279|275:274,1,99.0000030212403,8|0,0:0|0:0,0:0:0:0:
492,214,73954,6,0,P|431:240|366:199,1,148.50000453186,4|0,0:1|0:0,0:0:0:0:
275,153,74289,2,0,P|282:209|288:259,1,99.0000030212403,8|0,0:0|0:0,0:0:0:0:
382,66,74624,1,2,0:3:0:0:
287,251,74792,1,2,0:3:0:0:
193,56,74959,2,0,P|148:33|91:56,1,99.0000030212403,8|0,0:0|0:0,0:0:0:0:
0,216,75294,6,0,P|50:209|110:203,1,99.0000030212403,2|0,0:3|0:0,0:0:0:0:
262,93,75630,1,8,0:0:0:0:
212,315,75797,1,2,0:3:0:0:
206,307,75881,1,2,0:3:0:0:
200,299,75965,1,8,0:0:0:0:
441,231,76132,1,8,0:0:0:0:
408,224,76216,1,8,0:0:0:0:
374,218,76300,2,0,L|366:158,1,49.5000015106202,2|2,0:3|0:3,0:0:0:0:
295,275,76468,2,0,L|287:325,1,49.5000015106202,2|2,0:3|0:3,0:0:0:0:
226,206,76635,6,0,P|152:195|58:180,1,148.50000453186,2|0,0:0|0:0,0:0:0:0:
29,43,76970,2,0,P|4:85|26:149,1,99.0000030212403,8|0,0:0|0:0,0:0:0:0:
126,308,77306,1,2,0:3:0:0:
207,116,77473,1,2,0:3:0:0:
0,212,77641,2,0,P|56:204|101:200,1,99.0000030212403,8|0,0:0|0:0,0:0:0:0:
311,310,77976,6,0,P|262:301|201:292,1,99.0000030212403,4|0,0:1|0:0,0:0:0:0:
118,85,78311,1,8,0:0:0:0:
213,293,78479,1,0,0:0:0:0:
360,82,78646,6,0,P|351:131|342:192,1,99.0000030212403,2|2,0:3|0:3,0:0:0:0:
108,284,78982,1,8,0:0:0:0:
343,179,79149,1,2,0:3:0:0:
341,187,79233,1,2,0:3:0:0:
339,195,79317,5,2,0:0:0:0:
101,130,79484,1,0,0:0:0:0:
397,58,79652,5,8,0:0:0:0:
163,204,79819,1,0,0:0:0:0:
445,322,79987,5,8,0:0:0:0:
473,274,80071,1,8,0:0:0:0:
448,224,80155,1,8,0:0:0:0:
476,177,80238,1,8,0:0:0:0:
451,127,80322,1,8,0:0:0:0:
331,320,80490,5,2,0:3:0:0:
328,330,80574,1,2,0:3:0:0:
325,339,80657,1,8,0:0:0:0:
228,80,80825,1,8,0:0:0:0:
41,295,80993,5,2,0:0:0:0:
105,257,81076,1,2,0:0:0:0:
177,273,81160,1,2,0:0:0:0:
37,315,81495,5,0,0:0:0:0:
31,308,81579,1,0,0:0:0:0:
27,300,81663,2,0,P|96:233|201:291,1,202.500007724762,8|0,0:0|0:0,0:0:0:0:
118,335,81998,5,8,0:0:0:0:
81,79,82166,1,2,0:3:0:0:
118,335,82333,5,8,0:0:0:0:
81,79,82501,1,2,0:3:0:0:
295,289,82669,5,8,0:0:0:0:
58,200,82836,1,2,0:3:0:0:
404,179,83004,5,8,0:0:0:0:
167,267,83171,1,2,0:3:0:0:
431,79,83339,5,8,0:0:0:0:
394,335,83507,1,2,0:3:0:0:
431,79,83674,5,8,0:0:0:0:
394,335,83842,1,2,0:3:0:0:
217,111,84009,5,8,0:0:0:0:
454,200,84177,1,2,0:3:0:0:
212,299,84345,5,8,0:0:0:0:
449,211,84512,1,2,0:3:0:0:
133,127,84680,6,0,P|139:172|146:233,1,99.0000030212403,8|0,0:0|0:0,0:0:0:0:
379,127,85015,2,0,P|373:172|366:233,1,99.0000030212403,8|0,0:0|0:0,0:0:0:0:
110,36,85350,6,0,P|117:84|122:134,1,99.0000030212403,8|0,0:0|0:0,0:0:0:0:
403,35,85685,2,0,P|396:84|390:134,1,99.0000030212403,8|2,0:0|0:3,0:0:0:0:
389,141,85937,1,2,0:3:0:0:
388,148,86021,5,2,0:3:0:0:
110,36,86188,1,8,0:0:0:0:
388,148,86356,1,8,0:0:0:0:
30,231,86523,1,4,0:1:0:0:
58,313,86859,5,2,0:3:0:0:
66,315,86942,1,2,0:3:0:0:
74,318,87026,2,0,P|134:243|67:143,1,202.500007724762,8|0,0:0|0:0,0:0:0:0:
30,231,87361,5,8,0:0:0:0:
280,283,87529,1,2,0:3:0:0:
120,57,87697,5,8,0:0:0:0:
163,311,87864,1,2,0:3:0:0:
388,148,88032,5,8,0:0:0:0:
136,211,88199,1,2,0:3:0:0:
474,288,88367,5,8,0:0:0:0:
214,260,88535,1,2,0:3:0:0:
425,42,88702,5,8,0:0:0:0:
382,298,88870,1,2,0:3:0:0:
306,29,89037,5,8,0:0:0:0:
491,206,89205,1,2,0:3:0:0:
214,260,89373,5,8,0:0:0:0:
427,116,89540,1,2,0:3:0:0:
160,34,89708,5,8,0:0:0:0:
166,64,89792,1,2,0:3:0:0:
170,93,89875,1,2,0:3:0:0:
291,362,90043,6,0,P|298:306|305:258,1,99.0000030212403,8|2,0:0|0:3,0:0:0:0:
367,32,90378,1,8,0:0:0:0:
102,188,90546,5,2,0:3:0:0:
143,217,90630,1,2,0:3:0:0:
191,226,90713,1,2,0:3:0:0:
237,206,90797,1,2,0:3:0:0:
273,172,90881,1,2,0:3:0:0:
323,167,90965,1,2,0:3:0:0:
365,192,91049,1,2,0:3:0:0:
70,274,91216,5,4,0:0:0:0:
256,192,91300,12,0,95406,0:0:0:0:
