osu file format v14

[General]
AudioFilename: my mai tonight.mp3
AudioLeadIn: 0
PreviewTime: 59791
Countdown: 0
SampleSet: Soft
StackLeniency: 0.4
Mode: 0
LetterboxInBreaks: 0
WidescreenStoryboard: 0

[Editor]
DistanceSpacing: 1
BeatDivisor: 2
GridSize: 32
TimelineZoom: 1.4

[Metadata]
Title:MY Mai*TONIGHT
TitleUnicode:MY舞☆TONIGHT
Artist:Aqours
ArtistUnicode:Aqours
Creator:lit120
Version:Easy
Source:ラブライブ!サンシャイン!!
Tags:love live sunshine school idol project festival season two 2 insert song tv size inami anju 伊波杏樹 takami chika 高海千歌 aida rikako 逢田梨香子 sakurauchi riko 桜内梨子 suwa nanaka 諏訪ななか matsuura kanan 松浦果南 komiya arisa 小宮有紗 kurosawa dia 黒澤ダイヤ saito shuka 斉藤朱夏 watanabe you 渡辺曜 kobayashi aika 小林愛香 tsushima yoshiko 津島善子 yohane ヨハネ takatsuki kanako 高槻かなこ kunikida hanamaru 国木田花丸 suzuki aina 鈴木愛奈 ohara mari 小原鞠莉 furihata ai 降幡愛 kurosawa ruby 黒澤ルビィ -Hakurei- Lasse Delis Karia [c_u_r_i] curi c_u_r_i Regraz sahuang ak74 Crystal
BeatmapID:1449204
BeatmapSetID:684769

[Difficulty]
HPDrainRate:3
CircleSize:3
OverallDifficulty:3
ApproachRate:3
SliderMultiplier:0.849999999999999
SliderTickRate:1

[Events]
//Background and Video events
0,0,"ruby dia.jpg",0,0
//Break Periods
//Storyboard Layer 0 (Background)
//Storyboard Layer 1 (Fail)
//Storyboard Layer 2 (Pass)
//Storyboard Layer 3 (Foreground)
//Storyboard Sound Samples

[TimingPoints]
92,810.810810810811,4,2,1,40,1,0
5767,-50,4,2,1,40,0,0
6578,-50,4,2,2,40,0,0
15497,857.142857142857,4,2,2,40,1,0
15497,-50,4,2,2,40,0,0
16354,571.428571428571,4,2,2,40,1,0
16925,685.714285714286,4,2,1,40,1,0
18982,335.195530726257,4,2,1,70,1,0
20322,-100,4,2,1,80,0,0
31048,-100,4,2,1,50,0,0
37752,-100,4,2,1,60,0,0
38087,-100,4,2,1,62,0,0
38422,-100,4,2,1,65,0,0
38757,-100,4,2,1,67,0,0
39092,-100,4,2,1,70,0,0
41774,-100,4,2,1,70,0,0
47137,-100,4,2,1,60,0,0
52500,-100,4,2,1,70,0,0
55517,-100,4,2,1,72,0,0
55852,-100,4,2,1,75,0,0
56187,-100,4,2,1,77,0,0
56523,-100,4,2,1,80,0,0
56858,-100,4,2,1,82,0,0
57193,-100,4,2,1,85,0,0
57528,-100,4,2,1,87,0,0
57863,-100,4,2,1,90,0,0
60546,-100,4,2,1,90,0,1
71188,-100,4,2,1,90,0,0
71272,-100,4,2,1,90,0,1
81914,-100,4,2,1,90,0,0
81998,-100,4,2,1,90,0,1
87278,-100,4,2,1,90,0,0
87361,-100,4,2,1,90,0,1
91216,-100,4,2,1,90,0,0
95406,-100,4,2,1,10,0,0

[Colours]
Combo1 : 235,56,60
Combo2 : 212,80,104
Combo3 : 95,86,113
Combo4 : 221,125,83

[HitObjects]
135,211,5767,6,0,P|143:169|134:128,1,84.9999999999999
63,171,6578,6,0,P|71:262|190:275,1,170,4|8,0:0|0:0,0:0:0:0:
216,272,7794,1,0,0:0:0:0:
276,214,8200,2,0,P|355:232|384:308,1,170,2|8,0:3|0:0,0:0:0:0:
331,377,9416,1,0,0:0:0:0:
298,297,9821,5,2,0:3:0:0:
433,194,10632,1,2,0:3:0:0:
376,33,11443,1,2,0:3:0:0:
206,38,12254,1,8,0:0:0:0:
156,200,13064,6,0,P|151:282|208:342,1,170,2|8,0:3|0:0,0:0:0:0:
256,271,14281,1,0,0:0:0:0:
303,342,14686,2,0,P|360:282|355:200,1,170,2|4,0:3|0:3,0:0:0:0:
256,192,16354,12,0,18296,0:0:0:0:
83,140,19652,6,0,L|85:236,1,84.9999999999999,8|8,0:0|0:0,0:0:0:0:
49,300,20322,6,0,P|113:251|189:279,1,170,6|2,0:0|0:0,0:0:0:0:
256,331,21327,1,8,0:0:0:0:
322,279,21662,2,0,P|398:251|462:300,1,170,2|2,0:0|0:0,0:0:0:0:
386,335,22668,1,8,0:0:0:0:
322,279,23003,6,0,P|315:238|320:195,1,84.9999999999999,2|8,0:0|0:0,0:0:0:0:
392,151,23673,2,0,P|396:108|389:67,1,84.9999999999999,2|8,0:0|0:0,0:0:0:0:
313,29,24344,2,0,P|226:73|139:42,1,170,2|2,0:0|0:0,0:0:0:0:
80,24,25349,1,8,0:0:0:0:
47,103,25685,6,0,L|54:288,1,170,6|2,0:0|0:0,0:0:0:0:
110,336,26690,1,8,0:0:0:0:
173,280,27025,2,0,P|214:269|256:273,1,84.9999999999999,6|8,0:0|0:0,0:0:0:0:
328,319,27696,2,0,P|370:322|411:312,1,84.9999999999999,2|8,0:0|0:0,0:0:0:0:
482,357,28367,6,0,B|430:275|475:197|475:197|436:221|386:199,1,255,6|8,0:0|0:0,0:0:0:0:
319,156,29707,2,0,P|368:118|431:124,2,127.5,12|6|4,0:0|0:0|0:3,0:0:0:0:
317,244,31048,6,0,P|237:159|145:230,1,255,4|2,0:0|0:3,0:0:0:0:
231,246,32389,2,0,P|174:148|60:216,1,255,2|2,0:0|0:3,0:0:0:0:
145,230,33730,2,0,B|225:252|314:248|314:248|286:286|302:332,1,255,2|2,0:0|0:3,0:0:0:0:
379,300,35071,2,0,P|382:201|289:166,1,212.5,2|2,0:0|0:0,0:0:0:0:
210,66,36411,6,0,B|336:121|344:0|466:46,1,255,4|2,0:0|0:3,0:0:0:0:
504,111,37752,2,0,B|510:281|510:281|456:274|418:318,1,255,2|8,0:0|0:0,0:0:0:0:
373,366,39092,1,8,0:0:0:0:
373,366,40937,6,0,P|304:319|234:329,1,127.5,6|8,0:0|0:0,0:0:0:0:
189,364,41775,6,0,P|217:286|170:220,1,170,6|2,0:0|0:0,0:0:0:0:
83,228,42780,1,8,0:0:0:0:
17,283,43115,2,0,P|72:313|133:299,2,127.5,2|2|8,0:0|0:0|0:0,0:0:0:0:
0,198,44456,6,0,P|61:142|140:162,1,170,6|8,0:0|0:0,0:0:0:0:
189,233,45461,1,8,0:0:0:0:
260,185,45797,2,0,P|315:168|391:186,2,127.5,6|6|4,0:0|0:0|0:3,0:0:0:0:
189,233,47137,6,0,B|186:318|186:318|225:288|280:301,1,170,6|8,0:0|0:0,0:0:0:0:
342,337,48143,1,0,0:0:0:0:
412,289,48478,2,0,P|416:226|378:177,2,127.5,0|0|4,0:0|0:0|0:3,0:0:0:0:
335,251,49819,6,0,P|293:182|326:107,1,170,6|8,0:0|0:0,0:0:0:0:
412,97,50824,1,8,0:3:0:0:
488,138,51160,2,0,P|440:178|378:177,2,127.5,6|6|8,0:0|0:0|0:0,0:0:0:0:
412,97,52500,6,0,L|417:271,1,170,12|8,0:0|0:0,0:0:0:0:
390,348,53506,1,8,0:0:0:0:
328,289,53841,2,0,P|257:274|158:303,1,170,12|8,0:0|0:0,0:0:0:0:
104,359,54847,1,8,0:0:0:0:
83,278,55182,6,0,P|63:240|34:209,1,84.9999999999999,12|8,0:0|0:0,0:0:0:0:
30,125,55852,2,0,P|59:94|80:58,1,84.9999999999999,8|8,0:0|0:0,0:0:0:0:
159,27,56523,2,0,P|197:45|238:54,1,84.9999999999999,12|0,0:0|0:0,0:0:0:0:
292,119,57193,2,0,P|285:160|290:203,1,84.9999999999999,8|8,0:0|0:3,0:0:0:0:
245,274,57864,6,0,B|204:276|164:298|164:298|124:256,2,127.5,6|8|12,0:0|0:0|0:0,0:0:0:0:
289,202,59205,1,8,0:0:0:0:
360,246,59539,1,8,0:0:0:0:
314,317,59875,2,0,P|355:329|396:321,1,84.9999999999999,0|8,0:0|0:0,0:0:0:0:
442,251,60546,6,0,L|436:42,1,170,6|2,0:0|0:0,0:0:0:0:
366,33,61551,1,8,0:0:0:0:
317,104,61886,2,0,P|231:125|138:94,1,170,6|2,0:0|0:0,0:0:0:0:
87,52,62891,1,8,0:0:0:0:
75,137,63227,6,0,L|76:248,1,84.9999999999999,6|8,0:0|0:0,0:0:0:0:
132,285,63897,2,0,P|219:248|252:260,1,84.9999999999999,6|8,0:0|0:0,0:0:0:0:
256,312,64567,2,0,P|254:231|322:185,1,170,6|2,0:0|0:0,0:0:0:0:
401,220,65573,1,8,0:0:0:0:
331,271,65908,6,0,P|404:306|474:264,1,170,6|2,0:0|0:0,0:0:0:0:
475,177,66914,1,8,0:0:0:0:
401,135,67249,2,0,P|392:93|401:52,1,84.9999999999999,6|8,0:0|0:0,0:0:0:0:
475,94,67919,2,0,P|484:136|475:177,1,84.9999999999999,2|8,0:0|0:0,0:0:0:0:
401,220,68590,6,0,L|231:204,1,170,6|6,0:0|0:0,0:0:0:0:
147,197,69595,1,8,0:0:0:0:
114,119,69930,2,0,P|156:113|196:128,1,84.9999999999999,6|8,0:0|0:0,0:0:0:0:
231,204,70601,2,0,P|216:244|185:273,1,84.9999999999999,8|8,0:0|0:0,0:0:0:0:
131,339,71271,6,0,P|100:263|147:197,1,170,6|2,0:0|0:0,0:0:0:0:
231,204,72277,1,8,0:0:0:0:
267,282,72612,2,0,L|270:91,1,170,6|2,0:0|0:0,0:0:0:0:
323,45,73618,1,8,0:0:0:0:
355,124,73953,6,0,L|353:208,1,84.9999999999999,6|8,0:0|0:0,0:0:0:0:
352,293,74623,2,0,P|334:334|303:360,1,84.9999999999999,6|8,0:0|0:0,0:0:0:0:
217,351,75294,2,0,P|182:277|224:207,1,170,6|6,0:0|0:0,0:0:0:0:
311,208,76299,1,8,0:0:0:0:
267,282,76635,6,0,L|88:280,1,170,6|2,0:0|0:0,0:0:0:0:
29,227,77640,1,8,0:0:0:0:
82,159,77975,2,0,P|124:148|166:149,1,84.9999999999999,6|8,0:0|0:0,0:0:0:0:
237,196,78646,2,0,P|279:197|320:186,1,84.9999999999999,2|8,0:0|0:0,0:0:0:0:
325,102,79316,6,0,P|283:101|242:112,1,84.9999999999999,6|8,0:0|0:0,0:0:0:0:
237,196,79986,2,0,L|237:280,1,84.9999999999999,8|8,0:0|0:0,0:0:0:0:
279,355,80657,2,0,P|183:328|136:350,2,127.5,8|2|8,0:3|0:0|0:0,0:0:0:0:
323,283,81998,6,0,L|323:155,2,127.5,6|2|8,0:0|0:0|0:0,0:0:0:0:
367,355,83339,2,0,P|462:328|509:350,2,127.5,12|2|8,0:0|0:0|0:0,0:0:0:0:
279,355,84679,2,0,P|250:323|239:279,1,84.9999999999999,6|8,0:0|0:0,0:0:0:0:
280,209,85349,2,0,P|268:168|240:137,1,84.9999999999999,12|8,0:0|0:0,0:0:0:0:
154,135,86020,2,0,P|114:184|117:246,2,127.5,6|6|4,0:0|0:0|0:3,0:0:0:0:
196,211,87361,6,0,L|209:355,2,127.5,6|2|8,0:0|0:0|0:0,0:0:0:0:
280,209,88702,2,0,L|292:352,2,127.5,12|2|8,0:0|0:0|0:0,0:0:0:0:
237,137,90042,2,0,P|277:125|318:135,1,84.9999999999999,6|8,0:0|0:0,0:0:0:0:
361,205,90713,2,0,P|396:113|423:100,1,127.5,6|6,0:0|0:0,0:0:0:0:
256,192,91384,12,0,95406,0:0:0:0:
