osu file format v14

[General]
AudioFilename: my mai tonight.mp3
AudioLeadIn: 0
PreviewTime: 59791
Countdown: 0
SampleSet: Soft
StackLeniency: 0.4
Mode: 0
LetterboxInBreaks: 0
WidescreenStoryboard: 0

[Editor]
DistanceSpacing: 0.8
BeatDivisor: 2
GridSize: 32
TimelineZoom: 1.4

[Metadata]
Title:MY Mai*TONIGHT
TitleUnicode:MY舞☆TONIGHT
Artist:Aqours
ArtistUnicode:Aqours
Creator:lit120
Version:Curi's Normal
Source:ラブライブ!サンシャイン!!
Tags:love live sunshine school idol project festival season two 2 insert song tv size inami anju 伊波杏樹 takami chika 高海千歌 aida rikako 逢田梨香子 sakurauchi riko 桜内梨子 suwa nanaka 諏訪ななか matsuura kanan 松浦果南 komiya arisa 小宮有紗 kurosawa dia 黒澤ダイヤ saito shuka 斉藤朱夏 watanabe you 渡辺曜 kobayashi aika 小林愛香 tsushima yoshiko 津島善子 yohane ヨハネ takatsuki kanako 高槻かなこ kunikida hanamaru 国木田花丸 suzuki aina 鈴木愛奈 ohara mari 小原鞠莉 furihata ai 降幡愛 kurosawa ruby 黒澤ルビィ -Hakurei- Lasse Delis Karia [c_u_r_i] curi c_u_r_i Regraz sahuang ak74 Crystal
BeatmapID:1453395
BeatmapSetID:684769

[Difficulty]
HPDrainRate:5
CircleSize:3.5
OverallDifficulty:5
ApproachRate:5
SliderMultiplier:1.1
SliderTickRate:1

[Events]
//Background and Video events
0,0,"ruby dia.jpg",0,0
//Break Periods
//Storyboard Layer 0 (Background)
//Storyboard Layer 1 (Fail)
//Storyboard Layer 2 (Pass)
//Storyboard Layer 3 (Foreground)
//Storyboard Sound Samples

[TimingPoints]
92,810.810810810811,4,2,2,40,1,0
6579,-50,4,2,2,40,0,0
15497,857.142857142857,4,2,2,40,1,0
15497,-52.6315789473684,4,2,2,40,0,0
16354,571.428571428571,4,2,2,40,1,0
16925,685.714285714286,4,2,1,40,1,0
18982,335.195530726257,4,2,1,70,1,0
20322,-100,4,2,1,80,0,0
31048,-100,4,2,1,50,0,0
37752,-100,4,2,1,60,0,0
38087,-100,4,2,1,62,0,0
38422,-100,4,2,1,65,0,0
38757,-100,4,2,1,67,0,0
39092,-100,4,2,1,70,0,0
41774,-100,4,2,1,70,0,0
47137,-100,4,2,1,60,0,0
52500,-100,4,2,1,70,0,0
55517,-100,4,2,1,72,0,0
55852,-100,4,2,1,75,0,0
56187,-100,4,2,1,77,0,0
56523,-100,4,2,1,80,0,0
56858,-100,4,2,1,82,0,0
57193,-100,4,2,1,85,0,0
57528,-100,4,2,1,87,0,0
57863,-100,4,2,1,90,0,0
60546,-100,4,2,1,90,0,1
71188,-100,4,2,1,90,0,0
71272,-100,4,2,1,90,0,1
81914,-100,4,2,1,90,0,0
81998,-100,4,2,1,90,0,1
87278,-100,4,2,1,90,0,0
87361,-100,4,2,1,90,0,1
91216,-100,4,2,1,90,0,0
95406,-100,4,2,1,10,0,0

[Colours]
Combo1 : 235,56,60
Combo2 : 212,80,104
Combo3 : 95,86,113
Combo4 : 221,125,83

[HitObjects]
148,123,5767,5,0,0:0:0:0:
128,203,6173,1,0,0:0:0:0:
208,183,6578,1,4,0:0:0:0:
362,123,7389,5,8,0:0:0:0:
382,203,7794,1,0,0:0:0:0:
302,183,8200,1,2,0:3:0:0:
148,123,9010,2,0,L|164:240,1,110,8|0,0:0|0:0,0:0:0:0:
174,319,9821,6,0,P|260:312|289:284,1,110,2|0,0:3|0:0,0:0:0:0:
264,212,10632,2,0,P|178:219|149:247,1,110,2|0,0:3|0:0,0:0:0:0:
100,167,11443,2,0,P|214:121|333:145,1,220,2|8,0:3|0:0,0:0:0:0:
358,205,12659,1,0,0:0:0:0:
329,287,13064,6,0,P|215:333|96:309,1,220,2|8,0:3|0:0,0:0:0:0:
75,244,14281,1,0,0:0:0:0:
162,242,14686,2,0,P|248:235|281:209,1,110,2|0,0:3|0:0,0:0:0:0:
304,154,15497,2,0,P|306:92|282:55,1,104.499997209549,4|0,0:3|0:0,0:0:0:0:
211,21,16354,5,4,0:0:0:0:
256,192,16639,12,0,18982,0:0:0:0:
0,57,20322,6,0,L|109:67,1,110,6|8,0:0|0:0,0:0:0:0:
186,113,20993,2,0,L|240:106,1,55,2|2,0:0|0:0,0:0:0:0:
285,100,21328,1,8,0:0:0:0:
363,140,21663,2,0,P|383:190|373:243,1,110,2|8,0:0|0:0,0:0:0:0:
301,293,22333,2,0,P|290:267|285:240,1,55,2|2,0:0|0:0,0:0:0:0:
300,198,22669,1,8,0:0:0:0:
373,243,23004,6,0,L|485:233,1,110,2|8,0:0|0:0,0:0:0:0:
491,320,23674,2,0,L|379:330,1,110,2|8,0:0|0:0,0:0:0:0:
301,293,24345,2,0,L|221:300,1,55,2|2,0:0|0:0,0:0:0:0:
202,302,24680,1,8,0:0:0:0:
135,359,25015,2,0,P|116:288|135:242,1,110,2|8,0:0|0:0,0:0:0:0:
158,224,25518,1,4,0:3:0:0:
158,224,25685,6,0,P|177:153|158:107,1,110,6|8,0:0|0:0,0:0:0:0:
78,113,26356,2,0,P|61:145|62:183,1,55,2|2,0:0|0:0,0:0:0:0:
72,205,26691,1,8,0:0:0:0:
158,224,27026,2,0,L|289:211,1,110,6|8,0:0|0:0,0:0:0:0:
336,157,27697,2,0,L|467:170,1,110,2|8,0:0|0:0,0:0:0:0:
481,248,28367,6,0,P|409:322|301:273,1,220,6|8,0:0|0:3,0:0:0:0:
267,213,29373,1,8,0:0:0:0:
248,127,29708,1,12,0:0:0:0:
248,127,29875,2,0,L|254:54,1,55,2|8,0:0|0:0,0:0:0:0:
221,41,30211,2,0,P|162:33|110:83,1,110,6|2,0:0|0:0,0:0:0:0:
101,99,30713,1,4,0:3:0:0:
78,183,31049,6,0,L|100:352,1,165,4|0,0:0|0:0,0:0:0:0:
137,368,31719,2,0,P|213:368|258:293,1,165,2|2,0:3|0:0,0:0:0:0:
263,254,32389,2,0,P|208:254|170:309,2,110,2|2|2,0:0|0:3|0:3,0:0:0:0:
338,298,33395,1,2,0:3:0:0:
408,350,33730,6,0,L|422:172,1,165,2|0,0:0|0:0,0:0:0:0:
461,168,34400,2,0,L|447:-10,1,165,2|2,0:3|0:0,0:0:0:0:
415,32,35071,2,0,P|355:58|302:37,2,110,2|2|2,0:0|0:3|0:3,0:0:0:0:
448,3,35909,1,2,0:0:0:0:
422,132,36412,5,4,0:0:0:0:
334,142,36747,2,0,P|285:129|238:93,2,110,2|2|2,0:3|0:3|0:3,0:0:0:0:
422,132,37752,2,0,L|409:251,1,110,2|2,0:0|0:0,0:0:0:0:
372,264,38255,1,2,0:0:0:0:
372,264,38423,2,0,L|380:329,1,55,8|8,0:0|0:0,0:0:0:0:
385,362,38758,1,8,0:0:0:0:
301,344,39093,6,0,P|228:324|153:373,1,165,8|0,0:0|0:0,0:0:0:0:
112,377,39764,2,0,L|123:199,1,165,0|0,0:0|0:0,0:0:0:0:
127,168,40434,1,0,0:0:0:0:
183,99,40769,1,8,0:0:0:0:
215,129,40937,2,0,B|248:144|296:124|296:124|339:105|379:124,1,165,6|8,0:0|0:0,0:0:0:0:
408,150,41607,1,2,0:0:0:0:
408,150,41775,6,0,L|397:272,1,110,6|8,0:0|0:0,0:0:0:0:
368,292,42278,1,0,0:0:0:0:
368,292,42445,2,0,L|372:357,1,55,2|2,0:0|0:0,0:0:0:0:
400,380,42780,1,8,0:0:0:0:
471,329,43116,2,0,L|485:200,1,110,2|8,0:0|0:0,0:0:0:0:
511,186,43618,2,0,L|497:57,1,110,2|2,0:0|0:0,0:0:0:0:
493,33,44121,1,8,0:0:0:0:
414,74,44456,6,0,P|341:81|299:44,1,110,6|8,0:0|0:0,0:0:0:0:
281,31,44959,1,2,0:0:0:0:
281,31,45127,2,0,P|208:24|166:61,1,110,8|8,0:0|0:0,0:0:0:0:
157,80,45630,1,4,0:3:0:0:
157,80,45797,2,0,L|172:204,1,110,6|8,0:0|0:0,0:0:0:0:
202,219,46300,2,0,L|195:340,1,110,6|0,0:0|0:0,0:0:0:0:
219,366,46803,1,4,0:3:0:0:
278,300,47138,5,6,0:0:0:0:
352,347,47473,2,0,P|406:353|462:315,2,110,0|8|0,0:0|0:0|0:0,0:0:0:0:
310,332,48311,1,2,0:0:0:0:
310,332,48479,2,0,L|320:256,1,55,0|0,0:0|0:0,0:0:0:0:
324,233,48814,1,2,0:0:0:0:
303,147,49149,2,0,P|263:127|181:145,1,110,8|4,0:0|0:3,0:0:0:0:
132,190,49819,5,6,0:0:0:0:
80,261,50155,2,0,L|91:375,2,110,0|8|8,0:0|0:0|0:3,0:0:0:0:
160,301,51160,2,0,P|206:329|260:326,1,110,6|8,0:0|0:0,0:0:0:0:
291,294,51663,2,0,P|337:266|391:269,1,110,6|2,0:0|0:0,0:0:0:0:
428,292,52166,1,8,0:0:0:0:
441,205,52501,6,0,P|386:185|315:190,1,110,12|8,0:0|0:0,0:0:0:0:
291,193,53004,2,0,P|236:213|165:208,1,110,8|8,0:0|0:0,0:0:0:0:
142,201,53507,1,8,0:0:0:0:
64,243,53842,2,0,P|56:187|80:138,1,110,12|8,0:0|0:0,0:0:0:0:
110,110,54345,2,0,L|230:101,1,110,8|8,0:0|0:0,0:0:0:0:
263,97,54847,1,8,0:0:0:0:
349,113,55183,5,12,0:0:0:0:
291,179,55518,1,8,0:0:0:0:
356,237,55853,1,8,0:0:0:0:
414,171,56188,1,8,0:0:0:0:
349,113,56523,5,12,0:0:0:0:
291,179,56859,1,8,0:0:0:0:
203,168,57194,1,8,0:0:0:0:
157,92,57529,1,8,0:3:0:0:
192,11,57864,5,6,0:0:0:0:
256,192,58032,12,8,59205,0:0:0:0:
148,107,60546,6,0,L|133:254,1,110,6|8,0:0|0:0,0:0:0:0:
224,221,61216,2,0,L|233:138,1,55,2|2,0:0|0:0,0:0:0:0:
235,122,61551,1,8,0:0:0:0:
312,162,61887,2,0,P|389:169|422:135,1,110,6|8,0:0|0:0,0:0:0:0:
464,81,62557,2,0,L|455:-2,2,55,2|2|8,0:0|0:0|0:0,0:0:0:0:
497,162,63227,5,6,0:0:0:0:
445,233,63563,1,8,0:0:0:0:
488,309,63898,1,6,0:0:0:0:
436,380,64233,1,8,0:0:0:0:
349,364,64568,2,0,L|217:349,1,110,6|8,0:0|0:0,0:0:0:0:
200,331,65071,1,2,0:0:0:0:
200,331,65238,2,0,L|99:344,2,55,2|8|8,0:0|0:0|0:0,0:0:0:0:
218,244,65909,6,0,L|83:260,1,110,6|8,0:0|0:0,0:0:0:0:
32,213,66579,2,0,P|39:160|44:146,1,55,2|2,0:0|0:0,0:0:0:0:
61,120,66914,1,8,0:0:0:0:
144,93,67250,2,0,L|279:77,1,110,6|8,0:0|0:0,0:0:0:0:
328,33,67920,2,0,L|415:44,2,55,2|2|8,0:0|0:0|0:0,0:0:0:0:
253,80,68590,6,0,P|260:152|269:220,1,110,6|8,0:0|0:0,0:0:0:0:
341,232,69261,2,0,P|376:228|435:220,1,55,6|2,0:0|0:0,0:0:0:0:
436,210,69596,1,8,0:0:0:0:
511,165,69931,2,0,P|516:240|494:278,1,110,6|8,0:0|0:0,0:0:0:0:
465,295,70434,1,2,0:0:0:0:
465,295,70602,1,8,0:0:0:0:
378,312,70937,1,8,0:0:0:0:
290,323,71272,6,0,L|136:306,1,110,6|8,0:0|0:0,0:0:0:0:
112,255,71942,2,0,L|38:266,1,55,2|2,0:0|0:0,0:0:0:0:
14,271,72278,1,8,0:0:0:0:
0,184,72613,2,0,P|3:121|34:68,1,110,6|8,0:0|0:0,0:0:0:0:
110,62,73283,2,0,P|109:102|98:131,2,55,2|2|8,0:0|0:0|0:0,0:0:0:0:
23,79,73954,5,6,0:0:0:0:
32,166,74289,1,8,0:0:0:0:
104,116,74624,2,0,L|168:123,1,55,6|2,0:0|0:0,0:0:0:0:
202,128,74959,1,8,0:0:0:0:
272,181,75294,2,0,L|407:170,1,110,6|8,0:0|0:0,0:0:0:0:
468,158,75965,2,0,P|460:212|454:285,1,110,6|8,0:0|0:0,0:0:0:0:
458,311,76468,1,8,0:3:0:0:
458,311,76635,6,0,P|401:342|337:321,1,110,6|8,0:0|0:0,0:0:0:0:
288,281,77306,2,0,P|250:275|222:277,1,55,2|2,0:0|0:0,0:0:0:0:
191,287,77641,1,8,0:0:0:0:
127,347,77976,2,0,P|105:291|132:223,1,110,6|8,0:0|0:0,0:0:0:0:
131,157,78646,2,0,P|86:161|67:172,2,55,2|2|8,0:0|0:0|0:0,0:0:0:0:
210,193,79317,6,0,P|276:194|315:155,1,110,6|8,0:0|0:0,0:0:0:0:
364,100,79987,2,0,P|417:104|449:118,1,55,8|8,0:0|0:0,0:0:0:0:
450,134,80322,2,0,P|446:187|432:219,1,55,8|2,0:0|0:0,0:0:0:0:
429,229,80657,2,0,P|372:233|320:176,1,110,8|4,0:3|0:3,0:0:0:0:
307,167,81160,2,0,P|250:163|198:220,1,110,2|2,0:0|0:0,0:0:0:0:
186,231,81663,1,8,0:0:0:0:
178,318,81998,6,0,L|300:307,2,110,6|8|8,0:0|0:0|0:0,0:0:0:0:
134,324,82836,1,2,0:0:0:0:
134,324,83004,1,8,0:0:0:0:
49,299,83339,2,0,L|60:187,1,110,12|8,0:0|0:0,0:0:0:0:
124,129,84009,2,0,L|116:47,1,55,8|2,0:0|0:0,0:0:0:0:
114,30,84345,1,8,0:0:0:0:
196,61,84680,6,0,P|265:73|306:45,1,110,6|8,0:0|0:0,0:0:0:0:
373,11,85350,2,0,P|442:-1|483:27,1,110,12|8,0:0|0:0,0:0:0:0:
506,99,86021,2,0,L|496:174,2,55,6|8|8,0:0|0:0|0:0,0:0:0:0:
461,97,86523,2,0,L|335:109,1,110,6|8,0:0|0:3,0:0:0:0:
308,113,87026,1,4,0:3:0:0:
256,184,87361,6,0,L|130:172,2,110,6|8|8,0:0|0:0|0:0,0:0:0:0:
298,194,88199,1,2,0:0:0:0:
298,194,88367,1,8,0:0:0:0:
373,238,88702,2,0,P|376:308|376:361,1,110,12|8,0:0|0:0,0:0:0:0:
294,381,89373,2,0,P|294:356|291:308,1,55,8|2,0:0|0:0,0:0:0:0:
292,281,89708,1,8,0:0:0:0:
298,194,90043,6,0,P|357:151|423:164,1,110,6|8,0:0|0:0,0:0:0:0:
433,165,90546,1,8,0:0:0:0:
467,193,90713,2,0,L|451:44,1,110,6|2,0:0|0:0,0:0:0:0:
451,39,91216,1,6,0:0:0:0:
256,192,91384,12,0,95406,0:0:0:0:
