osu file format v14

[General]
AudioFilename: my mai tonight.mp3
AudioLeadIn: 0
PreviewTime: 59791
Countdown: 0
SampleSet: Soft
StackLeniency: 0.4
Mode: 0
LetterboxInBreaks: 0
WidescreenStoryboard: 0

[Editor]
Bookmarks: 5775,6586,20317,31043,41769,52495,60540,71266,81992,91210,95400
DistanceSpacing: 1.1
BeatDivisor: 4
GridSize: 32
TimelineZoom: 2.1

[Metadata]
Title:MY Mai*TONIGHT
TitleUnicode:MY舞☆TONIGHT
Artist:Aqours
ArtistUnicode:Aqours
Creator:lit120
Version:Hard
Source:ラブライブ!サンシャイン!!
Tags:love live sunshine school idol project festival season two 2 insert song tv size inami anju 伊波杏樹 takami chika 高海千歌 aida rikako 逢田梨香子 sakurauchi riko 桜内梨子 suwa nanaka 諏訪ななか matsuura kanan 松浦果南 komiya arisa 小宮有紗 kurosawa dia 黒澤ダイヤ saito shuka 斉藤朱夏 watanabe you 渡辺曜 kobayashi aika 小林愛香 tsushima yoshiko 津島善子 yohane ヨハネ takatsuki kanako 高槻かなこ kunikida hanamaru 国木田花丸 suzuki aina 鈴木愛奈 ohara mari 小原鞠莉 furihata ai 降幡愛 kurosawa ruby 黒澤ルビィ -Hakurei- Lasse Delis Karia [c_u_r_i] curi c_u_r_i Regraz sahuang ak74 Crystal
BeatmapID:1449412
BeatmapSetID:684769

[Difficulty]
HPDrainRate:6
CircleSize:4
OverallDifficulty:6
ApproachRate:8
SliderMultiplier:1.5
SliderTickRate:1

[Events]
//Background and Video events
0,0,"ruby dia.jpg",0,0
//Break Periods
//Storyboard Layer 0 (Background)
//Storyboard Layer 1 (Fail)
//Storyboard Layer 2 (Pass)
//Storyboard Layer 3 (Foreground)
//Storyboard Sound Samples

[TimingPoints]
92,810.810810810811,4,2,2,40,1,0
15497,857.142857142857,4,2,2,40,1,0
16354,571.428571428571,4,2,2,40,1,0
16925,685.714285714286,4,2,1,40,1,0
18982,335.195530726257,4,2,1,70,1,0
20322,-100,4,2,1,80,0,0
31048,-100,4,2,1,50,0,0
36327,-100,4,2,1,5,0,0
36411,-100,4,2,1,50,0,0
37752,-100,4,2,1,60,0,0
38087,-100,4,2,1,62,0,0
38422,-100,4,2,1,65,0,0
38757,-100,4,2,1,67,0,0
39092,-100,4,2,1,70,0,0
41774,-100,4,2,1,70,0,0
47137,-100,4,2,1,60,0,0
52500,-100,4,2,1,70,0,0
55517,-100,4,2,1,72,0,0
55852,-100,4,2,1,75,0,0
56187,-100,4,2,1,77,0,0
56523,-100,4,2,1,80,0,0
56858,-100,4,2,1,82,0,0
57193,-100,4,2,1,85,0,0
57528,-100,4,2,1,87,0,0
57863,-100,4,2,1,90,0,0
60461,-100,4,2,1,5,0,0
60546,-100,4,2,1,90,0,1
71188,-100,4,2,1,90,0,0
71272,-100,4,2,1,90,0,1
81914,-100,4,2,1,90,0,0
81998,-100,4,2,1,90,0,1
87278,-100,4,2,1,90,0,0
87361,-100,4,2,1,90,0,1
91216,-100,4,2,1,90,0,0
95406,-100,4,2,1,10,0,0

[Colours]
Combo1 : 235,56,60
Combo2 : 212,80,104
Combo3 : 95,86,113
Combo4 : 221,125,83

[HitObjects]
75,110,5767,5,0,0:0:0:0:
135,154,6173,1,0,0:0:0:0:
203,124,6578,6,0,P|242:116|295:124,1,75,4|0,0:0|0:0,0:0:0:0:
335,165,7389,1,8,0:0:0:0:
288,223,7794,1,0,0:0:0:0:
362,234,8200,2,0,P|294:258|278:328,1,150,2|8,0:3|0:0,0:0:0:0:
350,308,9416,1,0,0:0:0:0:
278,328,9821,6,0,L|203:325,1,75,2|0,0:3|0:0,0:0:0:0:
130,308,10632,2,0,L|170:244,1,75,2|0,0:3|0:0,0:0:0:0:
222,189,11443,2,0,L|257:256,1,75,2|0,0:3|0:0,0:0:0:0:
278,328,12254,1,8,0:0:0:0:
350,308,12659,1,0,0:0:0:0:
329,236,13064,6,0,P|366:209|420:208,1,75,2|0,0:3|0:0,0:0:0:0:
462,235,13875,1,8,0:0:0:0:
493,167,14281,1,0,0:0:0:0:
425,135,14686,2,0,L|338:133,1,75,2|0,0:3|0:0,0:0:0:0:
299,188,15497,2,0,L|212:186,1,75,4|0,0:3|0:0,0:0:0:0:
173,241,16354,5,4,0:0:0:0:
256,192,16496,12,0,18296,0:0:0:0:
103,141,19484,5,2,0:0:0:0:
103,141,19568,1,2,0:0:0:0:
103,141,19652,2,0,L|103:186,3,37.5,8|8|8|8,0:0|0:0|0:0|0:0,0:0:0:0:
137,164,19987,2,0,L|159:202,3,37.5,8|8|8|8,0:0|0:0|0:0|0:0,0:0:0:0:
177,166,20322,6,0,P|251:168|292:107,2,150,6|8|2,0:0|0:0|0:0,0:0:0:0:
217,102,21160,1,2,0:0:0:0:
291,110,21328,2,0,L|294:193,1,75,8|0,0:0|0:0,0:0:0:0:
263,254,21663,6,0,P|340:218|418:233,2,150,2|8|2,0:0|0:0|0:0,0:0:0:0:
233,322,22501,1,2,0:0:0:0:
164,291,22669,2,0,P|128:283|85:288,1,75,8|0,0:0|0:0,0:0:0:0:
33,237,23004,6,0,P|57:209|75:170,1,75,2|0,0:0|0:0,0:0:0:0:
64,100,23339,2,0,P|100:107|143:103,1,75,8|0,0:0|0:0,0:0:0:0:
198,58,23674,2,0,P|209:93|234:127,1,75,2|2,0:0|0:0,0:0:0:0:
301,153,24009,2,0,P|276:180|258:219,1,75,8|0,0:0|0:0,0:0:0:0:
270,289,24345,6,0,P|335:338|413:316,1,150,2|8,0:0|0:0,0:0:0:0:
439,264,24847,1,2,0:0:0:0:
406,197,25015,1,2,0:0:0:0:
447,134,25183,1,8,0:0:0:0:
447,134,25266,1,8,0:0:0:0:
447,134,25350,2,0,L|450:73,3,37.5,8|8|4|4,0:0|0:3|0:3|0:3,0:0:0:0:
433,61,25685,6,0,P|384:114|313:103,2,150,6|8|2,0:0|0:0|0:0,0:0:0:0:
360,43,26523,1,2,0:0:0:0:
284,33,26691,2,0,P|255:55|239:89,1,75,8|0,0:0|0:0,0:0:0:0:
263,159,27026,6,0,L|266:243,1,75,6|0,0:0|0:0,0:0:0:0:
310,295,27361,2,0,P|276:308|239:305,1,75,8|2,0:0|0:0,0:0:0:0:
190,246,27697,1,2,0:0:0:0:
163,318,27864,1,8,0:0:0:0:
163,318,27948,1,8,0:0:0:0:
163,318,28032,2,0,L|165:373,2,37.5,8|8|8,0:0|0:0|0:3,0:0:0:0:
190,246,28367,6,0,P|177:155|144:104,1,150,6|8,0:0|0:0,0:0:0:0:
73,88,28870,1,0,0:0:0:0:
19,142,29037,1,8,0:3:0:0:
39,215,29205,1,2,0:0:0:0:
39,215,29289,1,2,0:0:0:0:
39,215,29373,2,0,P|46:275|39:313,1,75,8|2,0:0|0:0,0:0:0:0:
93,345,29708,5,12,0:0:0:0:
163,318,29875,2,0,L|166:268,2,37.5,2|2|8,0:0|0:0|0:0,0:0:0:0:
212,374,30211,2,0,P|253:339|347:353,1,150,6|2,0:0|0:0,0:0:0:0:
380,357,30630,1,2,0:0:0:0:
380,357,30713,2,0,L|381:263,1,75,4|0,0:3|0:0,0:0:0:0:
420,217,31049,6,0,P|348:229|299:177,1,150,4|2,0:0|0:3,0:0:0:0:
373,158,31551,1,0,0:0:0:0:
373,158,31719,2,0,P|323:105|252:117,1,150,2|2,0:3|0:3,0:0:0:0:
299,177,32222,1,2,0:0:0:0:
299,177,32389,6,0,P|309:251|292:324,1,150,2|2,0:0|0:3,0:0:0:0:
219,324,32892,2,0,P|202:251|212:177,1,150,0|0,0:0|0:0,0:0:0:0:
172,114,33395,1,2,0:3:0:0:
99,133,33563,1,2,0:0:0:0:
95,209,33730,6,0,P|34:170|31:98,1,150,2|2,0:0|0:3,0:0:0:0:
99,133,34233,1,0,0:0:0:0:
99,133,34400,2,0,L|105:303,1,150,2|2,0:3|0:3,0:0:0:0:
80,354,34903,1,2,0:0:0:0:
79,354,35071,6,0,P|146:323|218:341,1,150,2|2,0:0|0:3,0:0:0:0:
289,365,35574,2,0,L|292:280,1,75,0|2,0:0|0:3,0:0:0:0:
246,230,35909,2,0,P|317:248|368:152,1,187.5,2|0,0:0|0:0,0:0:0:0:
358,126,36412,6,0,P|321:117|284:123,1,75,4|0,0:0|0:0,0:0:0:0:
256,53,36747,2,0,P|224:73|202:103,1,75,2|0,0:3|0:0,0:0:0:0:
132,73,37082,2,0,P|123:109|129:146,1,75,2|0,0:3|0:0,0:0:0:0:
58,174,37417,1,2,0:3:0:0:
118,222,37585,1,8,0:3:0:0:
118,222,37669,1,4,0:3:0:0:
118,222,37752,6,0,P|127:278|126:313,1,75,2|2,0:0|0:0,0:0:0:0:
124,371,38088,2,0,P|179:362|214:363,1,75,2|2,0:0|0:0,0:0:0:0:
271,380,38423,1,8,0:0:0:0:
310,316,38590,1,8,0:0:0:0:
262,259,38758,1,8,0:0:0:0:
193,288,38926,1,8,0:0:0:0:
202,213,39093,5,8,0:0:0:0:
202,213,40769,5,8,0:0:0:0:
202,213,40937,2,0,L|362:209,1,150,6|8,0:0|0:0,0:0:0:0:
388,217,41356,1,8,0:0:0:0:
388,217,41440,1,8,0:0:0:0:
426,153,41607,1,2,0:0:0:0:
362,116,41775,6,0,L|202:120,1,150,6|8,0:0|0:0,0:0:0:0:
149,161,42278,1,0,0:0:0:0:
81,128,42445,1,2,0:0:0:0:
79,53,42613,1,2,0:0:0:0:
145,88,42780,2,0,P|155:124|149:161,1,75,8|0,0:0|0:0,0:0:0:0:
86,202,43116,6,0,P|172:203|198:272,1,150,2|8,0:0|0:0,0:0:0:0:
191,327,43618,2,0,P|234:252|307:264,1,150,2|2,0:0|0:0,0:0:0:0:
319,278,44037,1,2,0:0:0:0:
319,278,44121,2,0,L|403:278,1,75,8|0,0:0|0:0,0:0:0:0:
449,329,44456,5,6,0:0:0:0:
500,274,44624,1,2,0:0:0:0:
445,223,44792,2,0,P|439:175|453:129,1,75,8|2,0:0|0:0,0:0:0:0:
481,83,45127,1,8,0:0:0:0:
481,83,45211,1,8,0:0:0:0:
481,83,45294,2,0,L|495:47,2,37.5,8|8|8,0:0|0:0|0:0,0:0:0:0:
444,149,45630,1,4,0:3:0:0:
404,83,45797,6,0,P|335:56|261:47,1,150,6|8,0:0|0:0,0:0:0:0:
196,87,46300,1,6,0:0:0:0:
158,152,46468,6,0,P|182:161|207:161,2,50,8|8|8,0:0|0:3|0:3,0:0:0:0:
117,125,46803,2,0,P|93:116|68:116,2,50,4|4|4,0:3|0:3|0:3,0:0:0:0:
114,176,47138,6,0,L|116:327,1,150,6|0,0:0|0:0,0:0:0:0:
177,369,47641,1,2,0:0:0:0:
220,309,47808,2,0,P|257:302|295:305,1,75,8|0,0:0|0:0,0:0:0:0:
357,347,48144,2,0,P|369:311|390:280,1,75,0|2,0:0|0:0,0:0:0:0:
457,246,48479,6,0,P|387:226|367:157,1,150,0|2,0:0|0:0,0:0:0:0:
417,102,48982,1,0,0:0:0:0:
489,120,49149,2,0,P|471:152|441:173,1,75,8|8,0:0|0:3,0:0:0:0:
367,158,49484,2,0,P|306:151|285:158,1,75,4|4,0:3|0:3,0:0:0:0:
253,216,49819,6,0,P|225:143|151:155,1,150,6|0,0:0|0:0,0:0:0:0:
107,195,50322,1,2,0:0:0:0:
122,268,50490,2,0,P|160:272|197:268,1,75,8|8,0:0|0:0,0:0:0:0:
253,216,50825,2,0,P|290:211|327:215,1,75,8|2,0:3|0:0,0:0:0:0:
377,271,51160,5,6,0:0:0:0:
445,241,51328,1,8,0:0:0:0:
437,167,51495,1,8,0:0:0:0:
410,96,51663,2,0,P|380:117|364:151,1,75,6|0,0:0|0:0,0:0:0:0:
327,215,51998,1,2,0:0:0:0:
327,215,52082,1,2,0:0:0:0:
327,215,52166,1,8,0:0:0:0:
377,271,52333,1,0,0:0:0:0:
339,335,52501,6,0,P|256:310|171:334,1,150,12|8,0:0|0:0,0:0:0:0:
137,369,53004,1,8,0:0:0:0:
90,311,53171,2,0,P|84:274|92:238,1,75,8|8,0:0|0:0,0:0:0:0:
140,180,53507,2,0,P|145:143|138:106,1,75,8|8,0:0|0:0,0:0:0:0:
83,55,53842,6,0,P|165:84|261:35,1,150,12|8,0:0|0:0,0:0:0:0:
285,25,54345,1,8,0:0:0:0:
291,99,54512,1,8,0:0:0:0:
359,130,54680,1,8,0:0:0:0:
421,87,54847,1,8,0:0:0:0:
488,117,55015,1,8,0:0:0:0:
494,191,55183,6,0,P|496:229|482:263,1,75,12|2,0:0|0:0,0:0:0:0:
467,336,55518,2,0,P|435:319|411:290,1,75,8|2,0:0|0:0,0:0:0:0:
355,241,55853,2,0,P|387:221|424:216,1,75,8|2,0:0|0:0,0:0:0:0:
411,291,56188,2,0,P|379:310|342:316,1,75,8|2,0:0|0:0,0:0:0:0:
284,266,56523,6,0,P|247:259|210:266,1,75,12|8,0:0|0:0,0:0:0:0:
141,295,56859,2,0,P|136:258|118:225,1,75,8|4,0:0|0:3,0:0:0:0:
69,167,57194,2,0,P|102:151|128:123,1,75,8|8,0:0|0:0,0:0:0:0:
167,59,57529,1,8,0:3:0:0:
167,59,57613,1,8,0:3:0:0:
167,59,57697,1,4,0:3:0:0:
204,125,57864,6,0,P|253:134|299:113,2,75,6|2|2,0:0|0:0|0:0,0:0:0:0:
243,60,58367,2,0,P|279:52|315:62,2,75,8|2|2,0:0|0:0|0:0,0:0:0:0:
167,59,58870,1,12,0:0:0:0:
128,123,59037,1,2,0:0:0:0:
128,123,59121,1,2,0:0:0:0:
128,123,59205,5,8,0:0:0:0:
164,188,59373,1,8,0:0:0:0:
200,253,59540,1,8,0:0:0:0:
200,253,59875,6,0,L|290:252,1,75,0|2,0:0|0:0,0:0:0:0:
307,271,60127,1,2,0:0:0:0:
307,271,60211,2,0,P|298:206|316:137,1,112.5,8|0,0:0|0:0,0:0:0:0:
334,134,60546,6,0,P|262:143|215:89,2,150,6|8|2,0:0|0:0|0:0,0:0:0:0:
289,74,61384,1,2,0:0:0:0:
365,66,61551,2,0,P|393:90|407:124,1,75,8|0,0:0|0:0,0:0:0:0:
378,191,61887,6,0,P|461:158|508:186,2,150,6|8|2,0:0|0:0|0:0,0:0:0:0:
361,265,62725,1,2,0:0:0:0:
413,316,62892,2,0,P|381:334|344:336,1,75,8|0,0:0|0:0,0:0:0:0:
290,286,63227,6,0,P|253:285|219:299,1,75,6|0,0:0|0:0,0:0:0:0:
154,339,63563,2,0,P|143:303|118:275,1,75,8|0,0:0|0:0,0:0:0:0:
61,226,63898,2,0,P|91:205|110:173,1,75,6|2,0:0|0:0,0:0:0:0:
139,103,64233,2,0,P|168:125|204:133,1,75,8|0,0:0|0:0,0:0:0:0:
282,140,64568,6,0,P|274:213|322:267,1,150,6|8,0:0|0:0,0:0:0:0:
396,282,65071,1,2,0:0:0:0:
445,226,65238,1,2,0:0:0:0:
421,155,65406,1,8,0:0:0:0:
421,155,65490,1,8,0:0:0:0:
421,155,65574,2,0,L|416:83,3,37.5,8|8|4|4,0:0|0:3|0:3|0:3,0:0:0:0:
427,81,65909,6,0,P|374:92|304:25,2,150,6|8|2,0:0|0:0|0:0,0:0:0:0:
489,39,66747,1,2,0:0:0:0:
495,114,66914,2,0,L|498:190,1,75,8|0,0:0|0:0,0:0:0:0:
464,256,67250,6,0,P|433:234|397:224,1,75,6|0,0:0|0:0,0:0:0:0:
321,227,67585,2,0,P|287:242|261:268,1,75,8|0,0:0|0:0,0:0:0:0:
267,341,67920,2,0,P|270:304|261:268,1,75,2|2,0:0|0:0,0:0:0:0:
221,205,68255,2,0,P|190:183|154:173,1,75,8|0,0:0|0:0,0:0:0:0:
79,177,68590,6,0,L|78:340,2,150,6|8|6,0:0|0:0|0:0,0:0:0:0:
114,111,69428,1,2,0:0:0:0:
154,172,69596,2,0,P|178:145|187:109,1,75,8|0,0:0|0:0,0:0:0:0:
187,35,69931,5,6,0:0:0:0:
257,11,70099,1,2,0:0:0:0:
301,69,70266,1,8,0:0:0:0:
259,132,70434,1,2,0:0:0:0:
305,191,70602,1,8,0:0:0:0:
376,164,70769,1,2,0:0:0:0:
376,164,70853,1,2,0:0:0:0:
376,164,70937,2,0,P|440:158|459:168,1,75,8|4,0:0|0:3,0:0:0:0:
498,217,71272,6,0,L|491:53,2,150,6|8|2,0:0|0:0|0:0,0:0:0:0:
457,280,72110,1,2,0:0:0:0:
394,239,72278,2,0,P|332:235|295:251,1,75,8|0,0:0|0:0,0:0:0:0:
280,302,72613,6,0,P|278:229|217:191,2,150,6|8|2,0:0|0:0|0:0,0:0:0:0:
218,343,73451,1,2,0:0:0:0:
151,305,73618,2,0,P|177:278|213:266,1,75,8|0,0:0|0:0,0:0:0:0:
281,302,73954,6,0,P|316:290|342:263,1,75,6|0,0:0|0:0,0:0:0:0:
410,297,74289,2,0,P|418:260|407:225,1,75,8|0,0:0|0:0,0:0:0:0:
470,182,74624,2,0,P|442:156|406:148,1,75,6|2,0:0|0:0,0:0:0:0:
400,72,74959,2,0,P|365:83|339:110,1,75,8|0,0:0|0:0,0:0:0:0:
271,78,75294,6,0,P|284:160|363:183,1,150,6|8,0:0|0:0,0:0:0:0:
339,110,75797,1,2,0:0:0:0:
271,78,75965,1,6,0:0:0:0:
195,84,76132,1,8,0:0:0:0:
195,84,76216,1,8,0:0:0:0:
195,84,76300,2,0,L|181:143,3,37.5,8|0|8|4,0:0|0:0|0:3|0:3,0:0:0:0:
196,156,76635,6,0,P|121:124|56:143,2,150,6|8|2,0:0|0:0|0:0,0:0:0:0:
221,226,77473,1,2,0:0:0:0:
151,250,77641,2,0,P|172:281|205:298,1,75,8|0,0:0|0:0,0:0:0:0:
275,275,77976,6,0,P|311:266|347:274,1,75,6|0,0:0|0:0,0:0:0:0:
411,313,78311,2,0,P|421:277|446:250,1,75,8|0,0:0|0:0,0:0:0:0:
511,214,78646,2,0,P|485:186|474:151,1,75,2|2,0:0|0:0,0:0:0:0:
475,77,78982,1,8,0:0:0:0:
411,39,79149,1,8,0:3:0:0:
411,39,79233,1,8,0:3:0:0:
411,39,79317,6,0,P|374:31|338:39,1,75,6|2,0:0|0:0,0:0:0:0:
289,96,79652,2,0,P|252:104|216:96,1,75,8|2,0:0|0:0,0:0:0:0:
156,51,79987,1,8,0:0:0:0:
156,51,80071,1,8,0:0:0:0:
156,51,80155,2,0,L|153:3,2,37.5,8|8|8,0:0|0:0|0:0,0:0:0:0:
110,111,80490,1,2,0:0:0:0:
50,64,80657,5,8,0:3:0:0:
40,140,80825,1,4,0:3:0:0:
100,187,80993,1,4,0:3:0:0:
169,157,81160,2,0,P|160:229|96:262,1,150,2|2,0:0|0:0,0:0:0:0:
60,254,81579,1,2,0:0:0:0:
60,254,81663,2,0,L|62:359,1,75,8|0,0:0|0:0,0:0:0:0:
121,374,81998,6,0,P|182:345|272:351,1,150,6|8,0:0|0:0,0:0:0:0:
331,378,82501,1,2,0:0:0:0:
392,335,82669,2,0,L|392:242,1,75,8|2,0:0|0:0,0:0:0:0:
374,186,83004,1,8,0:0:0:0:
344,113,83171,1,2,0:0:0:0:
344,113,83255,1,0,0:0:0:0:
344,113,83339,6,0,P|299:169|317:239,1,150,12|8,0:0|0:0,0:0:0:0:
392,260,83842,1,2,0:0:0:0:
448,208,84009,1,8,0:0:0:0:
374,186,84177,1,2,0:0:0:0:
317,239,84345,1,8,0:0:0:0:
335,313,84512,1,2,0:0:0:0:
277,365,84680,6,0,P|242:353|205:351,1,75,6|2,0:0|0:0,0:0:0:0:
134,377,85015,2,0,P|127:340|110:307,1,75,8|2,0:0|0:0,0:0:0:0:
52,257,85350,2,0,P|80:232|100:201,1,75,12|2,0:0|0:0,0:0:0:0:
114,126,85685,1,8,0:0:0:0:
186,100,85853,1,4,0:3:0:0:
186,100,85937,1,4,0:3:0:0:
186,100,86021,5,6,0:0:0:0:
212,172,86188,1,8,0:0:0:0:
284,146,86356,1,8,0:0:0:0:
309,218,86523,2,0,P|356:162|338:93,1,150,6|8,0:0|0:3,0:0:0:0:
265,71,87026,1,4,0:3:0:0:
284,146,87194,1,4,0:3:0:0:
284,146,87278,1,4,0:3:0:0:
284,146,87361,6,0,P|343:157|441:137,1,150,6|8,0:0|0:0,0:0:0:0:
484,89,87864,1,2,0:0:0:0:
503,161,88032,2,0,L|506:260,1,75,8|2,0:0|0:0,0:0:0:0:
468,301,88367,1,8,0:0:0:0:
403,264,88535,1,2,0:0:0:0:
366,329,88702,6,0,P|301:306|205:326,1,150,12|8,0:0|0:0,0:0:0:0:
161,362,89205,1,2,0:0:0:0:
116,300,89373,1,8,0:0:0:0:
177,255,89540,1,2,0:0:0:0:
177,255,89624,1,2,0:0:0:0:
177,255,89708,2,0,L|220:242,2,37.5,8|8|2,0:0|0:0|0:0,0:0:0:0:
116,300,90043,5,6,0:0:0:0:
55,257,90211,1,2,0:0:0:0:
77,185,90378,1,8,0:0:0:0:
152,183,90546,1,8,0:0:0:0:
152,183,90630,1,8,0:0:0:0:
152,183,90713,2,0,L|194:169,2,37.5,6|2|2,0:0|0:0|0:0,0:0:0:0:
77,185,91049,1,2,0:0:0:0:
112,119,91216,5,6,0:0:0:0:
256,192,91300,12,0,95406,0:0:0:0:
