osu file format v14

[General]
AudioFilename: Love Live! Sunshine!! OP.mp3
AudioLeadIn: 0
PreviewTime: 49800
Countdown: 0
SampleSet: Soft
StackLeniency: 0.7
Mode: 0
LetterboxInBreaks: 1
WidescreenStoryboard: 1

[Editor]
Bookmarks: 4012
DistanceSpacing: 1.1
BeatDivisor: 4
GridSize: 4
TimelineZoom: 2.3

[Metadata]
Title:Aozora Jumping Heart
TitleUnicode:青空Jumping Heart
Artist:Aqours
ArtistUnicode:Aqours
Creator:hopperhtkn
Version:Normal
Source:ラブライブ!サンシャイン!!
Tags:opening love live sunshine!!
BeatmapID:1020901
BeatmapSetID:477503

[Difficulty]
HPDrainRate:4
CircleSize:3
OverallDifficulty:4
ApproachRate:4.5
SliderMultiplier:0.999999999999999
SliderTickRate:1

[Events]
//Background and Video events
0,0,"BG.jpg",0,0
Video,-243,"OP.avi"
//Break Periods
//Storyboard Layer 0 (Background)
//Storyboard Layer 1 (Fail)
//Storyboard Layer 2 (Pass)
//Storyboard Layer 3 (Foreground)
//Storyboard Sound Samples

[TimingPoints]
0,300,4,2,1,50,1,0
1200,-100,4,2,1,50,0,0
2400,-100,4,2,1,50,0,0
6600,-100,4,2,1,40,0,0
6900,-100,4,2,1,50,0,0
7200,-100,4,2,1,60,0,0
16800,-100,4,2,2,50,0,0
16950,-100,4,2,1,50,0,0
26400,-100,4,2,1,60,0,0
36000,-100,4,2,1,50,0,0
39600,-100,4,2,1,60,0,0
49800,-100,4,2,1,60,0,0
50400,-100,4,2,1,70,0,1
84000,-100,4,2,1,50,0,0
86400,-100,4,2,1,50,0,0
89850,-100,4,2,1,20,0,0
89925,-100,4,2,1,15,0,0
90000,-100,4,2,1,10,0,0

[Colours]
Combo1 : 255,242,202
Combo2 : 210,255,210
Combo3 : 217,234,255
Combo4 : 253,210,217

[HitObjects]
280,92,1200,6,0,P|216:124|136:100,2,150,2|2|2,0:1|0:1|0:1,0:0:0:0:
368,24,2400,2,0,L|420:220,1,200,6|0,0:0|0:0,0:0:0:0:
360,312,3300,1,0,0:0:0:0:
288,228,3600,2,0,P|244:232|192:252,1,99.9999999999999,6|0,0:0|0:0,0:0:0:0:
108,320,4200,2,0,P|64:316|12:296,1,99.9999999999999,8|4,0:3|0:3,0:0:0:0:
8,188,4800,6,0,P|72:60|208:96,1,300,6|2,0:0|0:0,0:0:0:0:
208,200,6000,2,0,L|328:176,1,99.9999999999999,6|0,0:0|0:0,0:0:0:0:
400,124,6600,2,0,L|396:52,2,50,2|2|8,0:0|0:0|0:0,0:0:0:0:
400,232,7200,6,0,B|388:276|388:276|396:336,1,99.9999999999999,6|8,0:0|0:0,0:0:0:0:
284,344,7800,2,0,L|268:292,2,50,2|2|8,0:0|0:0|0:0,0:0:0:0:
176,328,8400,2,0,P|120:328|80:296,1,99.9999999999999,2|8,0:0|0:0,0:0:0:0:
32,288,8850,2,0,P|59:246|61:197,1,100,2|2,0:0|0:0,0:0:0:0:
44,144,9300,1,8,0:0:0:0:
120,68,9600,6,0,L|232:80,1,99.9999999999999,6|8,0:0|0:0,0:0:0:0:
316,132,10200,2,0,L|364:120,2,50,2|2|8,0:0|0:0|0:0,0:0:0:0:
244,216,10800,1,2,0:0:0:0:
328,284,11100,1,8,0:0:0:0:
328,284,11250,2,0,L|436:264,1,99.9999999999999,2|2,0:0|0:0,0:0:0:0:
472,232,11700,1,8,0:0:0:0:
412,140,12000,6,0,P|364:124|316:132,1,100,6|8,0:0|0:0,0:0:0:0:
204,132,12600,2,0,L|228:80,2,50,2|2|8,0:0|0:0|0:0,0:0:0:0:
188,240,13200,2,0,P|140:216|112:172,1,99.9999999999999,2|8,0:0|0:0,0:0:0:0:
96,128,13650,2,0,L|4:200,1,100,2|2,0:0|0:0,0:0:0:0:
0,240,14100,1,8,0:0:0:0:
60,332,14400,6,0,L|172:348,1,99.9999999999999,6|8,0:0|0:0,0:0:0:0:
188,240,15000,2,0,L|299:220,1,100,2|8,0:0|0:0,0:0:0:0:
320,268,15450,2,0,P|408:212|308:84,1,300,6|2,0:0|0:0,0:0:0:0:
268,108,16500,1,8,0:0:0:0:
192,188,16800,6,0,L|156:88,1,99.9999999999999,4|2,0:0|0:0,0:0:0:0:
268,108,17400,2,0,L|304:208,1,99.9999999999999,2|2,0:0|0:0,0:0:0:0:
292,256,17850,2,0,P|340:236|408:240,1,99.9999999999999,2|0,0:0|0:0,0:0:0:0:
436,260,18300,1,2,0:0:0:0:
468,156,18600,2,0,B|440:104|440:104|432:48,1,99.9999999999999,2|2,0:0|0:0,0:0:0:0:
324,44,19200,6,0,L|216:60,1,99.9999999999999,2|2,0:0|0:0,0:0:0:0:
184,160,19800,2,0,L|80:136,1,99.9999999999999,2|2,0:0|0:0,0:0:0:0:
48,100,20250,2,0,P|56:160|44:212,1,99.9999999999999,2|2,0:0|0:0,0:0:0:0:
20,248,20700,1,2,0:0:0:0:
108,312,21000,2,0,L|96:368,2,50,2|2|2,0:0|0:0|0:0,0:0:0:0:
204,256,21600,6,0,P|252:252|304:288,1,99.9999999999999,2|2,0:0|0:0,0:0:0:0:
328,320,22050,2,0,P|376:328|424:304,1,99.9999999999999,2|2,0:0|0:0,0:0:0:0:
456,264,22500,1,2,0:0:0:0:
396,172,22800,2,0,P|388:128|392:64,1,99.9999999999999,2|2,0:0|0:0,0:0:0:0:
408,20,23250,2,0,P|356:40|300:32,1,99.9999999999999,2|2,0:0|0:0,0:0:0:0:
260,24,23700,1,2,0:0:0:0:
172,88,24000,6,0,B|160:124|160:124|156:192,1,99.9999999999999,2|2,0:0|0:0,0:0:0:0:
132,236,24450,2,0,P|192:248|220:328,1,150,2|2,0:0|0:0,0:0:0:0:
288,236,25200,2,0,P|352:224|424:288,1,150,4|2,0:0|0:0,0:0:0:0:
468,296,25800,2,0,L|452:180,1,99.9999999999999,6|8,0:0|0:0,0:0:0:0:
436,88,26400,6,0,B|385:82|385:82|328:96,1,99.9999999999999,6|8,0:0|0:0,0:0:0:0:
256,168,27000,2,0,L|156:152,1,99.9999999999999,2|8,0:0|0:0,0:0:0:0:
116,116,27450,2,0,P|64:128|64:216,1,150,2|8,0:0|0:0,0:0:0:0:
120,304,28200,2,0,L|228:280,1,99.9999999999999,2|8,0:0|0:0,0:0:0:0:
312,228,28800,6,0,P|360:228|408:252,1,99.9999999999999,2|8,0:0|0:0,0:0:0:0:
448,284,29250,2,0,L|432:172,1,99.9999999999999,2|2,0:0|0:0,0:0:0:0:
460,136,29700,1,8,0:0:0:0:
460,136,29850,2,0,B|400:128|400:128|360:116|308:104,1,150,2|8,0:0|0:0,0:0:0:0:
212,148,30600,2,0,L|208:80,2,50,2|2|8,0:0|0:0|0:0,0:0:0:0:
140,232,31200,6,0,L|96:128,1,99.9999999999999,6|8,0:0|0:0,0:0:0:0:
52,116,31650,2,0,P|100:104|136:60,1,99.9999999999999,2|2,0:0|0:0,0:0:0:0:
180,40,32100,1,8,0:0:0:0:
284,80,32400,2,0,L|396:76,1,99.9999999999999,6|8,0:0|0:0,0:0:0:0:
428,44,32850,2,0,P|424:112|448:152,1,99.9999999999999,2|2,0:0|0:0,0:0:0:0:
472,180,33300,1,8,0:0:0:0:
420,276,33600,6,0,L|316:268,1,99.9999999999999,4|8,0:0|0:0,0:0:0:0:
272,296,34050,2,0,P|228:296|180:260,2,99.9999999999999,2|8|2,0:0|0:0|0:0,0:0:0:0:
288,188,34950,1,8,0:0:0:0:
288,188,35100,2,0,L|268:80,1,99.9999999999999,2|0,0:0|0:0,0:0:0:0:
168,52,35700,1,2,0:0:0:0:
92,164,36000,6,0,B|84:212|84:212|116:248|112:328,1,150,6|2,0:0|0:0,0:0:0:0:
88,356,36600,2,0,P|156:336|244:364,1,150,8|2,0:0|0:0,0:0:0:0:
340,336,37350,2,0,L|320:276,2,50,8|2|2,0:0|0:0|0:0,0:0:0:0:
392,352,37800,2,0,P|440:344|460:280,1,99.9999999999999,8|2,0:0|0:0,0:0:0:0:
432,196,38400,6,0,P|420:140|436:92,1,99.9999999999999,2|2,0:0|0:0,0:0:0:0:
460,52,38850,2,0,B|392:64|392:64|352:32|312:28,1,150,2|8,0:0|0:0,0:0:0:0:
256,112,39600,2,0,P|204:96|148:80,1,99.9999999999999,6|8,0:0|0:0,0:0:0:0:
88,164,40200,2,0,P|60:112|44:60,1,99.9999999999999,2|8,0:0|0:0,0:0:0:0:
160,83,40800,5,6,0:0:0:0:
200,188,41100,1,8,0:0:0:0:
308,164,41400,2,0,P|360:168|404:212,1,99.9999999999999,2|8,0:0|0:0,0:0:0:0:
444,224,41850,2,0,L|416:68,1,150,6|8,0:0|0:0,0:0:0:0:
308,68,42600,2,0,L|324:8,2,50,2|2|8,0:0|0:0|0:0,0:0:0:0:
224,140,43200,6,0,L|187:43,1,99.9999999999999,6|8,0:0|0:0,0:0:0:0:
88,88,43800,2,0,L|60:20,2,50,2|2|8,0:0|0:0|0:0,0:0:0:0:
72,140,44250,2,0,P|112:172|116:220,1,99.9999999999999,6|8,0:0|0:0,0:0:0:0:
64,312,44850,2,0,B|92:320|128:356|128:356|172:356|208:336,1,150,6|8,0:0|0:0,0:0:0:0:
308,320,45600,6,0,P|364:304|400:280,1,99.9999999999999,6|2,0:0|0:0,0:0:0:0:
436,244,46050,2,0,P|380:236|340:208,1,99.9999999999999,6|0,0:0|0:0,0:0:0:0:
308,172,46500,2,0,P|364:156|404:112,1,99.9999999999999,6|6,0:0|0:0,0:0:0:0:
432,88,46950,2,0,P|380:80|344:48,1,99.9999999999999,6|2,0:0|0:0,0:0:0:0:
296,24,47400,2,0,L|140:56,1,150,6|2,0:0|0:0,0:0:0:0:
124,104,48000,6,0,B|112:144|112:184|112:184|72:252,2,150,6|12|12,0:0|0:0|0:0,0:0:0:0:
220,160,49200,2,0,L|256:268,1,99.9999999999999,6|12,0:0|0:0,0:0:0:0:
336,328,49800,2,0,L|376:232,1,99.9999999999999,12|2,0:0|0:0,0:0:0:0:
428,140,50400,6,0,P|388:100|340:96,1,99.9999999999999,6|8,0:0|0:0,0:0:0:0:
240,116,51000,2,0,P|192:116|144:80,1,99.9999999999999,2|8,0:0|0:0,0:0:0:0:
52,40,51600,2,0,L|28:160,1,99.9999999999999,2|8,0:0|0:0,0:0:0:0:
124,200,52200,2,0,L|144:304,1,99.9999999999999,2|8,0:0|0:0,0:0:0:0:
248,328,52800,6,0,P|297:332|341:310,1,100,6|8,0:0|0:0,0:0:0:0:
436,252,53400,2,0,L|444:308,2,50,2|2|10,0:0|0:0|0:0,0:0:0:0:
460,204,53850,2,0,P|412:200|384:160,1,99.9999999999999,2|2,0:0|0:0,0:0:0:0:
356,112,54300,2,0,L|248:144,2,99.9999999999999,8|2|8,0:0|0:0|0:0,0:0:0:0:
452,56,55200,6,0,L|344:16,1,99.9999999999999,6|8,0:0|0:0,0:0:0:0:
248,20,55800,2,0,L|140:48,1,100,2|8,0:0|0:0,0:0:0:0:
80,128,56400,2,0,B|104:172|104:172|108:228,1,99.9999999999999,2|8,0:0|0:0,0:0:0:0:
188,316,57000,2,0,L|168:364,2,50,2|2|8,0:0|0:0|0:0,0:0:0:0:
256,228,57600,6,0,P|300:252|332:300,2,99.9999999999999,6|8|2,0:0|0:0|0:0,0:0:0:0:
164,168,58500,1,8,0:0:0:0:
164,168,58650,2,0,B|160:116|160:116|172:52,1,99.9999999999999,6|2,0:0|0:0,0:0:0:0:
212,32,59100,1,8,0:0:0:0:
260,56,59250,2,0,L|380:40,1,99.9999999999999,6|2,0:0|0:0,0:0:0:0:
412,28,59700,1,8,0:0:0:0:
448,132,60000,6,0,B|448:188|448:188|480:224|488:272,1,150,6|2,0:0|0:0,0:0:0:0:
464,320,60600,2,0,L|352:308,1,99.9999999999999,2|8,0:0|0:0,0:0:0:0:
324,272,61050,2,0,P|264:280|220:304,2,99.9999999999999,2|2|2,0:0|0:0|0:0,0:0:0:0:
376,184,61950,2,0,L|360:124,1,50,2|8,0:0|0:0,0:0:0:0:
268,84,62400,6,0,P|212:104|156:96,1,99.9999999999999,2|8,0:0|0:0,0:0:0:0:
136,60,62850,2,0,P|144:112|120:168,1,99.9999999999999,2|2,0:0|0:0,0:0:0:0:
84,192,63300,1,8,0:0:0:0:
84,192,63450,6,0,L|248:228,1,150,6|8,0:0|0:0,0:0:0:0:
336,188,64200,1,6,0:0:0:0:
256,112,64500,1,6,0:0:0:0:
230,224,64800,6,0,B|212:272|212:272|220:324,1,99.9999999999999,6|8,0:0|0:0,0:0:0:0:
204,372,65250,2,0,L|312:340,1,99.9999999999999,2|2,0:0|0:0,0:0:0:0:
352,328,65700,1,8,0:0:0:0:
416,236,66000,2,0,B|412:184|412:184|424:120,1,99.9999999999999,6|8,0:0|0:0,0:0:0:0:
460,100,66450,2,0,L|348:96,1,99.9999999999999,2|2,0:0|0:0,0:0:0:0:
320,60,66900,2,0,L|252:76,1,50,8|2,0:0|0:0,0:0:0:0:
228,108,67200,6,0,P|168:116|116:48,2,150,6|2|8,0:0|0:0|0:0,0:0:0:0:
276,136,68250,2,0,P|284:184|272:252,1,99.9999999999999,6|2,0:0|0:0,0:0:0:0:
280,288,68700,2,0,P|336:296|384:336,2,99.9999999999999,12|6|8,0:0|0:0|0:0,0:0:0:0:
204,208,69600,6,0,L|92:232,1,99.9999999999999,6|8,0:0|0:0,0:0:0:0:
36,144,70200,2,0,L|152:116,1,99.9999999999999,2|8,0:0|0:0,0:0:0:0:
240,88,70800,2,0,P|292:84|340:108,1,99.9999999999999,2|8,0:0|0:0,0:0:0:0:
432,156,71400,2,0,L|456:88,2,50,2|2|8,0:0|0:0|0:0,0:0:0:0:
360,240,72000,6,0,B|356:288|356:288|376:312|388:344,1,99.9999999999999,6|8,0:0|0:0,0:0:0:0:
468,264,72600,2,0,L|480:312,2,50,2|2|8,0:0|0:0|0:0,0:0:0:0:
444,212,73050,2,0,P|432:156|452:100,1,99.9999999999999,2|2,0:0|0:0,0:0:0:0:
468,68,73500,2,0,P|416:64|380:20,2,99.9999999999999,8|2|8,0:0|0:0|0:0,0:0:0:0:
388,144,74400,6,0,L|280:164,1,99.9999999999999,6|8,0:0|0:0,0:0:0:0:
244,264,75000,2,0,L|144:224,1,99.9999999999999,2|8,0:0|0:0,0:0:0:0:
96,132,75600,2,0,P|92:72|136:36,1,99.9999999999999,2|8,0:0|0:0,0:0:0:0:
228,52,76200,2,0,L|212:4,2,50,2|2|8,0:0|0:0|0:0,0:0:0:0:
272,152,76800,6,0,P|324:156|368:120,2,99.9999999999999,6|8|2,0:0|0:0|0:0,0:0:0:0:
164,124,77700,1,8,0:0:0:0:
164,124,77850,2,0,P|156:172|184:232,1,99.9999999999999,6|2,0:0|0:0,0:0:0:0:
212,260,78300,1,8,0:0:0:0:
260,232,78450,2,0,L|376:240,1,99.9999999999999,6|2,0:0|0:0,0:0:0:0:
408,268,78900,1,8,0:0:0:0:
448,168,79200,6,0,B|436:116|436:116|456:76|440:20,1,150,6|2,0:0|0:0,0:0:0:0:
384,20,79800,2,0,P|344:40|288:40,1,99.9999999999999,2|8,0:0|0:0,0:0:0:0:
236,24,80250,2,0,P|184:32|156:80,2,99.9999999999999,2|2|2,0:0|0:0|0:0,0:0:0:0:
296,124,81150,2,0,L|288:192,1,50,2|8,0:0|0:0,0:0:0:0:
240,272,81600,6,0,P|184:268|144:240,1,99.9999999999999,6|8,0:0|0:0,0:0:0:0:
96,264,82050,2,0,P|104:208|92:168,1,99.9999999999999,2|2,0:0|0:0,0:0:0:0:
52,128,82500,1,8,0:0:0:0:
52,128,82650,6,0,L|216:96,1,150,6|8,0:0|0:0,0:0:0:0:
300,144,83400,1,6,0:0:0:0:
212,208,83700,1,12,0:0:0:0:
116,152,84000,6,0,L|88:308,1,150,6|2,0:0|0:0,0:0:0:0:
44,328,84600,2,0,P|92:328|148:364,1,99.9999999999999,8|2,0:0|0:0,0:0:0:0:
188,372,85050,2,0,L|292:360,1,99.9999999999999,2|8,0:0|0:0,0:0:0:0:
336,336,85500,1,2,0:0:0:0:
336,228,85800,2,0,P|276:252|256:148,1,200,8|6,0:0|0:0,0:0:0:0:
452,56,87000,2,0,L|476:276,1,200,2|6,0:0|0:0,0:0:0:0:
256,192,88650,12,0,90000,0:0:0:0:
