osu file format v14

[General]
AudioFilename: Love Live! Sunshine!! OP.mp3
AudioLeadIn: 0
PreviewTime: 49800
Countdown: 0
SampleSet: Soft
StackLeniency: 0.7
Mode: 0
LetterboxInBreaks: 1
WidescreenStoryboard: 0

[Editor]
DistanceSpacing: 0.9
BeatDivisor: 4
GridSize: 4
TimelineZoom: 2.3

[Metadata]
Title:Aozora Jumping Heart
TitleUnicode:青空Jumping Heart
Artist:Aqours
ArtistUnicode:Aqours
Creator:hopperhtkn
Version:Jumping
Source:ラブライブ!サンシャイン!!
Tags:opening love live sunshine!!
BeatmapID:1020071
BeatmapSetID:477503

[Difficulty]
HPDrainRate:5
CircleSize:4
OverallDifficulty:8
ApproachRate:9.6
SliderMultiplier:1.7
SliderTickRate:1

[Events]
//Background and Video events
0,0,"BG.jpg",0,0
Video,-243,"OP.avi"
//Break Periods
//Storyboard Layer 0 (Background)
//Storyboard Layer 1 (Fail)
//Storyboard Layer 2 (Pass)
//Storyboard Layer 3 (Foreground)
//Storyboard Sound Samples

[TimingPoints]
0,300,4,2,1,60,1,0
1200,-133.333333333333,4,2,1,60,0,0
2400,-133.333333333333,4,2,1,60,0,0
6600,-133.333333333333,4,2,1,50,0,0
6900,-133.333333333333,4,2,1,60,0,0
7200,-100,4,2,1,70,0,0
16800,-117.647058823529,4,2,2,60,0,0
16950,-117.647058823529,4,2,1,60,0,0
26400,-100,4,2,1,70,0,0
36000,-117.647058823529,4,2,1,60,0,0
39600,-100,4,2,1,70,0,0
49800,-83.3333333333333,4,2,1,70,0,0
50400,-83.3333333333333,4,2,1,80,0,1
57750,-83.3333333333333,4,2,1,55,0,1
57900,-83.3333333333333,4,2,1,60,0,1
58050,-83.3333333333333,4,2,1,65,0,1
58200,-83.3333333333333,4,2,1,70,0,1
58350,-83.3333333333333,4,2,1,75,0,1
58500,-83.3333333333333,4,2,1,80,0,1
84000,-100,4,2,1,60,0,0
86400,-133.333333333333,4,2,1,60,0,0
89850,-133.333333333333,4,2,1,20,0,0
89925,-133.333333333333,4,2,1,15,0,0
90000,-133.333333333333,4,2,1,10,0,0

[Colours]
Combo1 : 255,242,202
Combo2 : 210,255,210
Combo3 : 217,234,255
Combo4 : 253,210,217

[HitObjects]
240,128,1200,6,0,B|200:128|168:108|168:108|144:168|68:156,2,191.250007295609,2|2|2,0:1|0:1|0:1,0:0:0:0:
373,25,2400,6,0,B|373:121|373:121|361:241,1,191.250007295609,4|0,0:0|0:0,0:0:0:0:
252,288,3000,2,0,P|196:292|132:252,1,127.500004863739
128,140,3450,1,0,0:0:0:0:
364,216,3600,6,0,L|336:352,1,127.500004863739,4|0,0:3|0:0,0:0:0:0:
316,152,4050,1,8,0:3:0:0:
252,288,4200,1,0,0:0:0:0:
260,88,4350,1,8,0:3:0:0:
356,292,4500,2,0,P|312:276|292:212,1,95.6250036478044,4|0,0:3|0:0,0:0:0:0:
288,212,4800,5,6,0:0:0:0:
360,84,4950,1,2,0:0:0:0:
228,128,5100,1,2,0:0:0:0:
368,188,5250,1,2,0:0:0:0:
200,64,5400,1,2,0:0:0:0:
272,260,5550,1,2,0:0:0:0:
360,84,5700,1,2,0:0:0:0:
176,220,5850,1,2,0:0:0:0:
396,300,6000,6,0,L|372:168,1,127.500004863739,6|0,0:0|0:0,0:0:0:0:
352,40,6450,1,0,0:0:0:0:
220,136,6600,1,8,0:0:0:0:
216,116,6675,1,8,0:0:0:0:
212,92,6750,1,8,0:0:0:0:
208,72,6825,1,8,0:0:0:0:
204,52,6900,5,8,0:0:0:0:
176,64,6975,1,8,0:0:0:0:
148,60,7050,1,8,0:0:0:0:
124,44,7125,1,8,0:0:0:0:
116,20,7200,6,0,P|95:77|75:145,1,127.5,2|0,0:0|0:0,0:0:0:0:
40,240,7500,2,0,P|84:248|140:220,1,85,8|0,0:0|0:0,0:0:0:0:
220,136,7800,1,2,0:0:0:0:
80,176,7950,1,2,0:0:0:0:
224,308,8100,2,0,P|228:252|216:208,1,85,8|0,0:0|0:0,0:0:0:0:
144,108,8400,5,2,0:0:0:0:
40,240,8550,1,2,0:0:0:0:
68,56,8700,1,8,0:0:0:0:
220,136,8850,2,0,P|280:136|328:112,1,85,2|0,0:0|0:0,0:0:0:0:
384,92,9150,1,2,0:0:0:0:
192,56,9300,1,8,0:0:0:0:
256,232,9450,1,0,0:0:0:0:
297,36,9600,6,0,P|239:17|192:56,1,127.5,2|0,0:0|0:0,0:0:0:0:
184,84,9900,1,8,0:0:0:0:
256,232,10050,1,0,0:0:0:0:
396,176,10200,2,0,L|384:92,1,85,2|2,0:0|0:0,0:0:0:0:
444,28,10500,1,8,0:0:0:0:
504,188,10650,1,0,0:0:0:0:
334,245,10800,6,0,P|292:251|256:232,1,85,2|0,0:0|0:0,0:0:0:0:
184,84,11100,2,0,P|225:77|262:97,1,85,8|2,0:0|0:0,0:0:0:0:
334,245,11400,1,0,0:0:0:0:
120,152,11550,1,2,0:0:0:0:
284,36,11700,1,8,0:0:0:0:
284,288,11850,1,8,0:0:0:0:
284,288,11925,1,8,0:0:0:0:
284,288,12000,6,0,P|228:300|172:248,1,127.5,6|0,0:0|0:0,0:0:0:0:
164,232,12300,1,8,0:0:0:0:
184,84,12450,1,0,0:0:0:0:
312,172,12600,2,0,L|299:89,1,85,2|2,0:0|0:0,0:0:0:0:
99,49,12900,2,0,L|112:132,1,85,8|2,0:0|0:0,0:0:0:0:
272,240,13200,2,0,P|324:252|380:192,1,127.5,2|0,0:0|0:0,0:0:0:0:
384,180,13500,1,8,0:0:0:0:
164,200,13650,2,0,L|148:292,1,85,2|0,0:0|0:0,0:0:0:0:
184,84,13950,1,2,0:0:0:0:
272,240,14100,1,8,0:0:0:0:
112,140,14250,1,0,0:0:0:0:
38,254,14400,6,0,B|98:238|98:238|138:242|164:236,1,127.5,6|0,0:0|0:0,0:0:0:0:
264,176,14700,2,0,B|204:160|204:160|164:164|138:156,1,127.5,2|0,0:0|0:0,0:0:0:0:
112,140,15000,1,8,0:0:0:0:
360,248,15150,1,8,0:3:0:0:
176,316,15300,1,4,0:3:0:0:
280,68,15450,1,4,0:0:0:0:
256,192,15525,12,4,16500,0:3:0:0:
192,100,16800,6,0,P|148:104|104:120,1,72.2500013780594,4|0,0:0|0:0,0:0:0:0:
68,232,17100,1,2,0:0:0:0:
180,192,17250,1,0,0:0:0:0:
288,300,17400,2,0,L|320:148,1,144.500002756119,2|2,0:0|0:0,0:0:0:0:
264,48,17850,6,0,P|320:76|392:24,1,144.500002756119
480,36,18300,1,2,0:0:0:0:
448,152,18450,1,0,0:0:0:0:
312,136,18600,2,0,P|276:128|240:130,1,72.2500013780594,2|0,0:0|0:0,0:0:0:0:
172,268,18900,2,0,P|208:276|244:274,1,72.2500013780594,2|0,0:0|0:0,0:0:0:0:
412,180,19200,6,0,L|384:56,1,108.375002067089,2|0,0:0|0:0,0:0:0:0:
312,136,19500,2,0,P|272:152|224:144,1,72.2500013780594,2|0,0:0|0:0,0:0:0:0:
132,60,19800,2,0,P|176:44|244:68,1,108.375002067089,2|0,0:0|0:0,0:0:0:0:
276,144,20100,2,0,P|324:156|364:136,1,72.2500013780594,2|0,0:0|0:0,0:0:0:0:
456,92,20400,5,2,0:0:0:0:
408,228,20550,1,0,0:0:0:0:
312,136,20700,1,2,0:0:0:0:
476,184,20850,1,0,0:0:0:0:
328,260,21000,1,2,0:0:0:0:
364,80,21150,1,2,0:0:0:0:
476,184,21300,2,0,P|484:232|476:264,1,72.2500013780594,2|0,0:0|0:0,0:0:0:0:
280,144,21600,6,0,P|272:96|280:64,1,72.2500013780594,2|0,0:0|0:0,0:0:0:0:
368,192,21900,1,2,0:0:0:0:
336,32,22050,1,0,0:0:0:0:
210,157,22200,2,0,P|246:156|280:144,1,72.2500013780594,2|2,0:0|0:0,0:0:0:0:
364,80,22500,1,2,0:0:0:0:
280,220,22650,1,0,0:0:0:0:
160,80,22800,6,0,B|119:85|119:85|80:96,1,72.2500013780594,2|0,0:0|0:0,0:0:0:0:
184,232,23100,1,2,0:0:0:0:
279,144,23250,1,0,0:0:0:0:
76,192,23400,2,0,B|84:232|84:232|92:272,1,72.2500013780594,2|2,0:0|0:0,0:0:0:0:
184,336,23700,1,0,0:0:0:0:
210,157,23850,1,0,0:0:0:0:
400,248,24000,6,0,B|436:244|476:224,1,72.2500013780594,6|0,0:0|0:0,0:0:0:0:
328,176,24300,1,2,0:0:0:0:
256,312,24450,1,0,0:0:0:0:
236,132,24600,2,0,B|240:168|240:168|247:204,1,72.2500013780594,2|2,0:0|0:0,0:0:0:0:
280,24,24900,1,2,0:0:0:0:
328,176,25050,1,0,0:0:0:0:
472,92,25200,5,6,0:0:0:0:
304,104,25350,1,0,0:0:0:0:
504,204,25500,1,2,0:0:0:0:
416,20,25650,1,0,0:0:0:0:
328,176,25800,2,0,L|288:156,1,36.1250006890297,6|0,0:0|0:0,0:0:0:0:
208,128,25950,1,0,0:0:0:0:
184,116,26025,1,0,0:0:0:0:
156,116,26100,1,0,0:0:0:0:
132,132,26175,1,0,0:0:0:0:
120,160,26250,1,0,0:0:0:0:
124,188,26325,1,0,0:0:0:0:
132,216,26400,6,0,P|140:268|132:324,1,85,6|0,0:0|0:0,0:0:0:0:
28,204,26700,1,8,0:0:0:0:
156,116,26850,1,0,0:0:0:0:
232,248,27000,2,0,P|280:240|328:216,1,85,2|2,0:0|0:0,0:0:0:0:
368,112,27300,1,8,0:0:0:0:
480,324,27450,6,0,L|436:152,1,170,2|2,0:0|0:0,0:0:0:0:
280,80,27900,1,8,0:0:0:0:
344,244,28050,1,0,0:0:0:0:
300,72,28200,1,2,0:0:0:0:
472,148,28350,1,2,0:0:0:0:
324,64,28500,2,0,L|232:92,1,85,8|0,0:0|0:0,0:0:0:0:
112,212,28800,5,2,0:0:0:0:
92,68,28950,1,0,0:0:0:0:
228,172,29100,1,8,0:0:0:0:
36,264,29250,2,0,P|24:188|76:132,1,127.5,2|0,0:0|0:0,0:0:0:0:
145,185,29550,2,0,P|187:184|228:172,1,85,2|8,0:0|0:0,0:0:0:0:
320,84,29850,6,0,P|388:80|408:172,1,170,6|0,0:0|0:0,0:0:0:0:
324,188,30300,1,8,0:0:0:0:
200,80,30450,1,0,0:0:0:0:
192,280,30600,1,2,0:0:0:0:
280,116,30750,1,2,0:0:0:0:
120,208,30900,1,8,0:0:0:0:
280,312,31050,1,0,0:0:0:0:
360,140,31200,6,0,P|360:97|339:61,1,85,6|0,0:0|0:0,0:0:0:0:
136,60,31500,1,8,0:0:0:0:
192,224,31650,1,0,0:0:0:0:
280,116,31800,2,0,L|268:24,1,85,2|2,0:0|0:0,0:0:0:0:
108,176,32100,2,0,L|104:276,1,85,8|2,0:0|0:0,0:0:0:0:
392,280,32400,6,0,L|364:160,1,85,6|0,0:0|0:0,0:0:0:0:
316,32,32700,1,8,0:0:0:0:
224,152,32850,2,0,P|302:143|307:65,1,170,2|2,0:0|0:0,0:0:0:0:
172,44,33300,1,8,0:0:0:0:
112,224,33450,1,0,0:0:0:0:
24,120,33600,6,0,L|28:232,1,85,6|0,0:0|0:0,0:0:0:0:
88,28,33900,1,8,0:0:0:0:
224,152,34050,2,0,P|272:156|324:120,1,85,2|0,0:0|0:0,0:0:0:0:
418,39,34350,2,0,P|378:27|336:28,1,85,2|8,0:0|0:0,0:0:0:0:
268,264,34650,6,0,P|320:268|360:160,1,170,6|2,0:0|0:0,0:0:0:0:
332,32,35100,1,8,0:0:0:0:
224,152,35250,1,2,0:0:0:0:
109,115,35400,2,0,B|140:124|164:152|164:152|224:152,1,127.5,2|0,0:0|0:0,0:0:0:0:
123,41,35701,2,0,P|63:54|35:109,1,127.5,2|0,0:0|0:0,0:0:0:0:
89,258,36000,6,0,L|109:115,1,144.500002756119,6|0,0:0|0:0,0:0:0:0:
208,52,36450,1,2,0:0:0:0:
320,120,36600,2,0,L|332:36,2,72.2500013780594,8|0|2,0:0|0:0|0:0,0:0:0:0:
268,208,37050,2,0,B|324:233|369:203|369:203|360:240,1,144.500002756119,2|8,0:0|0:0,0:0:0:0:
176,256,37500,1,0,0:0:0:0:
232,140,37650,1,2,0:0:0:0:
284,292,37800,2,0,P|288:336|276:376,1,72.2500013780594,8|4,0:0|0:3,0:0:0:0:
156,164,38100,2,0,P|152:120|164:80,1,72.2500013780594,8|0,0:3|0:0,0:0:0:0:
356,144,38400,6,0,P|308:172|248:144,1,108.375002067089,2|0,0:0|0:0,0:0:0:0:
232,140,38700,1,0,0:0:0:0:
296,40,38850,1,2,0:0:0:0:
440,124,39000,2,0,L|432:204,1,72.2500013780594,8|0,0:0|0:0,0:0:0:0:
246,210,39300,2,0,L|232:140,1,72.2500013780594,2|2,0:0|0:0,0:0:0:0:
236,104,39525,1,2,0:0:0:0:
248,76,39600,5,6,0:0:0:0:
356,236,39750,1,2,0:0:0:0:
416,48,39900,1,2,0:0:0:0:
232,136,40050,1,2,0:0:0:0:
452,160,40200,1,2,0:0:0:0:
296,40,40350,1,2,0:0:0:0:
246,210,40500,2,0,P|190:238|134:214,1,127.5,8|0,0:0|0:0,0:0:0:0:
64,112,40800,6,0,L|28:220,1,85,6|0,0:0|0:0,0:0:0:0:
80,300,41100,1,8,0:0:0:0:
184,152,41250,1,0,0:0:0:0:
348,204,41400,2,0,P|389:199|447:161,1,85,2|0,0:0|0:0,0:0:0:0:
344,44,41700,1,8,0:0:0:0:
184,152,41850,6,0,P|116:144|112:80,1,127.5,6|0,0:0|0:0,0:0:0:0:
112,60,42150,1,2,0:0:0:0:
275,149,42300,1,8,0:0:0:0:
176,288,42450,2,0,B|128:316|128:316|66:279,1,127.5,2|0,0:0|0:0,0:0:0:0:
48,256,42750,1,2,0:0:0:0:
112,60,42900,1,8,0:0:0:0:
262,189,43050,2,0,L|275:149,1,42.5
344,44,43200,6,0,P|388:44|440:52,1,85,6|0,0:0|0:0,0:0:0:0:
464,168,43500,1,8,0:0:0:0:
328,264,43650,1,0,0:0:0:0:
248,116,43800,1,2,0:0:0:0:
104,248,43950,1,2,0:0:0:0:
68,52,44100,1,8,0:0:0:0:
316,68,44250,6,0,P|328:116|312:164,1,85,6|0,0:0|0:0,0:0:0:0:
240,308,44550,1,2,0:0:0:0:
112,176,44700,1,8,0:0:0:0:
194,92,44850,2,0,P|117:98|112:176,1,170,6|2,0:0|0:0,0:0:0:0:
192,264,45300,1,8,0:0:0:0:
224,244,45375,1,8,0:0:0:0:
256,224,45450,1,8,0:0:0:0:
288,204,45525,1,8,0:0:0:0:
320,184,45600,5,6,0:0:0:0:
168,168,45750,1,2,0:0:0:0:
360,264,45900,1,2,0:0:0:0:
224,92,46050,5,12,0:0:0:0:
164,280,46200,1,2,0:0:0:0:
396,196,46350,1,2,0:0:0:0:
136,96,46500,5,12,0:0:0:0:
292,332,46650,1,2,0:0:0:0:
332,48,46800,1,2,0:0:0:0:
72,228,46950,5,12,0:0:0:0:
396,148,47100,1,2,0:0:0:0:
160,40,47250,1,2,0:0:0:0:
260,340,47400,5,12,0:0:0:0:
492,224,47550,2,0,L|468:124,1,85,2|12,0:0|0:0,0:0:0:0:
444,32,47850,1,0,0:0:0:0:
212,52,48000,6,0,L|96:96,1,85,6|8,0:0|0:0,0:0:0:0:
292,140,48300,1,8,0:0:0:0:
140,252,48450,2,0,L|44:228,1,85,2|8,0:0|0:0,0:0:0:0:
4,136,48750,1,8,0:0:0:0:
248,92,48900,1,2,0:0:0:0:
124,308,49050,1,8,0:0:0:0:
152,128,49200,5,2,0:0:0:0:
392,200,49350,1,12,0:0:0:0:
152,128,49500,1,12,0:0:0:0:
408,72,49650,1,12,0:0:0:0:
212,52,49800,6,0,P|144:32|72:100,1,152.999995330811,2|0,0:0|0:0,0:0:0:0:
28,144,50100,1,8,0:0:0:0:
48,180,50175,1,8,0:0:0:0:
56,220,50250,1,8,0:0:0:0:
52,260,50325,1,8,0:0:0:0:
36,296,50400,6,0,B|80:324|80:324|136:316|224:348,1,152.999995330811,6|0,0:0|0:0,0:0:0:0:
268,368,50700,2,0,P|328:344|336:296,1,101.999996887207,8|0,0:0|0:0,0:0:0:0:
208,112,51000,2,0,P|176:64|264:48,1,152.999995330811,2|0,0:0|0:0,0:0:0:0:
276,40,51300,1,8,0:0:0:0:
384,208,51450,1,0,0:0:0:0:
196,228,51600,6,0,L|88:204,1,101.999996887207,2|0,0:0|0:0,0:0:0:0:
324,132,51900,2,0,L|440:116,1,101.999996887207,8|0,0:0|0:0,0:0:0:0:
280,336,52200,1,2,0:0:0:0:
208,112,52350,1,2,0:0:0:0:
384,208,52500,2,0,P|408:272|404:308,1,101.999996887207,8|0,0:0|0:0,0:0:0:0:
76,148,52800,5,6,0:0:0:0:
276,40,52950,1,0,0:0:0:0:
220,211,53100,2,0,P|205:162|208:112,1,101.999996887207,8|0,0:0|0:0,0:0:0:0:
92,56,53400,1,2,0:0:0:0:
132,264,53550,1,2,0:0:0:0:
296,136,53700,2,0,P|360:136|412:156,1,101.999996887207,8|0,0:0|0:0,0:0:0:0:
208,112,54000,5,2,0:0:0:0:
440,72,54150,2,0,P|468:112|472:188,1,101.999996887207,0|8,0:0|0:0,0:0:0:0:
342,289,54450,2,0,B|275:282|267:218|267:218|307:174|296:136,1,203.999993774414,2|2,0:0|0:0,0:0:0:0:
140,40,54900,1,8,0:0:0:0:
220,211,55050,1,0,0:0:0:0:
400,116,55200,6,0,B|352:80|352:80|304:120|232:120,1,152.999995330811,6|0,0:0|0:0,0:0:0:0:
105,115,55500,2,0,P|99:67|140:40,1,101.999996887207,8|0,0:0|0:0,0:0:0:0:
272,220,55800,2,0,P|252:291|160:292,1,152.999995330811,2|0,0:0|0:0,0:0:0:0:
152,288,56100,1,8,0:0:0:0:
276,104,56250,1,0,0:0:0:0:
452,216,56400,6,0,P|488:160|488:120,1,101.999996887207,2|0,0:0|0:0,0:0:0:0:
192,80,56700,2,0,P|198:130|229:169,1,101.999996887207,8|0,0:0|0:0,0:0:0:0:
416,256,57000,1,2,0:0:0:0:
276,104,57150,1,2,0:0:0:0:
152,288,57300,1,8,0:0:0:0:
348,176,57450,1,0,0:0:0:0:
104,96,57600,5,6,0:0:0:0:
152,220,57750,1,2,0:0:0:0:
204,76,57900,1,8,0:0:0:0:
252,268,58050,1,2,0:0:0:0:
304,56,58200,1,8,0:0:0:0:
352,316,58350,1,2,0:0:0:0:
404,36,58500,1,10,0:0:0:0:
464,358,58650,6,0,B|388:362|336:326|336:326|352:316,1,152.999995330811,6|0,0:0|0:0,0:0:0:0:
364,296,58950,1,2,0:0:0:0:
496,204,59100,1,2,0:0:0:0:
304,56,59250,6,0,L|188:80,1,101.999996887207,6|0,0:0|0:0,0:0:0:0:
52,160,59550,1,2,0:0:0:0:
248,208,59700,1,8,0:0:0:0:
136,36,59850,1,2,0:0:0:0:
192,264,60000,6,8,P|252:286|320:186,1,203.999993774414,2|8,0:0|0:0,0:0:0:0:
164,144,60450,1,0,0:0:0:0:
128,312,60600,1,2,0:0:0:0:
252,128,60750,1,2,0:0:0:0:
76,200,60900,1,8,0:0:0:0:
340,264,61050,6,0,L|340:144,1,101.999996887207,2|0,0:0|0:0,0:0:0:0:
154,42,61350,2,0,L|164:144,1,101.999996887207,2|8,0:0|0:0,0:0:0:0:
392,100,61650,2,0,P|297:94|264:184,1,203.999993774414,2|2,0:0|0:0,0:0:0:0:
184,328,62100,2,0,B|152:292|164:276|164:276|144:264|128:168,1,152.999995330811,8|0,0:0|0:0,0:0:0:0:
124,156,62400,5,2,0:0:0:0:
304,272,62550,1,0,0:0:0:0:
280,96,62700,1,8,0:0:0:0:
76,256,62850,2,0,B|132:256|132:256|196:236,1,101.999996887207,0|2,0:0|0:0,0:0:0:0:
396,200,63150,2,0,B|344:204|344:204|268:176,1,101.999996887207,2|8,0:0|0:0,0:0:0:0:
171,34,63450,6,0,P|244:32|280:96,1,152.999995330811,6|0,0:0|0:0,0:0:0:0:
276,128,63750,1,2,0:0:0:0:
152,272,63900,1,8,0:0:0:0:
88,88,64050,1,2,0:0:0:0:
368,258,64200,6,0,P|432:252|396:200,1,152.999995330811,6|0,0:0|0:0,0:0:0:0:
276,128,64500,2,0,P|220:152|236:84,1,152.999995330811,14|0,0:0|0:0,0:0:0:0:
444,72,64800,6,0,L|296:44,1,101.999996887207,6|0,0:0|0:0,0:0:0:0:
171,34,65100,1,8,0:0:0:0:
296,227,65250,2,0,L|276:128,1,101.999996887207,2|0,0:0|0:0,0:0:0:0:
448,180,65550,1,2,0:0:0:0:
296,320,65700,1,8,0:0:0:0:
276,128,65850,1,0,0:0:0:0:
108,268,66000,6,0,L|60:80,1,152.999995330811,6|0,0:0|0:0,0:0:0:0:
80,84,66300,1,8,0:0:0:0:
276,128,66450,2,0,P|336:132|392:100,1,101.999996887207,2|0,0:0|0:0,0:0:0:0:
312,44,66750,1,2,0:0:0:0:
296,228,66900,1,8,0:0:0:0:
136,100,67050,1,0,0:0:0:0:
108,300,67200,5,6,0:0:0:0:
272,160,67350,1,2,0:0:0:0:
80,84,67500,1,8,0:0:0:0:
200,292,67650,1,2,0:0:0:0:
256,52,67800,1,8,0:0:0:0:
56,184,67950,1,2,0:0:0:0:
264,300,68100,1,8,0:0:0:0:
240,64,68250,6,0,L|72:132,1,152.999995330811,6|0,0:0|0:0,0:0:0:0:
72,144,68550,1,2,0:0:0:0:
200,292,68700,1,8,0:0:0:0:
336,92,68850,1,2,0:0:0:0:
428,240,69000,5,8,0:0:0:0:
428,276,69075,1,8,0:0:0:0:
428,312,69150,1,8,0:0:0:0:
428,348,69225,1,8,0:0:0:0:
392,360,69300,5,8,0:0:0:0:
356,332,69375,1,8,0:0:0:0:
312,328,69450,1,8,0:0:0:0:
268,328,69525,1,8,0:0:0:0:
228,348,69600,6,0,B|152:368|152:368|128:324|84:308,1,152.999995330811,6|0,0:0|0:0,0:0:0:0:
64,188,69900,2,0,P|68:128|108:100,1,101.999996887207,8|0,0:0|0:0,0:0:0:0:
368,56,70200,2,0,P|321:112|250:97,1,152.999995330811,2|0,0:0|0:0,0:0:0:0:
220,76,70500,1,8,0:0:0:0:
140,216,70650,1,0,0:0:0:0:
312,328,70800,6,0,P|332:272|320:208,1,101.999996887207,2|0,0:0|0:0,0:0:0:0:
168,80,71100,2,0,P|148:136|160:200,1,101.999996887207,8|0,0:0|0:0,0:0:0:0:
344,224,71400,1,2,0:0:0:0:
256,52,71550,1,2,0:0:0:0:
120,168,71700,2,0,P|68:184|12:168,1,101.999996887207,8|0,0:0|0:0,0:0:0:0:
104,44,72000,5,6,0:0:0:0:
248,156,72150,1,0,0:0:0:0:
152,324,72300,2,0,P|116:296|104:240,1,101.999996887207,8|0,0:0|0:0,0:0:0:0:
168,80,72600,1,2,0:0:0:0:
40,188,72750,1,2,0:0:0:0:
270,254,72900,2,0,P|266:203|248:156,1,101.999996887207,8|0,0:0|0:0,0:0:0:0:
168,80,73200,5,2,0:0:0:0:
128,264,73350,1,0,0:0:0:0:
336,156,73500,1,8,0:0:0:0:
208,12,73650,2,0,P|132:12|112:132,1,203.999993774414,2|2,0:0|0:0,0:0:0:0:
247,155,74100,1,8,0:0:0:0:
128,264,74250,1,0,0:0:0:0:
68,96,74400,6,0,P|140:76|200:128,1,152.999995330811,6|0,0:0|0:0,0:0:0:0:
320,216,74700,2,0,P|376:212|372:152,1,101.999996887207,8|0,0:0|0:0,0:0:0:0:
208,12,75000,1,2,0:0:0:0:
148,168,75150,1,2,0:0:0:0:
376,76,75300,2,0,L|268:56,1,101.999996887207,8|0,0:0|0:0,0:0:0:0:
244,216,75600,5,2,0:0:0:0:
136,72,75750,1,0,0:0:0:0:
60,308,75900,2,0,L|184:268,1,101.999996887207,8|0,0:0|0:0,0:0:0:0:
244,120,76200,1,2,0:0:0:0:
100,212,76350,1,2,0:0:0:0:
389,177,76500,2,0,L|376:76,1,101.999996887207,8|0,0:0|0:0,0:0:0:0:
200,0,76800,5,6,0:0:0:0:
180,204,76950,1,2,0:0:0:0:
372,100,77100,1,8,0:0:0:0:
136,72,77250,1,2,0:0:0:0:
260,284,77400,1,8,0:0:0:0:
232,60,77550,1,2,0:0:0:0:
64,204,77700,1,8,0:0:0:0:
304,352,77850,6,0,P|336:288|284:208,1,152.999995330811,6|0,0:0|0:0,0:0:0:0:
276,204,78150,1,2,0:0:0:0:
192,100,78300,1,8,0:0:0:0:
100,268,78450,1,6,0:0:0:0:
352,204,78600,1,0,0:0:0:0:
232,60,78750,1,2,0:0:0:0:
240,284,78900,1,8,0:0:0:0:
428,160,79050,1,2,0:0:0:0:
192,100,79200,6,0,B|152:96|112:68|112:68|60:104|80:184,1,203.999993774414,6|8,0:0|0:0,0:0:0:0:
156,272,79650,1,2,0:0:0:0:
288,128,79800,2,0,P|278:78|254:33,2,101.999996887207,0|2|8,0:0|0:0|0:0,0:0:0:0:
376,256,80250,6,0,P|448:264|480:252,1,101.999996887207,2|0,0:0|0:0,0:0:0:0:
416,32,80550,2,0,P|382:69|367:118,1,101.999996887207,2|8,0:0|0:0,0:0:0:0:
208,224,80850,2,0,P|116:236|112:144,1,203.999993774414,2|2,0:0|0:0,0:0:0:0:
164,32,81300,1,8,0:0:0:0:
294,150,81450,1,0,0:0:0:0:
136,292,81600,6,0,B|96:288|76:288|76:288|16:268,2,101.999996887207,2|0|8,0:0|0:0|0:0,0:0:0:0:
400,208,82050,2,0,L|384:96,1,101.999996887207,2|0,0:0|0:0,0:0:0:0:
130,128,82350,2,0,L|164:32,1,101.999996887207,2|8,0:0|0:0,0:0:0:0:
336,44,82650,6,0,P|424:40|452:160,1,203.999993774414,6|2,0:0|0:0,0:0:0:0:
416,320,83100,1,8,0:0:0:0:
294,150,83250,1,2,0:0:0:0:
104,260,83400,6,0,L|260:232,1,152.999995330811,6|0,0:0|0:0,0:0:0:0:
294,150,83700,2,0,P|272:100|188:160,1,152.999995330811,6|0,0:0|0:0,0:0:0:0:
72,152,84000,6,0,L|96:16,1,127.5,6|0,0:0|0:0,0:0:0:0:
116,12,84300,1,0,0:0:0:0:
184,128,84450,1,2,0:0:0:0:
320,68,84600,2,0,P|372:108|356:212,1,170,8|0,0:0|0:0,0:0:0:0:
230,252,85050,6,0,P|219:174|294:150,1,170,2|8,0:0|0:0,0:0:0:0:
464,168,85500,1,2,0:0:0:0:
356,288,85650,1,2,0:0:0:0:
320,68,85800,2,0,P|256:56|192:104,1,127.5,8|0,0:0|0:0,0:0:0:0:
192,136,86100,2,0,P|120:148|68:112,1,127.5,2|0,0:0|0:0,0:0:0:0:
48,32,86400,6,0,B|68:104|28:152|28:152|68:208|44:292,2,255.000009727478,6|0|4,0:0|0:0|0:0,0:0:0:0:
272,44,87900,1,0,0:0:0:0:
272,44,88050,1,0,0:0:0:0:
196,136,88200,2,0,L|220:264,1,127.500004863739
332,132,88650,5,4,0:0:0:0:
256,192,88725,12,0,90000,0:0:0:0:
