osu file format v14

[General]
AudioFilename: Love Live! Sunshine!! OP.mp3
AudioLeadIn: 0
PreviewTime: 49800
Countdown: 0
SampleSet: Soft
StackLeniency: 0.7
Mode: 0
LetterboxInBreaks: 1
WidescreenStoryboard: 0

[Editor]
DistanceSpacing: 0.8
BeatDivisor: 4
GridSize: 4
TimelineZoom: 2.3

[Metadata]
Title:Aozora Jumping Heart
TitleUnicode:青空Jumping Heart
Artist:Aqours
ArtistUnicode:Aqours
Creator:hopperhtkn
Version:Insane
Source:ラブライブ!サンシャイン!!
Tags:opening love live sunshine!!
BeatmapID:1020604
BeatmapSetID:477503

[Difficulty]
HPDrainRate:5
CircleSize:4
OverallDifficulty:7
ApproachRate:9.2
SliderMultiplier:1.6
SliderTickRate:1

[Events]
//Background and Video events
0,0,"BG.jpg",0,0
Video,-243,"OP.avi"
//Break Periods
//Storyboard Layer 0 (Background)
//Storyboard Layer 1 (Fail)
//Storyboard Layer 2 (Pass)
//Storyboard Layer 3 (Foreground)
//Storyboard Sound Samples

[TimingPoints]
0,300,4,2,1,50,1,0
1200,-133.333333333333,4,2,1,50,0,0
2400,-133.333333333333,4,2,1,50,0,0
6600,-133.333333333333,4,2,1,40,0,0
6900,-133.333333333333,4,2,1,50,0,0
7200,-100,4,2,1,60,0,0
16800,-117.647058823529,4,2,2,50,0,0
16950,-117.647058823529,4,2,1,50,0,0
26400,-100,4,2,1,60,0,0
36000,-117.647058823529,4,2,1,50,0,0
39600,-100,4,2,1,60,0,0
49800,-90.9090909090909,4,2,1,60,0,0
50400,-90.9090909090909,4,2,1,70,0,1
57750,-90.9090909090909,4,2,1,45,0,1
57900,-90.9090909090909,4,2,1,50,0,1
58050,-90.9090909090909,4,2,1,55,0,1
58200,-90.9090909090909,4,2,1,60,0,1
58350,-90.9090909090909,4,2,1,65,0,1
58500,-90.9090909090909,4,2,1,70,0,1
79200,-100,4,2,1,70,0,1
84000,-100,4,2,1,50,0,0
86400,-133.333333333333,4,2,1,50,0,0
89850,-133.333333333333,4,2,1,20,0,0
89925,-133.333333333333,4,2,1,15,0,0
90000,-133.333333333333,4,2,1,10,0,0

[Colours]
Combo1 : 255,242,202
Combo2 : 210,255,210
Combo3 : 217,234,255
Combo4 : 253,210,217

[HitObjects]
264,148,1200,6,0,B|256:196|260:240|260:240|240:276|224:324,2,180.000006866455,2|2|2,2:1|0:1|0:1,0:0:0:0:
176,64,2400,6,0,P|100:56|64:160,1,180.000006866455,6|0,0:0|0:0,0:0:0:0:
224,156,3000,2,0,P|272:112|268:44,1,120.000004577637
176,64,3450,1,0,0:0:0:0:
136,180,3600,6,0,P|168:232|240:244,1,120.000004577637,6|0,0:0|0:0,0:0:0:0:
384,144,4050,1,8,0:3:0:0:
384,144,4350,2,0,L|408:216,2,60.0000022888184,8|4|0,0:3|0:3|0:0,0:0:0:0:
256,84,4800,5,2,0:0:0:0:
208,216,4950,1,2,0:0:0:0:
208,216,5100,2,0,L|168:148,1,60.0000022888184,2|2,0:0|0:0,0:0:0:0:
68,84,5400,2,0,L|52:168,1,60.0000022888184,2|2,0:0|0:0,0:0:0:0:
132,276,5700,1,2,0:0:0:0:
132,276,5850,1,2,0:0:0:0:
155,63,6000,6,0,B|103:51|55:71|55:71|83:99,1,120.000004577637,6|0,0:0|0:0,0:0:0:0:
112,176,6450,1,0,0:0:0:0:
256,216,6600,5,8,0:0:0:0:
280,200,6675,1,8,0:0:0:0:
304,192,6750,1,8,0:0:0:0:
332,192,6825,1,8,0:0:0:0:
356,204,6900,1,8,0:0:0:0:
372,224,6975,1,8,0:0:0:0:
396,240,7050,1,8,0:0:0:0:
424,236,7125,1,8,0:0:0:0:
444,220,7200,6,0,P|452:176|444:136,1,80,2|0,0:0|0:0,0:0:0:0:
424,56,7500,2,0,P|356:84|276:52,1,160,8|2,0:0|0:0,0:0:0:0:
152,28,7950,1,2,0:0:0:0:
216,208,8100,2,0,P|208:156|184:108,1,80,8|0,0:0|0:0,0:0:0:0:
140,272,8400,2,0,P|204:312|292:276,1,160,2|8,0:0|0:0,0:0:0:0:
204,128,8850,2,0,P|164:140|140:172,1,80,2|0,0:0|0:0,0:0:0:0:
300,216,9150,1,2,0:0:0:0:
300,116,9300,2,0,L|264:28,1,80,8|0,0:0|0:0,0:0:0:0:
58,85,9600,6,0,B|20:136|20:136|40:188|32:236,2,160,2|8|2,0:0|0:0|0:0,0:0:0:0:
204,128,10350,1,2,0:0:0:0:
124,256,10500,2,0,B|111:178,1,80,8|0,0:0|0:0,0:0:0:0:
219,51,10800,2,0,P|203:95|211:151,1,80,2|0,0:0|0:0,0:0:0:0:
328,204,11100,2,0,P|316:166|290:137,1,80,8|2,0:0|0:0,0:0:0:0:
136,64,11400,1,0,0:0:0:0:
124,256,11550,1,2,0:0:0:0:
320,124,11700,2,0,P|276:124|240:152,1,80,8|0,0:0|0:0,0:0:0:0:
328,204,12000,6,0,P|380:180|388:96,1,120,6|0,0:0|0:0,0:0:0:0:
396,88,12300,1,8,0:0:0:0:
224,168,12450,1,0,0:0:0:0:
336,296,12600,1,2,0:0:0:0:
336,296,12750,1,2,0:0:0:0:
320,124,12900,2,0,L|276:32,1,80,8|2,0:0|0:0,0:0:0:0:
108,32,13200,2,0,P|72:72|64:156,1,120,2|0,0:0|0:0,0:0:0:0:
60,172,13500,1,8,0:0:0:0:
164,248,13650,2,0,B|224:268|224:268|264:236|336:252,1,160,2|2,0:0|0:0,0:0:0:0:
424,264,14100,1,8,0:0:0:0:
292,336,14250,1,0,0:0:0:0:
268,144,14400,6,0,B|268:100|268:100|288:48,1,80,6|0,0:0|0:0,0:0:0:0:
424,224,14700,2,0,B|424:268|424:268|404:324,1,80,2|0,0:0|0:0,0:0:0:0:
176,160,15000,1,8,0:0:0:0:
344,248,15150,1,8,0:3:0:0:
192,356,15300,1,4,0:3:0:0:
268,144,15450,5,4,0:0:0:0:
256,192,15525,12,4,16500,0:3:0:0:
214,89,16800,6,0,B|160:108|116:72|116:72|84:72,2,136.000002593994,4|2|2,0:0|0:0|0:0,0:0:0:0:
324,56,17550,1,0,0:0:0:0:
244,200,17700,1,2,0:0:0:0:
352,164,17850,2,0,P|372:232|360:296,1,136.000002593994
119,231,18300,2,0,P|177:196|244:200,1,136.000002593994,2|2,0:0|0:0,0:0:0:0:
280,300,18750,1,0,0:0:0:0:
147,292,18900,2,0,B|124:255|124:255|119:231,1,68.0000012969971,2|0,0:0|0:0,0:0:0:0:
152,136,19200,6,0,P|88:148|40:76,1,136.000002593994,2|2,0:0|0:0,0:0:0:0:
136,36,19650,1,0,0:0:0:0:
232,92,19800,2,0,B|292:96|292:96|328:80|364:76,1,136.000002593994,2|2,0:0|0:0,0:0:0:0:
488,112,20250,1,0,0:0:0:0:
376,160,20400,2,0,P|356:192|352:228,1,68.0000012969971,2|0,0:0|0:0,0:0:0:0:
472,212,20700,1,2,0:0:0:0:
269,149,20850,2,0,P|256:215|276:280,1,136.000002593994,2|2,0:0|0:0,0:0:0:0:
164,304,21300,6,0,P|104:256|32:272,2,136.000002593994,2|0|2,0:0|0:0|0:0,0:0:0:0:
284,348,22050,1,0,0:0:0:0:
284,348,22200,2,0,L|376:336,1,68.0000012969971,2|2,0:0|0:0,0:0:0:0:
424,200,22500,2,0,L|344:208,1,68.0000012969971,2|0,0:0|0:0,0:0:0:0:
272,232,22800,5,2,0:0:0:0:
408,288,22950,1,0,0:0:0:0:
404,120,23100,2,0,P|396:76|364:48,1,68.0000012969971,2|0,0:0|0:0,0:0:0:0:
228,64,23400,2,0,P|208:91|205:125,1,68.0000012969971,2|2,0:0|0:0,0:0:0:0:
272,232,23700,1,2,0:0:0:0:
228,64,23850,1,0,0:0:0:0:
160,196,24000,6,0,P|91:209|34:167,1,136.000002593994,6|2,0:0|0:0,0:0:0:0:
163,61,24450,2,0,P|196:53|228:64,1,68.0000012969971,0|2,0:0|0:0,0:0:0:0:
232,232,24750,1,2,0:0:0:0:
120,124,24900,1,2,0:0:0:0:
276,160,25050,1,0,0:0:0:0:
144,264,25200,5,6,0:0:0:0:
208,128,25350,1,0,0:0:0:0:
328,236,25500,1,2,0:0:0:0:
360,80,25650,1,0,0:0:0:0:
212,32,25800,6,0,P|181:46|151:61,1,68.0000012969971,6|0,0:0|0:0,0:0:0:0:
124,80,26025,1,0,0:0:0:0:
104,104,26100,1,0,0:0:0:0:
92,132,26175,1,0,0:0:0:0:
92,164,26250,1,0,0:0:0:0:
100,192,26325,1,0,0:0:0:0:
116,224,26400,6,0,P|124:272|116:332,1,80,6|0,0:0|0:0,0:0:0:0:
8,240,26700,1,8,0:0:0:0:
92,132,26850,1,0,0:0:0:0:
212,160,27000,2,0,B|208:236|208:236|248:328,1,160,2|8,0:0|0:0,0:0:0:0:
452,204,27450,2,0,B|372:188|372:188|300:228,1,160,2|0,0:0|0:0,0:0:0:0:
303,226,27900,1,8,0:0:0:0:
396,316,28050,1,0,0:0:0:0:
452,204,28200,2,0,P|436:156|428:116,1,80,2|0,0:0|0:0,0:0:0:0:
284,44,28500,2,0,L|284:80|280:132,1,80,8|0,0:0|0:0,0:0:0:0:
192,280,28800,6,0,P|116:280|96:204,2,160,2|8|2,0:0|0:0|0:0,0:0:0:0:
328,208,29550,1,2,0:0:0:0:
192,280,29700,1,8,0:0:0:0:
168,124,29850,2,0,B|172:84|172:84|180:40,1,80,2|0,0:0|0:0,0:0:0:0:
284,100,30150,1,2,0:0:0:0:
212,216,30300,1,8,0:0:0:0:
76,84,30450,5,0,0:0:0:0:
76,84,30600,2,0,P|68:128|68:184,1,80,2|2,0:0|0:0,0:0:0:0:
92,312,30900,1,8,0:0:0:0:
212,216,31050,1,0,0:0:0:0:
368,300,31200,6,0,P|432:280|424:188,1,160,6|8,0:0|0:0,0:0:0:0:
433,197,31650,1,0,0:0:0:0:
276,316,31800,1,2,0:0:0:0:
276,316,31950,1,2,0:0:0:0:
204,136,32100,1,8,0:0:0:0:
204,136,32250,1,0,0:0:0:0:
88,258,32400,6,0,P|163:274|212:216,1,160,6|8,0:0|0:0,0:0:0:0:
156,52,32850,1,0,0:0:0:0:
136,200,33000,1,2,0:0:0:0:
136,200,33150,1,2,0:0:0:0:
284,144,33300,1,8,0:0:0:0:
100,116,33450,1,0,0:0:0:0:
88,258,33600,6,0,P|104:308|112:364,1,80,6|0,0:0|0:0,0:0:0:0:
28,168,33900,1,8,0:0:0:0:
205,132,34050,2,0,P|245:132|284:144,1,80,2|0,0:0|0:0,0:0:0:0:
356,240,34350,2,0,P|316:248|268:252,1,80,2|8,0:0|0:0,0:0:0:0:
280,32,34650,2,0,P|340:32|372:136,1,160,6|2,0:0|0:0,0:0:0:0:
356,240,35100,1,8,0:0:0:0:
356,240,35400,6,0,L|272:220,1,80,2|2,0:0|0:0,0:0:0:0:
205,132,35700,2,0,L|113:156,1,80,2|0,0:0|0:0,0:0:0:0:
80,300,36000,6,0,P|148:292|156:212,1,136.000002593994,6|2,0:0|0:0,0:0:0:0:
166,234,36450,1,2,0:0:0:0:
64,144,36600,2,0,P|72:188|84:240,1,68.0000012969971,8|0,0:0|0:0,0:0:0:0:
166,234,36900,1,0,0:0:0:0:
116,80,37050,1,2,0:0:0:0:
116,80,37350,6,0,L|40:52,2,68.0000012969971,8|0|0,0:0|0:0|0:0,0:0:0:0:
264,132,37800,1,8,0:0:0:0:
264,132,37950,1,0,0:0:0:0:
188,168,38100,2,0,P|188:96|248:48,2,136.000002593994,2|2|2,0:0|0:0|0:0,0:0:0:0:
188,168,38850,1,0,0:0:0:0:
328,153,39000,2,0,L|264:132,1,68.0000012969971,8|0,0:0|0:0,0:0:0:0:
116,80,39300,1,2,0:0:0:0:
136,248,39450,1,2,0:0:0:0:
136,248,39525,1,2,0:0:0:0:
136,248,39600,6,0,P|172:264|224:256,1,80,2|2,0:0|0:0,0:0:0:0:
328,153,39900,2,0,P|292:137|240:145,1,80,2|2,0:0|0:0,0:0:0:0:
68,192,40200,1,2,0:0:0:0:
68,192,40350,1,2,0:0:0:0:
212,304,40500,2,0,P|228:236|188:172,1,120,2|0,0:0|0:0,0:0:0:0:
200,164,40800,6,0,P|240:148|299:157,1,80,6|0,0:0|0:0,0:0:0:0:
376,276,41100,2,0,P|336:292|276:276,1,80,8|0,0:0|0:0,0:0:0:0:
136,216,41400,2,0,P|128:128|204:80,1,160,2|8,0:0|0:0,0:0:0:0:
328,56,41850,1,6,0:0:0:0:
328,56,42150,5,2,0:0:0:0:
352,160,42300,1,8,0:0:0:0:
376,276,42450,2,0,P|304:312|232:244,1,160,2|0,0:0|0:0,0:0:0:0:
352,160,42900,1,8,0:0:0:0:
192,84,43050,1,2,0:0:0:0:
192,84,43125,1,2,0:0:0:0:
192,84,43200,6,0,B|172:176,1,80,6|0,0:0|0:0,0:0:0:0:
369,238,43500,2,0,L|352:160,1,80,8|0,0:0|0:0,0:0:0:0:
328,56,43800,1,2,0:0:0:0:
264,196,43950,1,2,0:0:0:0:
448,124,44100,1,8,0:0:0:0:
300,36,44250,6,0,L|208:56,1,80,6|0,0:0|0:0,0:0:0:0:
72,112,44550,1,2,0:0:0:0:
72,112,44700,1,8,0:0:0:0:
192,188,44850,2,0,P|116:204|120:284,1,160,6|2,0:0|0:0,0:0:0:0:
308,220,45300,1,8,0:0:0:0:
296,192,45375,1,8,0:0:0:0:
284,164,45450,1,8,0:0:0:0:
272,132,45525,1,8,0:0:0:0:
260,104,45600,5,6,0:0:0:0:
192,188,45750,1,2,0:0:0:0:
192,188,45900,1,2,0:0:0:0:
344,84,46050,5,12,0:0:0:0:
308,220,46200,1,2,0:0:0:0:
308,220,46350,1,2,0:0:0:0:
180,96,46500,5,12,0:0:0:0:
232,268,46650,1,2,0:0:0:0:
232,268,46800,1,2,0:0:0:0:
380,168,46950,5,12,0:0:0:0:
192,188,47100,1,2,0:0:0:0:
192,188,47250,1,2,0:0:0:0:
272,48,47400,5,12,0:0:0:0:
308,220,47550,2,0,L|280:320,1,80,2|12,0:0|0:0,0:0:0:0:
324,120,47850,1,0,0:0:0:0:
180,96,48000,6,0,L|72:96,1,80,6|8,0:0|0:0,0:0:0:0:
324,120,48300,1,8,0:0:0:0:
227,259,48450,2,0,L|191:187,1,80,6|8,0:0|0:0,0:0:0:0:
272,48,48750,1,8,0:0:0:0:
308,220,48900,1,6,0:0:0:0:
180,96,49050,1,8,0:0:0:0:
384,56,49200,5,2,0:0:0:0:
384,56,49350,1,12,0:0:0:0:
440,236,49500,1,12,0:0:0:0:
440,236,49650,1,12,0:0:0:0:
280,152,49800,6,0,P|208:136|144:184,1,132.00000402832,2|0,0:0|0:0,0:0:0:0:
132,188,50100,1,8,0:0:0:0:
96,196,50175,1,8,0:0:0:0:
60,192,50250,1,8,0:0:0:0:
36,168,50325,1,8,0:0:0:0:
40,136,50400,6,0,B|8:188|8:188|36:244|-12:328,2,176.000005371094,6|8|2,0:0|0:0|0:0,0:0:0:0:
124,32,51150,1,2,0:0:0:0:
256,152,51300,2,0,P|300:152|372:132,1,88.000002685547,8|0,0:0|0:0,0:0:0:0:
224,44,51600,1,2,0:0:0:0:
224,44,51750,1,2,0:0:0:0:
152,180,51900,2,0,P|160:222|182:260,1,88.000002685547,8|0,0:0|0:0,0:0:0:0:
256,152,52200,1,2,0:0:0:0:
136,280,52350,1,2,0:0:0:0:
40,132,52500,2,0,P|40:84|60:44,1,88.000002685547,8|0,0:0|0:0,0:0:0:0:
256,124,52800,6,0,P|204:160|116:100,2,176.000005371094,6|8|2,0:0|0:0|0:0,0:0:0:0:
224,44,53550,1,2,0:0:0:0:
396,88,53700,2,0,P|392:132|384:188,1,88.000002685547,8|0,0:0|0:0,0:0:0:0:
204,272,54000,1,2,0:0:0:0:
204,272,54150,1,0,0:0:0:0:
256,124,54300,1,8,0:0:0:0:
420,164,54450,2,0,P|352:156|328:52,1,176.000005371094,2|2,0:0|0:0,0:0:0:0:
396,88,54900,1,8,0:0:0:0:
352,244,55050,1,0,0:0:0:0:
208,184,55200,6,0,P|140:188|112:284,2,176.000005371094,6|8|2,0:0|0:0|0:0,0:0:0:0:
352,244,55950,1,2,0:0:0:0:
221,271,56100,2,0,L|208:184,1,88.000002685547,8|0,0:0|0:0,0:0:0:0:
80,80,56400,2,0,L|64:184,1,88.000002685547,2|0,0:0|0:0,0:0:0:0:
296,208,56700,1,8,0:0:0:0:
296,208,56850,2,0,P|372:188|360:92,1,176.000005371094,2|2,0:0|0:0,0:0:0:0:
220,136,57300,1,8,0:0:0:0:
132,280,57450,1,0,0:0:0:0:
80,80,57600,5,6,0:0:0:0:
4,196,57750,1,2,0:0:0:0:
220,136,57900,1,8,0:0:0:0:
248,276,58050,1,2,0:0:0:0:
124,164,58200,1,8,0:0:0:0:
144,348,58350,1,2,0:0:0:0:
296,208,58500,1,10,0:0:0:0:
124,164,58650,6,0,B|68:172|24:200|24:200|56:224|60:268,1,176.000005371094,6|2,0:0|0:0,0:0:0:0:
144,348,59100,1,2,0:0:0:0:
240,221,59250,2,0,L|220:136,1,88.000002685547,6|0,0:0|0:0,0:0:0:0:
72,72,59550,1,2,0:0:0:0:
8,248,59700,1,8,0:0:0:0:
124,164,59850,1,2,0:0:0:0:
221,270,60000,6,8,P|288:268|316:168,1,176.000005371094,2|8,0:0|0:0,0:0:0:0:
319,176,60450,1,0,0:0:0:0:
192,132,60600,1,2,0:0:0:0:
192,132,60750,1,2,0:0:0:0:
264,324,60900,1,8,0:0:0:0:
412,268,61050,6,0,L|396:172,1,88.000002685547,2|0,0:0|0:0,0:0:0:0:
224,116,61350,2,0,L|240:220,1,88.000002685547,2|8,0:0|0:0,0:0:0:0:
447,114,61650,2,0,P|364:105|319:176,1,176.000005371094,2|2,0:0|0:0,0:0:0:0:
473,198,62100,2,0,L|446:114,1,88.000002685547,8|0,0:0|0:0,0:0:0:0:
280,36,62400,5,2,0:0:0:0:
280,36,62550,1,0,0:0:0:0:
216,200,62700,1,8,0:0:0:0:
88,120,62850,2,0,P|128:104|192:104,1,88.000002685547,2|0,0:0|0:0,0:0:0:0:
300,180,63150,2,0,P|259:197|216:200,1,88.000002685547,2|8,0:0|0:0,0:0:0:0:
140,28,63450,6,0,P|217:34|249:130,1,176.000005371094,6|2,0:0|0:0,0:0:0:0:
132,208,63900,1,8,0:0:0:0:
132,208,64050,1,2,0:0:0:0:
24,96,64200,6,0,L|-4:208,1,88.000002685547,6|0,0:0|0:0,0:0:0:0:
153,293,64500,2,0,L|132:208,1,88.000002685547,6|0,0:0|0:0,0:0:0:0:
220,112,64800,2,0,P|276:112|304:228,1,176.000005371094,6|8,0:0|0:0,0:0:0:0:
248,308,65250,2,0,L|228:212,1,88.000002685547,2|0,0:0|0:0,0:0:0:0:
220,112,65550,1,2,0:0:0:0:
392,208,65700,2,0,L|412:108,1,88.000002685547,8|0,0:0|0:0,0:0:0:0:
340,24,66000,6,0,L|160:48,1,176.000005371094,6|8,0:0|0:0,0:0:0:0:
165,47,66450,1,2,0:0:0:0:
68,156,66600,2,0,P|112:176|172:176,1,88.000002685547,0|2,0:0|0:0,0:0:0:0:
220,112,66900,1,8,0:0:0:0:
56,44,67050,1,0,0:0:0:0:
56,44,67125,1,0,0:0:0:0:
56,44,67200,5,6,0:0:0:0:
68,156,67350,1,2,0:0:0:0:
180,268,67500,1,8,0:0:0:0:
220,112,67650,1,2,0:0:0:0:
76,248,67800,5,8,0:0:0:0:
152,80,67950,1,2,0:0:0:0:
264,328,68100,1,8,0:0:0:0:
304,88,68250,6,0,P|380:88|420:176,1,176.000005371094,6|2,0:0|0:0,0:0:0:0:
326,269,68700,2,0,P|314:227|308:184,1,88.000002685547,8|2,0:0|0:0,0:0:0:0:
220,112,69000,6,0,L|168:128,3,44.0000013427735,8|8|8|8,0:0|0:0|0:0|0:0,0:0:0:0:
84,176,69300,2,0,L|153:201,1,44.0000013427735,8|8,0:0|0:0,0:0:0:0:
216,240,69450,2,0,L|152:272,1,44.0000013427735,8|8,0:0|0:0,0:0:0:0:
48,256,69600,6,0,P|2:183|40:100,1,176.000005371094,6|8,0:0|0:0,0:0:0:0:
160,72,70050,1,0,0:0:0:0:
268,172,70200,2,0,P|312:172|368:144,1,88.000002685547,2|2,0:0|0:0,0:0:0:0:
292,92,70500,1,8,0:0:0:0:
216,240,70650,1,0,0:0:0:0:
104,132,70800,5,2,0:0:0:0:
104,132,70950,1,2,0:0:0:0:
280,88,71100,1,8,0:0:0:0:
208,248,71250,1,0,0:0:0:0:
96,136,71400,2,0,P|68:88|76:36,1,88.000002685547,2|2,0:0|0:0,0:0:0:0:
268,84,71700,2,0,P|265:127|240:163,1,88.000002685547,8|2,0:0|0:0,0:0:0:0:
200,44,72000,6,0,P|276:8|344:80,2,176.000005371094,6|8|2,0:0|0:0|0:0,0:0:0:0:
96,136,72750,1,2,0:0:0:0:
282,173,72900,2,0,P|281:129|268:88,1,88.000002685547,8|0,0:0|0:0,0:0:0:0:
184,184,73200,5,2,0:0:0:0:
184,184,73350,1,0,0:0:0:0:
328,280,73500,1,8,0:0:0:0:
394,90,73650,2,0,P|310:95|282:173,1,176.000005371094,2|2,0:0|0:0,0:0:0:0:
420,174,74100,2,0,L|394:90,1,88.000002685547,8|0,0:0|0:0,0:0:0:0:
200,48,74400,6,0,P|104:64|84:140,2,176.000005371094,6|8|2,0:0|0:0|0:0,0:0:0:0:
304,120,75150,1,2,0:0:0:0:
200,220,75300,2,0,L|164:104,1,88.000002685547,8|0,0:0|0:0,0:0:0:0:
64,224,75600,2,0,L|44:328,1,88.000002685547,2|2,0:0|0:0,0:0:0:0:
260,292,75900,1,8,0:0:0:0:
260,292,76050,2,0,P|340:296|376:212,1,176.000005371094,2|2,0:0|0:0,0:0:0:0:
304,120,76500,2,0,L|284:220,1,88.000002685547,8|0,0:0|0:0,0:0:0:0:
156,140,76800,5,6,0:0:0:0:
200,48,76950,1,2,0:0:0:0:
344,160,77100,1,8,0:0:0:0:
256,28,77250,1,2,0:0:0:0:
244,216,77400,1,8,0:0:0:0:
336,68,77550,1,2,0:0:0:0:
156,140,77700,1,8,0:0:0:0:
296,280,77850,6,0,P|328:208|268:136,1,176.000005371094,6|2,0:0|0:0,0:0:0:0:
273,137,78300,1,8,0:0:0:0:
212,308,78450,1,6,0:0:0:0:
212,308,78600,1,0,0:0:0:0:
156,140,78750,1,2,0:0:0:0:
96,272,78900,1,8,0:0:0:0:
244,216,79050,1,2,0:0:0:0:
196,64,79200,6,0,P|112:64|76:144,1,160,6|8,0:0|0:0,0:0:0:0:
96,272,79650,1,2,0:0:0:0:
244,216,79800,2,0,L|272:116,2,80,0|2|8,0:0|0:0|0:0,0:0:0:0:
336,296,80250,6,0,P|412:288|416:192,1,160,2|2,0:0|0:0,0:0:0:0:
388,116,80700,1,8,0:0:0:0:
305,222,80850,2,0,L|336:296,2,80,2|0|2,0:0|0:0|0:0,0:0:0:0:
208,124,81300,2,0,L|180:224,1,80,8|0,0:0|0:0,0:0:0:0:
100,320,81600,6,0,P|44:324|8:228,1,160,2|8,0:0|0:0,0:0:0:0:
64,92,82050,2,0,L|77:171,1,80,2|0,0:0|0:0,0:0:0:0:
208,124,82350,2,0,L|224:24,1,80,2|8,0:0|0:0,0:0:0:0:
348,76,82650,6,0,P|420:88|432:180,1,160,6|2,0:0|0:0,0:0:0:0:
440,163,83100,1,8,0:0:0:0:
368,264,83250,1,2,0:0:0:0:
256,200,83400,2,0,B|188:208|188:208|96:244,2,160,6|2|6,0:0|0:0|0:0,0:0:0:0:
320,68,84300,5,2,0:0:0:0:
184,128,84450,1,2,0:0:0:0:
320,68,84600,2,0,P|364:132|340:212,1,160,8|0,0:0|0:0,0:0:0:0:
232,248,85050,2,0,P|221:170|286:148,1,160,2|8,0:0|0:0,0:0:0:0:
286,148,85500,1,2,0:0:0:0:
292,308,85650,1,2,0:0:0:0:
392,188,85800,2,0,L|352:32,1,160,8|2,0:0|0:0,0:0:0:0:
208,92,86400,6,0,B|152:108|112:136|112:136|76:72|4:60,2,240.000009155274,6|0|6,0:0|0:0|0:0,0:0:0:0:
252,188,87900,1,0,0:0:0:0:
252,188,88050,1,0,0:0:0:0:
188,324,88200,2,0,L|152:204,1,120.000004577637
208,92,88650,5,4,0:0:0:0:
256,192,88725,12,0,90000,0:0:0:0:
