osu file format v14

[General]
AudioFilename: Love Live! Sunshine!! OP.mp3
AudioLeadIn: 0
PreviewTime: 49800
Countdown: 0
SampleSet: Soft
StackLeniency: 0.7
Mode: 0
LetterboxInBreaks: 1
WidescreenStoryboard: 1

[Editor]
DistanceSpacing: 1.5
BeatDivisor: 4
GridSize: 4
TimelineZoom: 2.3

[Metadata]
Title:Aozora Jumping Heart
TitleUnicode:青空Jumping Heart
Artist:Aqours
ArtistUnicode:Aqours
Creator:hopperhtkn
Version:Hard
Source:ラブライブ!サンシャイン!!
Tags:opening love live sunshine!!
BeatmapID:1020902
BeatmapSetID:477503

[Difficulty]
HPDrainRate:6
CircleSize:4
OverallDifficulty:6
ApproachRate:8
SliderMultiplier:1.4
SliderTickRate:1

[Events]
//Background and Video events
0,0,"BG.jpg",0,0
Video,-243,"OP.avi"
//Break Periods
//Storyboard Layer 0 (Background)
//Storyboard Layer 1 (Fail)
//Storyboard Layer 2 (Pass)
//Storyboard Layer 3 (Foreground)
//Storyboard Sound Samples

[TimingPoints]
0,300,4,2,1,50,1,0
1200,-133.333333333333,4,2,1,50,0,0
2400,-133.333333333333,4,2,1,50,0,0
6600,-100,4,2,1,40,0,0
6900,-100,4,2,1,50,0,0
7200,-100,4,2,1,60,0,0
16800,-117.647058823529,4,2,2,50,0,0
16950,-117.647058823529,4,2,1,50,0,0
26400,-100,4,2,1,60,0,0
36000,-100,4,2,1,50,0,0
39600,-100,4,2,1,60,0,0
49800,-100,4,2,1,60,0,0
50400,-90.9090909090909,4,2,1,70,0,1
57750,-90.9090909090909,4,2,1,45,0,1
57900,-90.9090909090909,4,2,1,50,0,1
58050,-90.9090909090909,4,2,1,55,0,1
58200,-90.9090909090909,4,2,1,60,0,1
58350,-90.9090909090909,4,2,1,65,0,1
58500,-90.9090909090909,4,2,1,70,0,1
84000,-100,4,2,1,50,0,0
86400,-133.333333333333,4,2,1,50,0,0
89850,-133.333333333333,4,2,1,20,0,0
89925,-133.333333333333,4,2,1,15,0,0
90000,-133.333333333333,4,2,1,10,0,0

[Colours]
Combo1 : 255,242,202
Combo2 : 210,255,210
Combo3 : 217,234,255
Combo4 : 253,210,217

[HitObjects]
192,104,1200,6,0,P|132:124|80:56,2,157.500006008148,2|2|2,0:1|0:1|0:1,0:0:0:0:
256,192,2400,1,6,0:0:0:0:
256,192,3000,6,0,B|248:236|248:236|264:264|260:312,1,105.000004005432
180,292,3450,1,0,0:0:0:0:
180,292,3600,6,0,L|60:264,1,105.000004005432,6|0,0:0|0:0,0:0:0:0:
32,192,4050,2,0,P|84:164|84:100,1,105.000004005432,8|4,3:3|0:3,0:0:0:0:
152,48,4500,2,0,L|184:112,1,52.5000020027161,4|0,0:3|0:0,0:0:0:0:
172,184,4800,6,0,P|176:221|184:248,1,52.5000020027161,6|2,0:0|0:0,0:0:0:0:
280,264,5100,2,0,P|272:216|272:200,1,52.5000020027161,2|2,0:0|0:0,0:0:0:0:
344,136,5400,2,0,P|348:164|352:196,1,52.5000020027161,2|2,0:0|0:0,0:0:0:0:
456,204,5700,2,0,P|452:172|444:144,1,52.5000020027161,2|2,0:0|0:0,0:0:0:0:
440,52,6000,6,0,P|384:80|296:40,1,157.500006008148,6|2,0:0|0:0,0:0:0:0:
216,24,6600,2,0,L|164:40,3,35,8|8|8|8,0:0|0:0|0:0|0:0,0:0:0:0:
160,116,6900,2,0,L|116:104,3,35,8|8|8|8,0:0|0:0|0:0|0:0,0:0:0:0:
48,48,7200,6,0,L|28:172,1,105,6|0,0:0|0:0,0:0:0:0:
8,220,7500,2,0,P|40:224|88:196,1,70,8|0,0:0|0:0,0:0:0:0:
132,148,7800,2,0,P|168:152|200:180,1,70,2|2,0:0|0:0,0:0:0:0:
256,232,8100,2,0,P|304:236|324:224,1,70,8|2,0:0|0:0,0:0:0:0:
336,140,8400,6,0,L|320:64,2,70,2|2|8,0:0|0:0|0:0,0:0:0:0:
392,212,8850,2,0,P|448:216|476:144,1,140,2|2,0:0|0:0,0:0:0:0:
476,56,9300,2,0,L|408:84,1,70,8|2,0:0|0:0,0:0:0:0:
336,140,9600,6,0,P|276:160|232:80,2,140,2|8|2,0:0|0:0|0:0,0:0:0:0:
340,48,10350,1,0,0:0:0:0:
252,16,10500,2,0,L|160:40,1,70,8|0,0:0|0:0,0:0:0:0:
124,108,10800,6,0,P|84:96|48:84,1,70,2|2,0:0|0:0,0:0:0:0:
4,168,11100,1,8,0:0:0:0:
4,168,11250,2,0,L|40:312,1,140,2|0,0:0|0:0,0:0:0:0:
136,300,11700,2,0,P|172:299|212:320,1,70,8|0,0:0|0:0,0:0:0:0:
272,356,12000,6,0,L|420:328,1,140,6|8,0:0|0:0,0:0:0:0:
484,268,12450,1,0,0:0:0:0:
392,184,12600,2,0,L|408:272,1,70,2|2,0:0|0:0,0:0:0:0:
300,196,12900,2,0,L|320:112,1,70,8|2,0:0|0:0,0:0:0:0:
296,32,13200,6,0,P|228:24|200:104,1,140,2|8,0:0|0:0,0:0:0:0:
184,176,13650,2,0,P|152:212|56:184,1,140,2|2,0:0|0:0,0:0:0:0:
40,116,14100,1,8,0:0:0:0:
8,232,14250,1,2,0:0:0:0:
184,176,14400,6,0,P|188:100|132:48,2,140,6|8|2,0:0|0:0|0:0,0:0:0:0:
8,232,15300,1,8,0:0:0:0:
8,232,15450,2,0,B|52:224|80:204|80:204|132:320|264:276,1,280,6|0,0:0|0:0,0:0:0:0:
184,192,16350,2,0,L|176:156,2,35,2|2|2,0:0|0:0|0:0,0:0:0:0:
276,124,16800,6,0,L|312:264,2,119.000002269745,4|2|0,0:0|0:0|0:0,0:0:0:0:
200,152,17700,1,2,0:0:0:0:
200,152,17850,2,0,P|216:64|296:44,1,178.500003404617,0|2,0:0|0:0,0:0:0:0:
404,80,18450,1,0,0:0:0:0:
334,135,18600,2,0,L|254:119,2,59.5000011348725,2|0|2,0:0|0:0|0:0,0:0:0:0:
448,44,19200,6,0,B|384:40|384:40|328:56,1,119.000002269745,2|2,0:0|0:0,0:0:0:0:
275,123,19650,1,0,0:0:0:0:
275,123,19800,2,0,B|211:127|211:127|155:111,1,119.000002269745,2|2,0:0|0:0,0:0:0:0:
88,56,20250,2,0,L|64:188,1,119.000002269745,2|2,0:0|0:0,0:0:0:0:
16,248,20700,2,0,P|72:256|96:328,1,119.000002269745,2|2,0:0|0:0,0:0:0:0:
180,344,21150,1,2,0:0:0:0:
252,292,21300,2,0,P|244:252|240:216,1,59.5000011348725,2|0,0:0|0:0,0:0:0:0:
260,128,21600,6,0,P|316:128|348:192,1,119.000002269745,2|2,0:0|0:0,0:0:0:0:
336,264,22050,1,0,0:0:0:0:
252,292,22200,2,0,L|168:280,1,59.5000011348725,2|2,0:0|0:0,0:0:0:0:
108,228,22500,2,0,L|44:252,1,59.5000011348725,2|0,0:0|0:0,0:0:0:0:
148,308,22800,6,0,P|192:264|180:192,1,119.000002269745,2|2,0:0|0:0,0:0:0:0:
152,132,23250,1,0,0:0:0:0:
64,128,23400,2,0,L|76:196,1,59.5000011348725,2|2,0:0|0:0,0:0:0:0:
152,132,23700,2,0,L|168:68,1,59.5000011348725
284,40,24000,6,0,P|340:40|376:100,2,119.000002269745,6|2|2,0:0|0:0|0:0,0:0:0:0:
264,128,24750,1,2,0:0:0:0:
360,184,24900,2,0,P|395:179|427:156,1,59.5000011348725,2|0,0:0|0:0,0:0:0:0:
472,80,25200,5,6,0:0:0:0:
472,80,25350,2,0,L|448:12,2,59.5000011348725,0|2|2,0:0|0:0|0:0,0:0:0:0:
360,56,25800,2,0,L|304:148,1,89.2500017023087,6|0,0:0|0:0,0:0:0:0:
264,128,26100,2,0,L|224:116,3,29.7500005674362,2|2|2|2,0:0|0:0|0:0|0:0,0:0:0:0:
192,80,26400,6,0,P|124:88|108:160,2,140,6|8|2,0:0|0:0|0:0,0:0:0:0:
264,128,27150,2,0,P|280:172|276:216,1,70,2|8,0:0|0:0,0:0:0:0:
216,280,27450,2,0,P|148:280|112:216,1,140,2|2,0:0|0:0,0:0:0:0:
112,224,27900,2,0,P|124:184|140:148,1,70,8|0,0:0|0:0,0:0:0:0:
192,80,28200,2,0,P|216:116|228:160,1,70,2|2,0:0|0:0,0:0:0:0:
312,196,28500,6,0,P|376:200|412:132,2,140,8|2|8,0:0|0:0|0:0,0:0:0:0:
224,141,29250,2,0,P|188:148|144:161,1,70,0|2,0:0|0:0,0:0:0:0:
76,244,29550,2,0,P|112:252|164:260,1,70,2|8,0:0|0:0,0:0:0:0:
256,212,29850,6,0,P|300:160|276:84,1,140,6|2,0:0|0:0,0:0:0:0:
208,44,30300,1,8,0:0:0:0:
128,104,30450,2,0,B|88:96|88:96|48:84,2,70,0|2|2,0:0|0:0|0:0,0:0:0:0:
208,44,30900,2,0,B|244:40|244:40|292:40,1,70,8|0,0:0|0:0,0:0:0:0:
356,132,31200,6,0,P|416:152|456:84,1,140,6|8,0:0|0:0,0:0:0:0:
464,76,31650,2,0,L|492:216,1,140,2|2,0:0|0:0,0:0:0:0:
424,304,32100,1,8,0:0:0:0:
424,304,32400,6,0,B|364:304|324:276|324:276|288:288,1,140,4|8,0:0|0:0,0:0:0:0:
204,336,32850,2,0,P|140:332|120:256,1,140,2|2,0:0|0:0,0:0:0:0:
132,144,33300,1,8,0:0:0:0:
17,179,33600,6,0,P|65:132|132:144,1,140,6|8,0:0|0:0,0:0:0:0:
200,216,34050,2,0,P|264:224|292:144,2,140,2|8|6,0:0|0:0|0:0,0:0:0:0:
132,144,34950,1,2,0:0:0:0:
132,144,35100,2,0,L|152:68,1,70,2|2,0:0|0:0,0:0:0:0:
228,24,35400,6,0,P|284:60|272:148,2,140,2|0|6,0:0|0:0|0:0,0:0:0:0:
224,180,36300,2,0,P|252:200|312:204,1,70,0|2,0:0|0:0,0:0:0:0:
386,142,36600,2,0,P|322:146|286:214,1,140,8|0,0:0|0:0,0:0:0:0:
232,276,37050,2,0,P|164:296|112:244,1,140,2|8,0:0|0:0,0:0:0:0:
84,168,37500,2,0,L|96:96,2,70,2|0|8,0:0|0:0|0:0,0:0:0:0:
184,128,37950,1,0,0:0:0:0:
184,128,38100,2,0,L|176:52,1,70,2|0,0:0|0:0,0:0:0:0:
268,40,38400,6,0,P|332:44|352:128,1,140,2|2,0:0|0:0,0:0:0:0:
324,196,38850,1,2,0:0:0:0:
324,196,39000,2,0,B|392:180|392:180|476:168,2,140,8|2|6,0:0|0:0|0:0,0:0:0:0:
236,252,39750,1,2,0:0:0:0:
236,252,39900,2,0,L|144:224,1,70,2|2,0:0|0:0,0:0:0:0:
48,156,40200,2,0,L|28:248,1,70,6|0,0:0|0:0,0:0:0:0:
144,172,40500,2,0,L|128:104,1,70,12|0,0:0|0:0,0:0:0:0:
200,40,40800,6,0,P|268:48|280:128,2,140,6|8|2,0:0|0:0|0:0,0:0:0:0:
127,103,41550,1,2,0:0:0:0:
127,103,41700,1,8,0:0:0:0:
240,176,41850,2,0,P|308:192|360:128,1,140,6|2,0:0|0:0,0:0:0:0:
432,96,42300,1,8,0:0:0:0:
432,96,42450,2,0,B|440:132|436:164|436:164|456:192|464:240,1,140,2|2,0:0|0:0,0:0:0:0:
372,240,42900,2,0,P|320:244|284:312,1,105,8|0,0:0|0:0,0:0:0:0:
276,328,43200,6,0,L|132:308,1,140,6|8,0:0|0:0,0:0:0:0:
104,188,43800,2,0,L|12:216,2,70,2|2|8,0:0|0:0|0:0,0:0:0:0:
204,224,44250,2,0,P|264:220|280:124,1,140,6|2,0:0|0:0,0:0:0:0:
388,196,44700,1,8,0:0:0:0:
388,196,44850,2,0,L|360:48,1,140,6|0,0:0|0:0,0:0:0:0:
280,0,45300,2,0,L|236:68,1,70,8|0,0:0|0:0,0:0:0:0:
152,80,45600,6,0,L|72:92,2,70,6|2|2,0:0|0:0|0:0,0:0:0:0:
224,136,46050,2,0,L|304:148,2,70,12|2|2,0:0|0:0|0:0,0:0:0:0:
144,192,46500,2,0,L|64:204,2,70,12|2|2,0:0|0:0|0:0,0:0:0:0:
232,252,46950,2,0,L|312:264,2,70,12|2|2,0:0|0:0|0:0,0:0:0:0:
154,260,47400,6,0,P|142:212|150:168,1,70,12|2,0:0|0:0,0:0:0:0:
224,136,47700,2,0,P|236:88|228:44,1,70,12|2,0:0|0:0,0:0:0:0:
164,20,48000,6,0,L|72:52,2,70,6|8|8,0:0|0:0|0:0,0:0:0:0:
234,67,48450,2,0,L|320:76,1,70,6|8,0:0|0:0,0:0:0:0:
384,56,48750,1,8,0:0:0:0:
472,96,48900,2,0,L|484:20,1,70,2|8,0:0|0:0,0:0:0:0:
384,56,49200,6,0,P|386:91|396:136,1,70,2|12,0:0|0:0,0:0:0:0:
464,184,49500,2,0,P|456:224|444:260,1,70,12|12,0:0|0:0,0:0:0:0:
364,300,49800,2,0,P|304:316|264:260,2,140,2|8|6,0:0|0:0|0:0,0:0:0:0:
376,208,50550,5,0,0:0:0:0:
304,152,50700,2,0,L|224:192,1,77.0000023498536,8|0,0:0|0:0,0:0:0:0:
172,256,51000,2,0,L|88:228,1,77.0000023498536,2|2,0:0|0:0,0:0:0:0:
24,292,51300,2,0,L|4:196,1,77.0000023498536,8|0,0:0|0:0,0:0:0:0:
40,104,51600,6,0,P|112:80|172:148,2,154.000004699707,2|8|2,0:0|0:0|0:0,0:0:0:0:
68,192,52350,1,2,0:0:0:0:
156,216,52500,2,0,P|200:216|240:184,1,77.0000023498536,8|0,0:0|0:0,0:0:0:0:
316,136,52800,6,0,L|304:296,2,154.000004699707,6|8|2,0:0|0:0|0:0,0:0:0:0:
312,44,53550,1,2,0:0:0:0:
224,80,53700,2,0,P|184:84|144:72,1,77.0000023498536,8|0,0:0|0:0,0:0:0:0:
56,24,54000,2,0,P|32:52|16:104,2,77.0000023498536,2|2|8,0:0|0:0|0:0,0:0:0:0:
148,74,54450,2,0,P|160:156|116:232,1,154.000004699707,2|2,0:0|0:0,0:0:0:0:
60,276,54900,2,0,P|40:224|56:192,1,77.0000023498536,8|0,0:0|0:0,0:0:0:0:
96,120,55200,6,0,L|268:140,2,154.000004699707,6|8|2,0:0|0:0|0:0,0:0:0:0:
96,120,55950,1,2,0:0:0:0:
48,192,56100,2,0,P|20:156|16:112,1,77.0000023498536,8|0,0:0|0:0,0:0:0:0:
60,44,56400,1,2,0:0:0:0:
148,72,56550,1,2,0:0:0:0:
232,36,56700,2,0,P|296:32|352:120,2,154.000004699707,8|2|8,0:0|0:0|0:0,0:0:0:0:
220,128,57450,1,0,0:0:0:0:
272,204,57600,6,0,P|308:220|372:208,1,77.0000023498536,6|2,0:0|0:0,0:0:0:0:
408,136,57900,2,0,P|376:159|354:220,1,77.0000023498536,12|2,0:0|0:0,0:0:0:0:
400,292,58200,2,0,P|395:252|353:203,1,77.0000023498536,12|2,0:0|0:0,0:0:0:0:
312,124,58500,1,8,0:0:0:0:
272,204,58650,6,0,P|208:228|148:172,1,154.000004699707,6|2,0:0|0:0,0:0:0:0:
72,112,59100,1,8,0:0:0:0:
72,112,59250,2,0,L|44:200,2,77.0000023498536,6|0|2,0:0|0:0|0:0,0:0:0:0:
168,44,59700,2,0,L|184:136,1,77.0000023498536,8|0,0:0|0:0,0:0:0:0:
272,204,60000,6,0,P|336:216|376:132,1,154.000004699707,6|8,0:0|0:0,0:0:0:0:
460,96,60450,1,2,0:0:0:0:
460,96,60600,2,0,L|480:256,1,154.000004699707,2|8,0:0|0:0,0:0:0:0:
388,336,61050,6,0,L|360:256,1,77.0000023498536,2|0,0:0|0:0,0:0:0:0:
272,204,61350,2,0,L|248:296,1,77.0000023498536,2|8,0:0|0:0,0:0:0:0:
344,188,61650,2,0,P|288:132|216:156,1,154.000004699707,2|2,0:0|0:0,0:0:0:0:
152,220,62100,6,0,P|72:196|72:120,2,154.000004699707,8|2|8,0:0|0:0|0:0,0:0:0:0:
272,204,62850,2,0,L|320:48,1,154.000004699707,2|2,0:0|0:0,0:0:0:0:
212,64,63300,1,8,0:0:0:0:
212,64,63450,6,0,B|136:72|136:72|86:46|52:36,1,154.000004699707,6|2,0:0|0:0,0:0:0:0:
20,112,63900,2,0,B|64:132|64:132|76:176,1,77.0000023498536,8|2,0:0|0:0,0:0:0:0:
157,262,64200,6,0,P|224:267|269:178,2,154.000004699707,6|6|6,0:0|0:0|0:0,0:0:0:0:
86,206,64950,2,0,P|71:241|72:280,1,77.0000023498536,0|8,0:0|0:0,0:0:0:0:
156,176,65250,2,0,P|100:128|28:160,1,154.000004699707,6|2,0:0|0:0,0:0:0:0:
24,176,65700,2,0,L|7:89,1,77.0000023498536,8|0,0:0|0:0,0:0:0:0:
120,32,66000,6,0,B|184:60|184:60|280:40,1,154.000004699707,6|8,0:0|0:0,0:0:0:0:
376,80,66450,2,0,P|296:80|288:168,1,154.000004699707,6|2,0:0|0:0,0:0:0:0:
340,228,66900,2,0,L|352:144,1,77.0000023498536,8|2,0:0|0:0,0:0:0:0:
448,36,67200,6,0,L|472:196,1,154.000004699707,4|8,0:0|0:0,0:0:0:0:
428,288,67650,1,2,0:0:0:0:
321,302,67800,2,0,L|340:228,2,77.0000023498536,8|2|8,0:0|0:0|0:0,0:0:0:0:
208,328,68250,6,0,P|132:332|104:252,1,154.000004699707,6|2,0:0|0:0,0:0:0:0:
148,184,68700,2,0,L|140:100,1,77.0000023498536,12|2,0:0|0:0,0:0:0:0:
52,56,69000,2,0,L|28:144,1,77.0000023498536,12|0,0:0|0:0,0:0:0:0:
88,240,69300,6,0,P|156:268|224:204,2,154.000004699707,2|6|8,0:0|0:0|0:0,0:0:0:0:
40,160,70050,1,0,0:0:0:0:
135,108,70200,2,0,L|148:184,1,77.0000023498536,2|2,0:0|0:0,0:0:0:0:
178,292,70500,2,0,L|226:208,1,77.0000023498536,8|0,0:0|0:0,0:0:0:0:
292,152,70800,6,0,P|353:140|401:207,2,154.000004699707,2|8|2,0:0|0:0|0:0,0:0:0:0:
216,225,71550,1,0,0:0:0:0:
216,225,71700,2,0,L|120:205,1,77.0000023498536,8|0,0:0|0:0,0:0:0:0:
76,116,72000,6,0,P|96:40|188:32,2,154.000004699707,6|8|2,0:0|0:0|0:0,0:0:0:0:
144,192,72750,1,2,0:0:0:0:
228,136,72900,2,0,L|156:96,1,77.0000023498536,8|0,0:0|0:0,0:0:0:0:
144,192,73200,2,0,P|140:248|156:280,1,77.0000023498536,2|2,0:0|0:0,0:0:0:0:
224,332,73500,1,8,0:0:0:0:
308,276,73650,2,0,P|376:276|420:352,1,154.000004699707,2|2,0:0|0:0,0:0:0:0:
316,352,74100,6,0,L|344:188,2,154.000004699707,8|6|8,0:0|0:0|0:0,0:0:0:0:
224,332,74850,1,0,0:0:0:0:
224,332,75000,2,0,L|192:232,1,77.0000023498536,2|0,0:0|0:0,0:0:0:0:
96,272,75300,2,0,L|112:192,1,77.0000023498536,8|0,0:0|0:0,0:0:0:0:
152,100,75600,6,0,P|76:84|16:148,2,154.000004699707,2|8|2,0:0|0:0|0:0,0:0:0:0:
228,164,76350,1,0,0:0:0:0:
324,136,76500,2,0,P|368:132|404:148,1,77.0000023498536,8|0,0:0|0:0,0:0:0:0:
464,80,76800,6,0,P|445:120|413:143,1,77.0000023498536,6|2,0:0|0:0,0:0:0:0:
448,240,77100,2,0,P|422:203|418:164,1,77.0000023498536,12|2,0:0|0:0,0:0:0:0:
324,136,77400,2,0,P|368:132|404:148,2,77.0000023498536,12|2|8,0:0|0:0|0:0,0:0:0:0:
228,164,77850,6,0,P|152:172|112:96,1,154.000004699707,6|2,0:0|0:0,0:0:0:0:
48,40,78300,1,8,0:0:0:0:
48,40,78450,2,0,L|8:132,1,77.0000023498536,6|0,0:0|0:0,0:0:0:0:
28,196,78750,1,2,0:0:0:0:
133,187,78900,2,0,L|111:114,1,77.0000023498536,8|0,0:0|0:0,0:0:0:0:
91,251,79200,6,0,P|165:259|207:199,1,154.000004699707,6|8,0:0|0:0,0:0:0:0:
224,104,79650,1,0,0:0:0:0:
158,35,79800,2,0,L|130:203,1,154.000004699707,2|8,0:0|0:0,0:0:0:0:
208,304,80250,6,0,L|236:224,1,77.0000023498536,2|0,0:0|0:0,0:0:0:0:
324,172,80550,2,0,L|348:264,1,77.0000023498536,2|8,0:0|0:0,0:0:0:0:
252,156,80850,2,0,P|308:100|380:124,1,154.000004699707,2|2,0:0|0:0,0:0:0:0:
420,208,81300,6,0,P|500:184|500:108,2,154.000004699707,8|2|8,0:0|0:0|0:0,0:0:0:0:
324,172,82050,2,0,L|276:20,1,154.000004699707,2|2,0:0|0:0,0:0:0:0:
384,48,82500,1,8,0:0:0:0:
384,48,82650,2,0,B|440:72|492:60|492:60|488:88|508:128,1,154.000004699707,6|2,0:0|0:0,0:0:0:0:
440,212,83100,2,0,L|424:132,1,77.0000023498536,8|0,0:0|0:0,0:0:0:0:
324,172,83400,6,0,P|312:254|300:332,2,154.000004699707,6|8|6,0:0|0:0|0:0,0:0:0:0:
384,48,84300,1,2,0:0:0:0:
464,128,84450,1,2,0:0:0:0:
464,128,84600,2,0,B|416:156|356:140|356:140|352:168,1,140,8|2,0:0|0:0,0:0:0:0:
312,268,85050,6,0,P|248:284|204:212,1,140,2|8,0:0|0:0,0:0:0:0:
152,160,85500,2,0,B|180:88|180:88|192:24,2,140,2|8|2,0:0|0:0|0:0,0:0:0:0:
68,208,86250,1,0,0:0:0:0:
68,208,86400,6,0,B|100:268|168:264|168:264|124:292|116:356,2,210.000008010865,6|0|6,0:0|0:0|0:0,0:0:0:0:
80,124,87900,2,0,L|60:64,1,52.5000020027161
144,20,88200,2,0,L|180:128,1,105.000004005432
224,192,88650,5,6,0:0:0:0:
256,192,88725,12,0,90000,0:0:0:0:
