osu file format v14

[General]
AudioFilename: Love Live! Sunshine!! OP.mp3
AudioLeadIn: 0
PreviewTime: 49800
Countdown: 0
SampleSet: Soft
StackLeniency: 0.7
Mode: 0
LetterboxInBreaks: 1
WidescreenStoryboard: 1

[Editor]
DistanceSpacing: 1.3
BeatDivisor: 4
GridSize: 4
TimelineZoom: 2.3

[Metadata]
Title:Aozora Jumping Heart
TitleUnicode:青空Jumping Heart
Artist:Aqours
ArtistUnicode:Aqours
Creator:hopperhtkn
Version:Easy
Source:ラブライブ!サンシャイン!!
Tags:opening love live sunshine!!
BeatmapID:1020603
BeatmapSetID:477503

[Difficulty]
HPDrainRate:2
CircleSize:2
OverallDifficulty:2
ApproachRate:2
SliderMultiplier:0.799999999999999
SliderTickRate:1

[Events]
//Background and Video events
0,0,"BG.jpg",0,0
Video,-243,"OP.avi"
//Break Periods
//Storyboard Layer 0 (Background)
//Storyboard Layer 1 (Fail)
//Storyboard Layer 2 (Pass)
//Storyboard Layer 3 (Foreground)
//Storyboard Sound Samples

[TimingPoints]
0,300,4,2,1,50,1,0
1200,-100,4,2,1,50,0,0
2400,-100,4,2,1,50,0,0
6600,-100,4,2,1,40,0,0
6900,-100,4,2,1,50,0,0
7200,-100,4,2,1,60,0,0
16800,-100,4,2,2,50,0,0
16950,-100,4,2,1,50,0,0
26400,-100,4,2,1,60,0,0
36000,-100,4,2,1,50,0,0
39600,-100,4,2,1,60,0,0
49800,-100,4,2,1,60,0,0
50400,-100,4,2,1,70,0,1
57750,-100,4,2,1,45,0,1
57900,-100,4,2,1,50,0,1
58050,-100,4,2,1,55,0,1
58200,-100,4,2,1,60,0,1
58350,-100,4,2,1,65,0,1
58500,-100,4,2,1,70,0,1
84000,-100,4,2,1,50,0,0
86400,-100,4,2,1,50,0,0
89850,-100,4,2,1,20,0,0
89925,-100,4,2,1,15,0,0
90000,-100,4,2,1,10,0,0

[Colours]
Combo1 : 255,242,202
Combo2 : 210,255,210
Combo3 : 217,234,255
Combo4 : 253,210,217

[HitObjects]
204,104,1200,6,0,B|144:108|144:108|120:76|84:68,2,120,2|2|2,0:1|0:1|0:1,0:0:0:0:
304,72,2400,2,0,B|364:128|364:128|364:168|372:212,2,160,6|0|4,0:0|0:0|0:0,0:0:0:0:
204,104,3900,2,0,L|180:20,2,79.9999999999999,0|8|4,0:0|0:3|0:3,0:0:0:0:
236,204,4800,2,0,B|172:228|124:168|124:168|84:192,2,160,4|2|4,0:0|0:0|0:0,0:0:0:0:
424,112,6600,6,0,L|460:272,1,160,8|6,0:0|0:0,0:0:0:0:
256,232,7800,1,8,0:0:0:0:
52,268,8400,2,0,L|83:147,2,120,2|8|2,0:0|0:0|0:0,0:0:0:0:
96,364,9600,6,0,B|132:332|160:288|160:288|160:224,1,160,6|2,0:0|0:0,0:0:0:0:
160,116,10500,1,8,0:0:0:0:
248,172,10800,2,0,B|300:188|348:164|348:164|376:112,1,160,2|2,0:0|0:0,0:0:0:0:
456,48,11700,1,8,0:0:0:0:
464,152,12000,6,0,B|464:216|464:216|488:260|496:312,2,160,6|8|2,0:0|0:0|0:0,0:0:0:0:
344,56,13650,2,0,L|212:88,1,120,8|2,0:0|0:0,0:0:0:0:
256,192,14400,12,4,16500,0:3:0:0:
160,144,16800,6,0,B|140:188|148:244|148:244|116:300,2,160,4|2|0,0:0|0:0|0:0,0:0:0:0:
252,96,18300,2,0,P|196:40|120:48,1,160,2|2,0:0|0:0,0:0:0:0:
56,132,19200,2,0,B|20:96|16:40|16:40|0:96,2,160,2|2|2,0:0|0:0|0:0,0:0:0:0:
16,228,20700,2,0,L|188:240,1,160,2|2,0:0|0:0,0:0:0:0:
264,184,21600,6,0,P|264:120|228:64,2,120,2|2|2,0:0|0:0|0:0,0:0:0:0:
268,288,22800,2,0,P|328:300|388:280,2,120,2|2|2,0:0|0:0|0:0,0:0:0:0:
208,200,24000,6,0,B|172:148|172:148|172:88|148:44,1,160,6|2,0:0|0:0,0:0:0:0:
256,40,24900,1,8,0:0:0:0:
358,53,25200,2,0,B|340:88|340:148|340:148|304:200,1,160,6|2,0:0|0:0,0:0:0:0:
256,292,26100,1,8,0:0:0:0:
172,232,26400,6,0,B|132:240|96:216|96:216|88:264|52:292,2,160,6|2|2,0:0|0:0|0:0,0:0:0:0:
256,292,27900,2,0,B|344:292|344:292|416:264,1,160,8|8,0:0|0:0,0:0:0:0:
436,164,28800,2,0,B|432:112|432:112|448:72|440:32,2,120,2|2|8,0:0|0:0|0:0,0:0:0:0:
332,188,30000,2,0,B|324:128|292:92|292:92|264:112|232:112,1,160,2|2,0:0|0:0,0:0:0:0:
140,116,30900,1,8,0:0:0:0:
116,216,31200,6,0,B|148:256|148:256|160:292|172:332,2,120,6|2|8,0:0|0:0|0:0,0:0:0:0:
44,140,32400,2,0,B|48:104|60:68|60:68|88:28,2,120,6|2|8,0:0|0:0|0:0,0:0:0:0:
12,240,33600,6,0,B|100:264|148:176|148:176|176:204|228:208,1,240,6|8,0:0|0:0,0:0:0:0:
312,164,34800,2,0,P|296:84|352:28,1,160,2|8,0:0|0:0,0:0:0:0:
440,76,35700,1,8,0:0:0:0:
440,180,36000,6,0,B|440:244|440:244|476:288|488:344,2,160,6|8|2,0:0|0:0|0:0,0:0:0:0:
440,76,37500,2,0,B|368:76|368:76|320:104|276:104,1,160,8|8,0:0|0:0,0:0:0:0:
184,76,38400,2,0,B|128:64|128:64|52:80,2,120,2|8|8,0:0|0:0|0:0,0:0:0:0:
244,160,39600,2,0,B|264:224|264:224|232:268|236:320,2,160,12|8|6,0:0|0:0|0:0,0:0:0:0:
316,84,41100,6,0,L|376:248,1,160,8|8,0:0|0:0,0:0:0:0:
304,312,42000,1,2,0:0:0:0:
220,248,42300,2,0,B|176:252|128:240|128:240|116:268|80:288,1,160,8|8,0:0|0:0,0:0:0:0:
36,192,43200,6,0,B|56:136|56:136|28:92|44:36,2,160,6|8|2,0:0|0:0|0:0,0:0:0:0:
81,287,44700,2,0,L|252:316,1,160,8|8,0:0|0:0,0:0:0:0:
332,264,45600,6,0,L|312:136,1,120,6|6,0:0|0:0,0:0:0:0:
156,152,46500,2,0,L|164:24,1,120,6|6,0:0|0:0,0:0:0:0:
320,44,47400,2,0,P|392:60|412:152,1,160,6|12,0:0|0:0,0:0:0:0:
360,276,48450,6,0,B|308:304|308:304|240:312,1,120,12|12,0:0|0:0,0:0:0:0:
152,188,49350,2,0,B|204:160|204:160|272:152,1,120,12|12,0:0|0:0,0:0:0:0:
460,220,50400,6,0,B|456:156|456:156|424:108|428:52,1,160,6|8,0:0|0:0,0:0:0:0:
224,24,51600,2,0,B|227:66|195:114|195:114|191:178,1,160,2|8,0:0|0:0,0:0:0:0:
336,320,52800,2,0,B|388:296|388:296|432:336|480:340,1,160,6|8,0:0|0:0,0:0:0:0:
456,132,54000,2,0,B|416:76|416:76|368:48,2,120,2|8|2,0:0|0:0|0:0,0:0:0:0:
408,224,55200,6,0,B|360:260|360:260|296:236|284:180,1,160,6|8,0:0|0:0,0:0:0:0:
120,72,56400,2,0,B|72:36|72:36|8:60|-4:116,1,160,2|8,0:0|0:0,0:0:0:0:
152,244,57600,2,0,B|224:168|296:324|384:272,1,240,6|8,0:0|0:0,0:0:0:0:
404,180,58800,2,0,B|400:144|404:112|404:112|380:56,2,120,6|8|2,0:0|0:0|0:0,0:0:0:0:
316,248,60000,6,0,B|312:224|312:212|284:188|284:188|288:132|268:92,2,160,6|8|0,0:0|0:0|0:0,0:0:0:0:
216,272,61500,1,2,0:0:0:0:
132,332,61800,2,0,P|120:240|160:188,1,160,8|0,0:0|0:0,0:0:0:0:
364,208,63000,2,0,L|500:196,1,120,8|6,0:0|0:0,0:0:0:0:
416,56,63900,2,0,B|344:52|344:52|304:84|248:92,1,160,8|8,0:0|0:0,0:0:0:0:
164,60,64800,6,0,B|104:64|104:64|40:92,2,120,6|2|8,0:0|0:0|0:0,0:0:0:0:
256,112,66000,2,0,B|268:172|268:172|268:240,2,120,6|2|8,0:0|0:0|0:0,0:0:0:0:
164,160,67200,2,0,B|132:216|132:216|88:240|64:296,1,160,6|2,0:0|0:0,0:0:0:0:
168,320,68100,1,8,0:0:0:0:
256,260,68400,6,0,B|280:208|280:208|264:152|284:104,1,160,6|2,0:0|0:0,0:0:0:0:
232,16,69300,1,8,0:0:0:0:
156,88,69600,6,0,B|107:90|107:90|51:42|-8:44,1,160,6|8,0:0|0:0,0:0:0:0:
36,252,70800,2,0,B|85:250|85:250|141:298|200:296,1,160,2|8,0:0|0:0,0:0:0:0:
392,312,72000,2,0,L|360:144,1,160,6|8,0:0|0:0,0:0:0:0:
172,68,73200,2,0,B|144:76|120:100|120:100|87:91|48:92,2,120,2|8|2,0:0|0:0|0:0,0:0:0:0:
184,172,74400,6,0,B|232:196|232:196|296:196|344:172,1,160,6|8,0:0|0:0,0:0:0:0:
508,64,75600,2,0,B|460:40|460:40|396:40|348:64,1,160,2|8,0:0|0:0,0:0:0:0:
156,96,76800,2,0,B|76:164|224:240|120:320,1,240,6|8,0:0|0:0,0:0:0:0:
228,320,78000,2,0,B|260:324|304:328|304:328|352:300,2,120,6|8|2,0:0|0:0|0:0,0:0:0:0:
280,228,79200,6,0,B|320:216|320:216|364:208|408:220|436:248,2,160,6|8|2,0:0|0:0|0:0,0:0:0:0:
228,320,80700,1,2,0:0:0:0:
180,228,81000,2,0,B|176:144|176:144|148:64,1,160,8|2,0:0|0:0,0:0:0:0:
4,220,82200,2,0,B|16:280|16:280|8:340,1,120,8|6,0:0|0:0,0:0:0:0:
164,324,83100,2,0,B|192:340|192:340|240:352|312:308,1,160,8|2,0:0|0:0,0:0:0:0:
364,216,84000,6,0,L|328:48,1,160,6|8,0:0|0:0,0:0:0:0:
176,76,85050,2,0,P|124:100|64:72,1,120,2|2,0:0|0:0,0:0:0:0:
56,180,85800,1,8,0:0:0:0:
168,356,86400,6,0,B|208:336|256:224|256:224|300:336|356:352,1,320,6|6,0:0|0:0,0:0:0:0:
256,192,88650,12,0,90000,0:0:0:0:
