osu file format v5

[General]
AudioFilename: 19 Survivor.mp3
AudioLeadIn: 0
PreviewTime: 42468
Countdown: 1
SampleSet: Normal
StackLeniency: 0.7
Mode: 0
LetterboxInBreaks: 1
SkinPreference:EliteBeatOsu
EditorBookmarks: 19363,67064,102841,138617,139549,162095,167685

[Metadata]
Title:Survivor
Artist:April Harmony
Creator:MetalMario201
Version:Sweatin'
Source:
Tags:

[Difficulty]
HPDrainRate:5
CircleSize:4
OverallDifficulty:6
SliderMultiplier:1.78
SliderTickRate:2

[Events]
//Background and Video events
0,0,"SurvivorBG_hires.jpg"
//Break Periods
2,55138,65554
2,90914,101330
2,126690,137107
//Storyboard Layer 0 (Background)
//Storyboard Layer 1 (Failing)
//Storyboard Layer 2 (Passing)
//Storyboard Layer 3 (Foreground)
//Storyboard Sound Samples
//Background Colour Transformations
3,100,0,0,0

[TimingPoints]
1460,372.67037037037,4,1,1,100,1
19456,372.67037037037,4,2,1,100,0
19642,372.67037037037,4,1,1,100,0
20108,372.67037037037,4,2,1,100,0
20388,372.67037037037,4,1,1,100,0
21412,372.67037037037,4,2,1,100,0
21878,372.67037037037,4,1,1,100,0
22065,372.67037037037,4,2,1,100,0
22251,372.67037037037,4,1,1,100,0
23089,372.67037037037,4,2,1,100,0
23369,372.67037037037,4,1,1,100,0
23555,372.67037037037,4,2,1,100,0
23742,372.67037037037,4,1,1,100,0
24394,372.67037037037,4,2,1,100,0
24860,372.67037037037,4,1,1,100,0
25512,372.67037037037,4,2,1,100,0
25791,372.67037037037,4,1,1,100,0
26071,372.67037037037,4,2,1,100,0
26350,372.67037037037,4,1,1,100,0
27655,372.67037037037,4,2,1,100,0
27841,372.67037037037,4,1,1,100,0
28027,372.67037037037,4,2,1,100,0
28214,372.67037037037,4,1,1,100,0
29052,372.67037037037,4,2,1,100,0
29332,372.67037037037,4,1,1,100,0
31381,372.67037037037,4,2,1,100,0
31754,372.67037037037,4,1,1,100,0
32033,372.67037037037,4,2,1,100,0
32313,372.67037037037,4,1,1,100,0
33338,372.67037037037,4,2,1,100,0
33804,372.67037037037,4,1,1,100,0
33990,372.67037037037,4,2,1,100,0
34176,372.67037037037,4,1,1,100,0
35015,372.67037037037,4,2,1,100,0
35294,372.67037037037,4,1,1,100,0
35481,372.67037037037,4,2,1,100,0
35667,372.67037037037,4,1,1,100,0
36599,372.67037037037,4,2,1,100,0
36785,372.67037037037,4,1,1,100,0
36971,372.67037037037,4,2,1,100,0
37158,372.67037037037,4,1,1,100,0
37437,372.67037037037,4,2,1,100,0
37717,372.67037037037,4,1,1,100,0
37996,372.67037037037,4,2,1,100,0
38276,372.67037037037,4,1,1,100,0
39580,372.67037037037,4,2,1,100,0
39766,372.67037037037,4,1,1,100,0
39953,372.67037037037,4,2,1,100,0
40139,372.67037037037,4,1,1,100,0
40978,372.67037037037,4,2,1,100,0
41257,372.67037037037,4,1,1,100,0
42841,372.67037037037,4,2,1,100,0
43120,372.67037037037,4,1,1,100,0
43400,372.67037037037,4,2,1,100,0
43773,372.67037037037,4,1,1,100,0
44332,372.67037037037,4,2,1,100,0
44611,372.67037037037,4,1,1,100,0
44891,372.67037037037,4,2,1,100,0
46102,372.67037037037,4,1,1,100,0
46381,372.67037037037,4,2,1,100,0
47592,372.67037037037,4,1,1,100,0
48804,372.67037037037,4,2,1,100,0
49083,372.67037037037,4,1,1,100,0
49363,372.67037037037,4,2,1,100,0
49735,372.67037037037,4,1,1,100,0
50294,372.67037037037,4,2,1,100,0
50574,372.67037037037,4,1,1,100,0
50853,372.67037037037,4,2,1,100,0
52065,372.67037037037,4,1,1,100,0
52344,372.67037037037,4,2,1,100,0
53555,372.67037037037,4,1,1,100,0
67251,372.67037037037,4,2,1,100,0
67530,372.67037037037,4,1,1,100,0
68182,372.67037037037,4,2,1,100,0
68462,372.67037037037,4,1,1,100,0
69394,372.67037037037,4,2,1,100,0
69580,372.67037037037,4,1,1,100,0
70978,372.67037037037,4,2,1,100,0
71350,372.67037037037,4,1,1,100,0
72375,372.67037037037,4,2,1,100,0
72561,372.67037037037,4,1,1,100,0
73214,372.67037037037,4,2,1,100,0
73493,372.67037037037,4,1,1,100,0
74145,372.67037037037,4,2,1,100,0
74425,372.67037037037,4,1,1,100,0
75356,372.67037037037,4,2,1,100,0
75543,372.67037037037,4,1,1,100,0
76940,372.67037037037,4,2,1,100,0
77313,372.67037037037,4,1,1,100,0
78431,372.67037037037,4,2,1,100,0
78897,372.67037037037,4,1,1,100,0
79922,372.67037037037,4,2,1,100,0
80387,372.67037037037,4,1,1,100,0
81412,372.67037037037,4,2,1,100,0
81878,372.67037037037,4,1,1,100,0
82530,372.67037037037,4,2,1,100,0
83369,372.67037037037,4,1,1,100,0
84394,372.67037037037,4,2,1,100,0
84859,372.67037037037,4,1,1,100,0
85884,372.67037037037,4,2,1,100,0
86350,372.67037037037,4,1,1,100,0
87375,372.67037037037,4,2,1,100,0
87841,372.67037037037,4,1,1,100,0
88493,372.67037037037,4,2,1,100,0
89332,372.67037037037,4,1,1,100,0
102934,372.67037037037,4,2,1,100,0
103586,372.67037037037,4,1,1,100,0
103866,372.67037037037,4,2,1,100,0
104238,372.67037037037,4,1,1,100,0
104704,372.67037037037,4,2,1,100,0
104984,372.67037037037,4,1,1,100,0
105915,372.67037037037,4,2,1,100,0
106568,372.67037037037,4,1,1,100,0
106847,372.67037037037,4,2,1,100,0
107220,372.67037037037,4,1,1,100,0
107686,372.67037037037,4,2,1,100,0
107965,372.67037037037,4,1,1,100,0
108897,372.67037037037,4,2,1,100,0
109549,372.67037037037,4,1,1,100,0
109828,372.67037037037,4,2,1,100,0
110201,372.67037037037,4,1,1,100,0
112251,372.67037037037,4,2,1,100,0
112437,372.67037037037,4,1,1,100,0
112996,372.67037037037,4,2,1,100,0
113182,372.67037037037,4,1,1,100,0
114394,372.67037037037,4,2,1,100,0
114673,372.67037037037,4,1,1,100,0
114953,372.67037037037,4,2,1,100,0
115325,372.67037037037,4,1,1,100,0
115884,372.67037037037,4,2,1,100,0
116164,372.67037037037,4,1,1,100,0
116443,372.67037037037,4,2,1,100,0
117654,372.67037037037,4,1,1,100,0
117934,372.67037037037,4,2,1,100,0
119145,372.67037037037,4,1,1,100,0
120356,372.67037037037,4,2,1,100,0
120636,372.67037037037,4,1,1,100,0
120915,372.67037037037,4,2,1,100,0
121288,372.67037037037,4,1,1,100,0
121847,372.67037037037,4,2,1,100,0
122127,372.67037037037,4,1,1,100,0
122406,372.67037037037,4,2,1,100,0
123617,372.67037037037,4,1,1,100,0
123897,372.67037037037,4,2,1,100,0
125108,372.67037037037,4,1,1,100,0
139828,372.67037037037,4,2,1,100,0
140015,372.67037037037,4,1,1,100,0
140294,372.67037037037,4,2,1,100,0
140760,372.67037037037,4,1,1,100,0
142810,372.67037037037,4,2,1,100,0
142996,372.67037037037,4,1,1,100,0
144207,372.67037037037,4,2,1,100,0
144487,372.67037037037,4,1,1,100,0
144766,372.67037037037,4,2,1,100,0
145139,372.67037037037,4,1,1,100,0
145698,372.67037037037,4,2,1,100,0
145977,372.67037037037,4,1,1,100,0
146257,372.67037037037,4,2,1,100,0
147468,372.67037037037,4,1,1,100,0
147748,372.67037037037,4,2,1,100,0
148959,372.67037037037,4,1,1,100,0
150170,372.67037037037,4,2,1,100,0
150449,372.67037037037,4,1,1,100,0
150729,372.67037037037,4,2,1,100,0
151102,372.67037037037,4,1,1,100,0
151661,372.67037037037,4,2,1,100,0
151940,372.67037037037,4,1,1,100,0
152220,372.67037037037,4,2,1,100,0
153431,372.67037037037,4,1,1,100,0
153710,372.67037037037,4,2,1,100,0
154922,372.67037037037,4,1,1,100,0
155946,372.67037037037,4,2,1,100,0
156412,372.67037037037,4,1,1,100,0
157437,372.67037037037,4,2,1,100,0
157903,372.67037037037,4,1,1,100,0
158928,372.67037037037,4,2,1,100,0
159394,372.67037037037,4,1,1,100,0
160046,372.67037037037,4,2,1,100,0
160884,372.67037037037,4,1,1,100,0

[Colours]
Combo1 : 240,32,0
Combo2 : 240,160,0
Combo3 : 0,232,24
Combo4 : 64,96,240

[HitObjects]
26,175,19348,5,0
79,218,19534,1,0
132,263,19720,1,2
185,307,19907,1,2
256,175,20279,1,0
256,175,20466,1,2
256,68,20838,1,2
256,68,21025,1,6
486,175,21584,5,8
433,218,21770,1,0
380,263,21956,1,2
327,307,22143,1,0
256,334,22329,2,0,B|43:168,1,267,8|6
185,175,23261,1,0
256,175,23447,1,8
327,175,23633,1,0
256,104,23820,1,2
256,104,24006,1,6
380,263,24565,5,8
318,298,24751,1,0
256,334,24938,1,2
194,298,25124,1,2
132,263,25310,1,6
256,245,25683,1,0
256,245,25869,1,2
256,139,26242,1,0
256,139,26428,1,2
256,33,26801,1,8
256,33,26987,1,0
26,175,27546,5,8
79,218,27733,1,0
132,263,27919,1,2
185,307,28105,1,0
256,334,28292,2,0,B|469:168,1,267,4|0
318,175,29223,1,0
318,175,29410,1,2
194,175,29782,1,0
194,175,29969,1,4
256,86,30528,5,6
380,86,30900,1,0
433,130,31087,1,2
486,175,31273,1,0
433,218,31459,1,0
380,263,31646,1,0
327,307,31832,1,2
256,175,32205,1,0
256,175,32391,1,8
256,50,32764,1,2
141,104,33136,1,4
26,175,33509,5,8
79,218,33695,1,0
132,263,33882,1,2
185,307,34068,1,0
256,334,34254,2,0,B|469:168,1,267,8|6
327,175,35186,1,0
256,175,35373,1,8
185,175,35559,1,0
256,104,35745,1,2
256,104,35932,1,6
132,263,36491,5,0
194,298,36677,1,0
256,334,36863,1,8
318,298,37050,1,0
380,263,37236,1,2
256,245,37609,1,0
256,245,37795,1,0
256,139,38168,1,0
256,139,38354,1,2
256,33,38727,1,8
256,33,38913,1,0
486,175,39472,5,8
433,218,39658,1,0
380,263,39845,1,2
327,307,40031,1,0
256,334,40217,2,0,B|43:168,1,267,4|0
194,175,41149,1,0
194,175,41335,1,0
318,175,41708,1,0
318,175,41894,1,4
504,209,42453,6,0,B|473:72|322:30,1,267,4|0
256,33,43199,1,2
132,33,43571,1,4
8,33,43944,6,0,B|33:174|190:208,1,267,12|0
256,209,44689,1,2
380,209,45062,1,4
256,33,45435,5,8
344,86,45714,1,0
433,139,45994,1,0
486,192,46180,2,0,B|466:279|379:335,1,178,2|2
256,334,46925,5,8
168,280,47205,1,0
79,227,47484,1,0
26,175,47671,2,0,B|46:87|133:32,1,178,2|4
504,175,48416,6,0,B|473:312|322:354,1,267,4|0
256,351,49161,1,2
132,351,49534,1,4
8,351,49907,6,0,B|33:210|190:176,1,267,12|0
256,175,50652,1,2
380,175,51025,1,4
256,351,51397,5,8
344,298,51677,1,0
433,245,51956,1,0
486,192,52143,2,0,B|466:105|379:49,1,178,2|2
256,50,52888,5,8
168,104,53168,1,0
79,157,53447,1,0
26,209,53633,2,0,B|46:297|133:352,1,178,2|4
344,157,67049,5,2
291,263,67422,1,0
256,334,67608,2,0,B|371:336|504:354|489:147,1,356,4|0
486,86,68540,1,2
398,86,68820,1,8
230,33,69286,5,0
282,77,69472,1,0
230,121,69658,1,8
282,166,69845,1,2
230,209,70031,2,4,B|117:217|79:101|162:27,2,267,12|6|8
203,325,71522,1,2
300,325,71801,1,8
380,157,72267,5,0
318,121,72453,1,0
256,157,72640,1,8
194,121,72826,1,2
132,157,73012,1,4
221,263,73385,1,0
256,334,73571,2,0,B|141:336|8:354|23:147,1,356,4|0
26,86,74503,1,2
114,86,74782,1,8
282,33,75248,5,0
230,77,75435,1,0
282,121,75621,1,8
230,166,75807,1,2
282,209,75994,2,4,B|395:217|433:101|351:26,2,267,12|6|8
291,325,77484,1,2
221,325,77764,1,8
26,351,78230,5,4
61,254,78509,1,0
26,157,78789,1,0
26,86,78975,2,0,B|97:33|194:27,1,178,2|4
486,33,79720,5,12
451,130,80000,1,0
486,227,80279,1,0
486,298,80466,2,0,B|415:351|318:357,1,178,2|4
344,121,81211,5,12
256,192,81490,1,0
168,121,81770,1,0
185,50,81956,1,2
327,50,82329,1,4
168,192,82702,5,8
256,121,82981,1,0
344,192,83261,1,0
327,263,83447,1,0
185,263,83820,1,4
486,351,84192,5,4
451,254,84472,1,0
486,157,84751,1,0
486,86,84938,2,0,B|415:33|318:27,1,178,2|4
26,33,85683,5,12
61,130,85963,1,0
26,227,86242,1,0
26,298,86428,2,0,B|97:351|194:357,1,178,2|4
168,121,87174,5,12
256,192,87453,1,0
344,121,87733,1,0
327,50,87919,1,2
185,50,88292,1,4
344,192,88664,5,8
256,121,88944,1,0
168,192,89223,1,0
185,263,89410,1,0
327,263,89782,1,4
230,24,102640,5,2
282,68,102826,1,6
230,113,103012,1,0
282,157,103199,1,8
230,200,103385,1,8
70,227,103758,1,2
106,289,103944,1,0
168,316,104130,1,0
239,316,104317,2,0,B|513:316,1,267,2|0
504,245,105062,1,2
504,148,105341,1,8
362,130,105621,5,2
309,184,105807,1,4
256,130,105994,1,0
203,184,106180,1,8
256,236,106366,1,8
451,227,106739,1,2
415,289,106925,1,0
353,316,107112,1,0
282,316,107298,2,0,B|8:316,1,267,2|0
17,245,108043,1,2
17,148,108323,1,8
150,130,108602,5,2
203,184,108789,1,4
256,130,108975,1,0
309,184,109161,1,8
256,236,109348,1,8
61,227,109720,1,2
97,289,109907,1,0
159,316,110093,1,0
230,316,110279,2,0,B|504:316,1,267,2|0
495,245,111025,1,2
495,148,111304,1,8
282,50,112143,5,2
230,95,112329,1,0
282,139,112515,1,0
230,184,112702,1,0
282,227,112888,1,2
230,271,113074,1,0
282,316,113261,1,6
8,209,114006,6,0,B|39:72|190:30,1,267,4|0
256,33,114751,1,2
380,33,115124,1,4
504,33,115497,6,0,B|479:174|322:208,1,267,12|0
256,209,116242,1,2
132,209,116615,1,4
256,33,116987,5,8
168,86,117267,1,0
79,139,117546,1,0
26,192,117733,2,0,B|46:279|133:335,1,178,2|2
256,334,118478,5,8
344,280,118757,1,0
433,227,119037,1,0
486,175,119223,2,0,B|466:87|379:32,1,178,2|4
8,175,119969,6,0,B|39:312|190:354,1,267,4|0
256,351,120714,1,2
380,351,121087,1,4
504,351,121459,6,0,B|479:210|322:176,1,267,12|0
256,175,122205,1,2
132,175,122577,1,4
256,351,122950,5,8
168,298,123230,1,0
79,245,123509,1,0
26,192,123695,2,0,B|46:105|133:49,1,178,2|2
256,50,124441,5,8
344,104,124720,1,0
433,157,125000,1,0
486,209,125186,2,0,B|466:297|379:352,1,178,2|4
230,33,139534,5,2
282,77,139720,1,2
230,121,139907,1,0
282,166,140093,1,4
221,263,140372,1,0
291,351,140652,1,0
221,351,140838,2,0,B|62:360|-9:269|8:136,1,356,0|12
97,166,142515,5,2
150,209,142702,1,2
203,166,142888,1,0
256,209,143074,1,4
380,209,143447,1,4
504,209,143820,6,0,B|473:72|322:30,1,267,4|0
256,33,144565,1,2
132,33,144938,1,4
8,33,145310,6,0,B|33:174|190:208,1,267,12|0
256,209,146056,1,2
380,209,146428,1,4
256,33,146801,5,8
344,86,147080,1,0
433,139,147360,1,0
486,192,147546,2,0,B|466:279|379:335,1,178,2|2
256,334,148292,5,8
168,280,148571,1,0
79,227,148851,1,0
26,175,149037,2,0,B|46:87|133:32,1,178,2|4
504,175,149782,6,0,B|473:312|322:354,1,267,4|0
256,351,150528,1,2
132,351,150900,1,4
8,351,151273,6,0,B|33:210|190:176,1,267,12|0
256,175,152018,1,2
380,175,152391,1,4
256,351,152764,5,8
344,298,153043,1,0
433,245,153323,1,0
486,192,153509,2,0,B|466:105|379:49,1,178,2|2
256,50,154254,5,8
168,104,154534,1,0
79,157,154813,1,0
26,209,155000,2,0,B|46:297|133:352,1,178,2|4
486,351,155745,5,4
451,254,156025,1,0
486,157,156304,1,0
486,86,156490,2,0,B|415:33|318:27,1,178,2|4
26,33,157236,5,12
61,130,157515,1,0
26,227,157795,1,0
26,298,157981,2,0,B|97:351|194:357,1,178,2|4
168,121,158726,5,12
256,192,159006,1,0
344,121,159285,1,0
327,50,159472,1,2
185,50,159844,1,4
344,192,160217,5,8
256,121,160497,1,0
168,192,160776,1,0
185,263,160962,1,0
327,263,161335,1,4
256,192,162080,12,4,167670
