osu file format v5

[General]
AudioFilename: 19 Survivor.mp3
AudioLeadIn: 0
PreviewTime: 42468
Countdown: 1
SampleSet: Normal
StackLeniency: 0.7
Mode: 0
LetterboxInBreaks: 1
SkinPreference:EliteBeatOsu
EditorBookmarks: 19363,67064,102841,138617,139549,162095,167685

[Metadata]
Title:Survivor
Artist:April Harmony
Creator:MetalMario201
Version:Cruisin'
Source:
Tags:

[Difficulty]
HPDrainRate:5
CircleSize:4
OverallDifficulty:5
SliderMultiplier:1.44
SliderTickRate:2

[Events]
//Background and Video events
0,0,"SurvivorBG_hires.jpg"
//Break Periods
2,55138,65554
2,90914,101330
2,126690,137107
//Storyboard Layer 0 (Background)
//Storyboard Layer 1 (Failing)
//Storyboard Layer 2 (Passing)
//Storyboard Layer 3 (Foreground)
//Storyboard Sound Samples
//Background Colour Transformations
3,100,0,0,0

[TimingPoints]
1460,372.67037037037,4,1,1,100,1
30915,372.67037037037,4,2,1,100,0
31195,372.67037037037,4,1,1,100,0
36878,372.67037037037,4,2,1,100,0
37158,372.67037037037,4,1,1,100,0
42841,372.67037037037,4,2,1,100,0
43120,372.67037037037,4,1,1,100,0
43400,372.67037037037,4,2,1,100,0
43773,372.67037037037,4,1,1,100,0
44332,372.67037037037,4,2,1,100,0
44611,372.67037037037,4,1,1,100,0
44891,372.67037037037,4,2,1,100,0
45263,372.67037037037,4,1,1,100,0
46009,372.67037037037,4,2,1,100,0
46381,372.67037037037,4,1,1,100,0
47127,372.67037037037,4,2,1,100,0
47592,372.67037037037,4,1,1,100,0
48804,372.67037037037,4,2,1,100,0
49083,372.67037037037,4,1,1,100,0
49363,372.67037037037,4,2,1,100,0
49735,372.67037037037,4,1,1,100,0
50294,372.67037037037,4,2,1,100,0
50574,372.67037037037,4,1,1,100,0
50853,372.67037037037,4,2,1,100,0
51226,372.67037037037,4,1,1,100,0
51971,372.67037037037,4,2,1,100,0
52344,372.67037037037,4,1,1,100,0
53089,372.67037037037,4,2,1,100,0
53555,372.67037037037,4,1,1,100,0
72655,372.67037037037,4,2,1,100,0
72934,372.67037037037,4,1,1,100,0
78617,372.67037037037,4,2,1,100,0
78897,372.67037037037,4,1,1,100,0
79176,372.67037037037,4,2,1,100,0
79549,372.67037037037,4,1,1,100,0
80108,372.67037037037,4,2,1,100,0
80387,372.67037037037,4,1,1,100,0
80667,372.67037037037,4,2,1,100,0
81040,372.67037037037,4,1,1,100,0
81599,372.67037037037,4,2,1,100,0
81878,372.67037037037,4,1,1,100,0
82158,372.67037037037,4,2,1,100,0
82530,372.67037037037,4,1,1,100,0
83089,372.67037037037,4,2,1,100,0
83369,372.67037037037,4,1,1,100,0
84580,372.67037037037,4,2,1,100,0
84859,372.67037037037,4,1,1,100,0
85139,372.67037037037,4,2,1,100,0
85512,372.67037037037,4,1,1,100,0
86630,372.67037037037,4,2,1,100,0
87002,372.67037037037,4,1,1,100,0
87561,372.67037037037,4,2,1,100,0
87841,372.67037037037,4,1,1,100,0
89052,372.67037037037,4,2,1,100,0
89332,372.67037037037,4,1,1,100,0
103027,372.67037037037,4,2,1,100,0
103866,372.67037037037,4,1,1,100,0
106009,372.67037037037,4,2,1,100,0
106847,372.67037037037,4,1,1,100,0
108990,372.67037037037,4,2,1,100,0
109456,372.67037037037,4,1,1,100,0
111785,372.67037037037,4,2,1,100,0
113182,372.67037037037,4,1,1,100,0
114394,372.67037037037,4,2,1,100,0
114673,372.67037037037,4,1,1,100,0
114953,372.67037037037,4,2,1,100,0
115325,372.67037037037,4,1,1,100,0
115884,372.67037037037,4,2,1,100,0
116164,372.67037037037,4,1,1,100,0
116443,372.67037037037,4,2,1,100,0
116816,372.67037037037,4,1,1,100,0
117561,372.67037037037,4,2,1,100,0
117934,372.67037037037,4,1,1,100,0
118679,372.67037037037,4,2,1,100,0
119145,372.67037037037,4,1,1,100,0
120356,372.67037037037,4,2,1,100,0
120636,372.67037037037,4,1,1,100,0
120915,372.67037037037,4,2,1,100,0
121288,372.67037037037,4,1,1,100,0
121847,372.67037037037,4,2,1,100,0
122127,372.67037037037,4,1,1,100,0
122406,372.67037037037,4,2,1,100,0
122779,372.67037037037,4,1,1,100,0
123524,372.67037037037,4,2,1,100,0
123897,372.67037037037,4,1,1,100,0
124642,372.67037037037,4,2,1,100,0
125108,372.67037037037,4,1,1,100,0
138990,372.67037037037,4,2,1,100,0
139642,372.67037037037,4,1,1,100,0
144207,372.67037037037,4,2,1,100,0
144487,372.67037037037,4,1,1,100,0
144766,372.67037037037,4,2,1,100,0
145139,372.67037037037,4,1,1,100,0
145698,372.67037037037,4,2,1,100,0
145977,372.67037037037,4,1,1,100,0
146257,372.67037037037,4,2,1,100,0
146630,372.67037037037,4,1,1,100,0
147189,372.67037037037,4,2,1,100,0
147468,372.67037037037,4,1,1,100,0
148679,372.67037037037,4,2,1,100,0
148959,372.67037037037,4,1,1,100,0
150170,372.67037037037,4,2,1,100,0
150449,372.67037037037,4,1,1,100,0
150729,372.67037037037,4,2,1,100,0
151102,372.67037037037,4,1,1,100,0
151661,372.67037037037,4,2,1,100,0
151940,372.67037037037,4,1,1,100,0
152220,372.67037037037,4,2,1,100,0
152592,372.67037037037,4,1,1,100,0
154642,372.67037037037,4,2,1,100,0
154922,372.67037037037,4,1,1,100,0
156133,372.67037037037,4,2,1,100,0
156412,372.67037037037,4,1,1,100,0
156692,372.67037037037,4,2,1,100,0
157064,372.67037037037,4,1,1,100,0
157623,372.67037037037,4,2,1,100,0
157903,372.67037037037,4,1,1,100,0
158182,372.67037037037,4,2,1,100,0
158555,372.67037037037,4,1,1,100,0
159300,372.67037037037,4,2,1,100,0
159673,372.67037037037,4,1,1,100,0
160418,372.67037037037,4,2,1,100,0
160884,372.67037037037,4,1,1,100,0

[Colours]
Combo1 : 240,32,0
Combo2 : 240,160,0
Combo3 : 0,232,24
Combo4 : 64,96,240

[HitObjects]
504,175,19348,1,4
380,280,19907,1,8
256,175,20466,1,0
256,68,20838,1,0
256,68,21025,1,2
43,175,21584,5,0
150,175,21956,1,8
256,175,22329,2,0,B|255:309|125:316,2,216,2|8|0
256,68,23820,1,0
256,68,24006,1,2
398,68,24565,5,0
504,68,24938,1,8
504,175,25310,1,2
380,280,25869,1,8
256,175,26428,1,0
256,68,26801,1,0
256,68,26987,1,2
43,175,27546,5,0
150,175,27919,1,8
256,175,28292,2,0,B|255:309|125:316,2,216,2|8|0
256,33,29782,1,0
256,33,29969,1,6
362,33,30528,6,0,B|456:47|481:158|481:158|490:196,1,216
486,263,31273,1,4
362,263,31832,2,0,B|141:263,1,216,0|8
43,263,32764,1,2
43,157,33136,1,12
43,50,33509,5,0
150,50,33882,1,8
256,50,34254,2,4,B|478:50,2,216,4|4|0
256,175,35745,1,0
256,175,35932,1,4
150,316,36491,6,0,B|56:301|31:191|31:191|22:153,1,216
26,86,37236,1,4
150,86,37795,2,8,B|371:86,1,216,0|8
469,86,38727,1,0
469,86,38913,1,2
469,298,39472,5,0
362,298,39845,1,8
256,298,40217,2,4,B|34:298,2,216,2|4|12
256,139,41708,1,0
256,139,41894,1,4
43,157,42453,6,0,B|53:27|194:27,1,216,4|0
256,28,43199,1,0
362,28,43571,1,4
469,28,43944,6,0,B|459:158|318:158,1,216,12|0
256,157,44689,1,4
150,157,45062,1,4
114,245,45435,6,0,B|406:245,2,288,12|2|4
97,334,47205,5,0
185,334,47484,1,0
256,316,47671,1,4
256,175,48043,1,4
469,157,48416,6,0,B|459:27|318:27,1,216,4|0
256,28,49161,1,0
150,28,49534,1,4
43,28,49907,6,0,B|53:158|194:158,1,216,12|0
256,157,50652,1,0
362,157,51025,1,4
398,245,51397,6,0,B|106:245,2,288,12|2|4
415,334,53168,5,0
327,334,53447,1,0
256,316,53633,1,4
256,175,54006,1,4
8,175,67049,5,4
132,280,67608,1,8
256,175,68167,1,0
300,68,68540,1,0
212,68,68820,1,2
469,175,69286,5,0
362,175,69658,1,8
256,175,70031,2,0,B|257:309|387:316,2,216,2|8|0
212,68,71522,1,0
300,68,71801,1,2
150,33,72267,6,0,B|56:47|31:158|31:158|22:196,1,216
26,263,73012,1,4
150,263,73571,2,0,B|371:263,1,216,0|8
469,263,74503,1,0
469,175,74782,1,2
469,50,75248,5,0
362,50,75621,1,8
256,50,75994,2,4,B|34:50,2,216,2|4|12
256,175,77484,1,0
256,263,77764,1,4
26,334,78230,5,4
26,175,78789,1,0
26,104,78975,2,0,B|66:44|159:50,1,144,0|4
256,50,79720,5,12
256,209,80279,1,0
256,280,80466,2,0,B|295:340|389:334,1,144,0|4
486,334,81211,5,12
486,175,81770,1,0
486,104,81956,2,0,B|446:44|353:50,1,144,0|2
256,42,82702,6,0,B|256:263,1,216,12|0
256,334,83447,1,4
371,334,83820,1,12
486,334,84192,5,4
486,175,84751,1,0
486,104,84938,2,0,B|446:44|353:50,1,144,0|4
256,50,85683,5,12
256,209,86242,1,0
256,280,86428,2,0,B|217:340|123:334,1,144,0|4
26,334,87174,5,12
26,175,87733,1,0
26,104,87919,2,0,B|66:44|159:50,1,144,0|2
256,42,88664,6,0,B|256:263,1,216,12|0
256,334,89410,1,4
141,334,89782,1,14
256,24,102826,5,4
256,157,103199,1,8
256,157,103385,1,8
79,157,103758,1,0
79,227,103944,1,2
150,316,104317,2,0,B|371:316,1,216,4|0
433,316,105062,1,0
344,192,105435,1,8
256,24,105807,5,4
256,157,106180,1,8
256,157,106366,1,8
433,157,106739,1,0
433,227,106925,1,2
362,316,107298,2,0,B|141:316,1,216,4|0
79,316,108043,1,0
168,192,108416,1,8
256,24,108789,5,6
256,139,109161,1,8
256,139,109348,1,8
256,209,109534,1,2
256,351,109907,1,0
150,280,110279,2,0,B|380:280,1,216,2|0
344,209,111025,1,0
168,209,111397,1,4
256,68,112143,5,8
256,68,112329,1,8
256,68,112515,1,8
256,316,112888,1,8
256,316,113074,1,8
256,316,113261,1,4
43,157,114006,6,0,B|53:27|194:27,1,216,4|0
256,28,114751,1,0
362,28,115124,1,4
469,28,115497,6,0,B|459:158|318:158,1,216,12|0
256,157,116242,1,4
150,157,116615,1,4
114,245,116987,6,0,B|406:245,2,288,12|2|4
97,334,118757,5,0
185,334,119037,1,0
256,316,119223,1,4
256,175,119596,1,4
469,157,119969,6,0,B|459:27|318:27,1,216,4|0
256,28,120714,1,0
150,28,121087,1,4
43,28,121459,6,0,B|53:158|194:158,1,216,12|0
256,157,122205,1,0
362,157,122577,1,4
398,245,122950,6,0,B|106:245,2,288,12|2|4
415,334,124720,5,0
327,334,125000,1,0
256,316,125186,1,4
256,175,125559,1,4
256,33,139534,5,0
256,33,139720,1,2
256,175,140093,1,4
400,334,140838,2,0,B|99:334,2,288,0|2|12
380,209,142702,5,2
256,121,143074,1,2
132,209,143447,1,4
26,334,143820,5,4
26,175,144379,1,0
26,104,144565,2,0,B|66:44|159:50,1,144,0|4
256,50,145310,5,12
256,209,145869,1,0
256,280,146056,2,0,B|295:340|389:334,1,144,0|4
486,334,146801,5,12
486,175,147360,1,0
486,104,147546,2,0,B|446:44|353:50,1,144,0|2
256,42,148292,6,0,B|256:263,1,216,12|0
256,334,149037,1,4
371,334,149410,1,12
486,334,149782,5,4
486,175,150341,1,0
486,104,150528,2,0,B|446:44|353:50,1,144,0|4
256,50,151273,5,12
256,209,151832,1,0
256,280,152018,2,0,B|217:340|123:334,1,144,0|4
26,334,152764,5,12
26,175,153323,1,0
26,104,153509,2,0,B|66:44|159:50,1,144,0|2
256,42,154254,6,0,B|256:263,1,216,12|0
256,334,155000,1,4
371,334,155372,1,14
469,157,155745,6,0,B|459:27|318:27,1,216,4|0
256,28,156490,1,0
150,28,156863,1,4
43,28,157236,6,0,B|53:158|194:158,1,216,12|0
256,157,157981,1,0
362,157,158354,1,4
398,245,158726,6,0,B|106:245,2,288,12|2|4
415,334,160497,5,0
327,334,160776,1,0
256,316,160962,1,4
256,175,161335,1,4
256,192,162080,12,4,167670
