osu file format v7

[General]
AudioFilename: APPOLLO 100% PROGRESSIVE EDIT - ONE OF US.mp3
AudioLeadIn: 0
PreviewTime: 38232
Countdown: 1
SampleSet: Normal
StackLeniency: 0.7
Mode: 0
LetterboxInBreaks: 1

[Editor]
DistanceSpacing: 0.400000005960464
BeatDivisor: 4
GridSize: 8

[Metadata]
Title:One Of Us
Artist:Apollo Brothers
Creator:Natteke desu
Version:Hard
Source:One Of Us [EP]
Tags:techno trance

[Difficulty]
HPDrainRate:6
CircleSize:5
OverallDifficulty:7
SliderMultiplier:1.5
SliderTickRate:1

[Events]
//Background and Video events
0,0,"bg.jpg"
//Break Periods
2,26566,27774
2,65797,66375
2,107755,120082
2,136286,138543
//Storyboard Layer 0 (Background)
//Storyboard Layer 1 (Fail)
//Storyboard Layer 2 (Pass)
//Storyboard Layer 3 (Foreground)
//Storyboard Sound Samples
//Background Colour Transformations
3,100,163,162,255

[TimingPoints]
1821,419.58041958042,4,2,0,100,1,0
31926,-100,4,1,0,100,0,0
38744,-100,4,1,0,100,0,1
65597,-100,4,1,0,100,0,0
80702,-100,4,1,0,100,0,1
107555,-100,4,1,0,100,0,0
122660,-100,4,2,0,100,0,0
139340,-100,4,1,0,100,0,0
144478,-100,4,1,0,100,0,0
146156,-100,4,1,0,100,0,1
173107,-100,4,1,0,100,0,0

[Colours]
Combo1 : 255,255,0
Combo2 : 0,255,0
Combo3 : 192,26,21
Combo4 : 24,100,190

[HitObjects]
256,192,15248,2,0,B|352:128|416:296|520:144,2,225
256,192,16926,2,0,B|160:128|96:272|16:152,2,225
256,192,18604,6,0,B|168:88|328:88|248:-16,2,225
256,256,20073,1,0
296,304,20282,1,0
336,256,20492,1,0
400,256,20702,2,0,B|400:168,1,75
400,256,21122,2,0,B|400:360,1,75
400,328,21541,1,0
336,328,21751,1,0
272,328,21961,6,0,B|208:240|216:144|296:88|80:112,2,300
336,328,23849,1,0
336,264,24059,1,0
336,200,24268,1,0
336,136,24478,1,0
336,136,24583,1,0
336,136,24688,1,0
256,136,24898,1,0
256,136,25003,1,0
256,136,25108,1,0
176,136,25317,6,0,B|104:176|120:272,1,150
256,264,26157,2,0,B|344:264|344:264,1,75
256,184,28674,5,4
376,88,29513,1,0
376,288,30352,2,0,B|216:288,1,150
128,88,31401,1,0
256,192,32031,5,4
256,320,32870,1,4
256,192,33709,1,4
256,72,34548,1,4
80,192,35387,5,4
176,192,35702,1,0
192,192,35807,1,8
272,192,36122,1,0
288,192,36227,1,8
288,104,36541,1,0
288,88,36646,1,8
384,88,36961,5,0
400,88,37066,1,8
400,192,37275,1,8
400,296,37485,1,0
296,296,37695,1,8
296,192,37905,5,0
296,192,38010,1,0
296,192,38115,1,0
296,192,38220,1,0
296,192,38324,1,0
296,192,38429,1,0
296,192,38534,1,0
296,192,38639,1,0
296,192,38744,5,4
296,120,38954,1,0
232,120,39164,2,2,B|144:120,1,75
160,184,39583,1,0
160,248,39793,2,2,B|80:248,1,75
160,248,40213,2,0,B|256:248,1,75
160,248,40632,6,2,B|160:152,1,75
160,112,41052,1,0
224,112,41261,1,0
288,112,41471,1,10
352,112,41681,1,0
352,112,41786,1,0
352,112,41891,1,0
352,112,41996,1,0
352,112,42101,5,4
352,192,42310,2,2,B|352:280,1,75,2|10
288,192,42730,2,0,B|288:288,1,75
224,192,43150,2,2,B|224:280,1,75,2|10
160,192,43569,2,0,B|160:272,2,75
160,128,44199,2,2,B|160:48,1,75,10|2
224,56,44618,5,0
288,56,44828,1,10
352,56,45038,1,0
352,56,45143,1,0
352,56,45248,1,0
352,56,45352,1,0
352,56,45457,5,4
352,120,45667,1,0
320,168,45877,1,8
352,216,46087,1,0
328,272,46296,2,0,B|168:272,1,150,0|8
112,272,46926,1,0
192,104,47555,6,0,B|256:16|320:120,1,150
312,176,48185,1,0
312,240,48394,1,8
312,304,48604,2,0,B|224:304,1,75
176,304,49024,1,0
176,240,49234,1,8
176,176,49443,1,0
176,112,49653,2,0,B|120:48,1,75
176,112,50073,2,0,B|240:48,1,75,8|0
176,176,50492,5,0
240,176,50702,1,0
304,176,50912,1,8
368,176,51122,2,0,B|368:96,1,75
368,40,51541,1,0
368,40,51646,1,0
368,40,51751,1,0
368,40,51856,1,0
368,40,51961,1,0
368,40,52066,1,0
368,40,52171,6,0,B|184:40,1,150,4|8
216,336,53010,2,0,B|384:336,1,150,0|8
216,88,53849,6,0,B|32:88,1,150,0|8
64,152,54478,1,0
128,152,54688,1,0
192,152,54898,1,0
256,152,55108,1,8
256,152,55213,1,0
256,152,55317,1,0
256,152,55422,1,0
256,152,55527,5,0
256,224,55947,1,8
256,80,56366,1,0
256,152,56576,1,0
256,224,56786,1,8
320,216,56996,1,0
368,176,57206,5,0
368,112,57415,1,0
312,80,57625,1,8
248,80,57835,1,0
208,128,58045,5,0
160,168,58254,1,0
112,128,58464,1,8
72,80,58674,1,0
120,40,58884,5,0
256,16,59303,1,8
400,48,59723,1,0
400,160,60143,1,8
400,224,60352,1,0
120,296,60982,5,8
200,224,61296,1,0
200,208,61401,1,0
296,144,61716,1,0
296,128,61821,1,8
400,56,62136,1,8
400,56,62241,2,0,B|400:216,2,150,0|8|0
256,56,63499,5,8
88,56,63919,2,0,B|88:208,2,150,0|8|0
176,56,64968,1,0
256,56,65178,1,8
256,56,65282,1,0
256,56,65387,1,0
256,56,65492,1,0
256,56,65597,1,0
336,120,67275,5,0
168,264,67695,1,0
168,120,68115,1,0
336,264,68534,1,0
336,120,68954,6,0,B|256:120,2,75
336,120,69583,2,0,B|336:208,2,75
256,120,70213,2,0,B|256:72,4,37.5,0|0|0|0|4
144,240,71052,5,0
256,112,71471,1,0
352,240,71891,1,0
256,112,72310,1,0
256,112,72520,1,0
256,112,72730,1,0
256,192,72940,5,0
256,192,73150,1,0
256,192,73359,1,0
256,272,73569,2,0,B|256:312,4,37.5,0|0|0|0|4
256,192,74408,5,0
256,120,74828,1,0
256,192,75247,1,0
256,264,75667,5,0
256,264,75877,1,0
256,264,76087,1,0
256,336,76296,2,0,B|336:336,2,75
192,336,76926,6,0,B|144:336,4,37.5,0|0|0|0|4
392,192,77765,6,0,B|392:144,4,37.5,0|0|0|0|4
112,192,78604,6,0,B|112:144,4,37.5,0|0|0|0|4
256,192,79234,6,0,B|256:152,2,37.5,0|0|4
256,288,79653,6,0,B|256:328,2,37.5,0|0|4
328,288,80073,1,4
392,288,80282,2,0,B|392:256,8,18.75,0|0|0|0|0|0|0|0|4
392,192,80912,5,0
392,128,81122,1,8
392,64,81331,1,0
328,64,81541,1,0
328,128,81751,1,0
328,192,81961,1,8
328,256,82171,1,0
256,256,82380,6,0,B|168:256,2,75,0|0|8
256,120,83010,2,0,B|168:120,2,75
344,120,83639,1,8
344,120,83744,1,0
344,120,83849,1,0
344,120,83954,1,0
344,120,84059,5,4
344,192,84268,2,0,B|344:272,1,75,0|8
280,192,84688,2,0,B|280:280,1,75
216,264,85108,2,0,B|216:184,1,75,0|8
152,264,85527,2,0,B|152:184,1,75
152,128,85947,1,0
200,88,86157,1,8
248,48,86366,1,0
296,96,86576,1,0
248,136,86786,1,0
296,176,86996,6,0,B|240:232,2,75,8|0|0
416,56,87835,1,8
416,176,88254,1,0
416,240,88464,1,0
416,304,88674,1,8
256,304,89094,5,0
256,304,89303,1,0
256,304,89513,1,8
256,232,89723,1,0
256,232,89828,1,0
256,232,89933,1,0
256,160,90143,1,0
256,88,90352,1,8
256,88,90457,1,0
256,88,90562,1,0
256,88,90667,1,0
256,88,90772,1,0
392,88,91401,5,0
392,88,91506,1,0
392,88,91611,1,0
256,192,92241,5,0
256,192,92345,1,0
256,192,92450,1,0
384,336,92870,1,0
256,328,93289,5,0
256,304,93394,1,0
256,280,93499,1,0
256,256,93604,1,0
256,232,93709,1,0
256,208,93814,1,0
256,184,93919,1,0
256,160,94024,1,0
256,136,94129,5,4
256,64,94338,1,0
320,64,94548,2,0,B|400:64,1,75,8|0
400,128,94968,1,0
400,192,95178,2,0,B|400:272,1,75,0|8
336,264,95597,1,0
272,264,95807,6,0,B|184:264,2,75,0|0|8
272,200,96436,1,0
216,144,96646,1,0
216,144,96751,1,0
216,144,96856,1,0
320,144,97066,1,8
320,144,97171,1,0
320,144,97275,1,0
416,144,97485,6,0,B|416:232,1,75
352,216,97905,1,8
352,216,98115,1,0
288,216,98324,2,0,B|288:304,1,75
224,288,98744,1,8
224,288,98954,1,0
160,288,99164,6,0,B|160:200,1,75
96,288,99583,2,0,B|96:200,1,75,8|0
96,152,100003,1,0
96,128,100108,1,0
96,104,100213,1,0
96,80,100317,1,0
96,56,100422,5,0
120,56,100527,1,0
144,56,100632,1,0
168,56,100737,1,0
192,56,100842,1,0
256,192,101261,1,8
312,152,101471,1,0
256,192,101681,5,0
208,232,101891,1,0
168,184,102101,1,8
128,136,102310,1,0
184,96,102520,2,0,B|248:48,1,75
224,144,102940,2,0,B|296:88,1,75,8|0
264,200,103359,2,0,B|304:176,2,37.5
208,232,103779,6,0,B|160:264,4,37.5,8|0|0|8|0
368,320,104828,6,0,B|368:272,2,37.5
152,320,105667,6,0,B|152:272,2,37.5
256,192,106087,6,0,B|256:152,2,37.5
256,192,106506,2,0,B|256:248,2,37.5
256,296,106926,5,0
256,296,107031,1,0
256,296,107136,1,0
256,296,107241,1,0
256,296,107345,1,0
256,296,107450,1,0
256,296,107555,1,4
256,192,120982,5,0
336,192,121192,2,0,B|336:168,4,18.75
336,88,121611,2,0,B|336:128,2,37.5
256,88,122031,5,0
256,104,122136,1,0
256,120,122241,1,0
256,136,122345,1,0
256,152,122450,1,0
256,168,122555,1,0
256,184,122660,1,4
408,192,122870,6,0,B|408:96,1,75
344,120,123289,2,2,B|344:200,1,75
280,200,123709,2,0,B|280:112,1,75
216,128,124129,2,2,B|216:224,1,75
152,200,124548,6,0,B|152:120,2,75
152,264,125178,2,0,B|152:344,2,75
152,264,125807,1,0
216,264,126017,2,0,B|304:264,2,75
216,200,126646,2,2,B|216:120,1,75
352,80,127905,6,0,B|352:160,1,75
288,120,128324,2,2,B|288:216,1,75
224,168,128744,2,0,B|224:256,1,75
224,243,129164,1,0
288,240,129373,6,2,B|336:240,2,37.5
288,176,129793,2,2,B|288:120,4,37.5
360,176,130422,1,0
424,176,130632,1,0
424,112,130842,1,0
424,48,131052,6,0,B|424:16|424:16|360:16,1,75
368,72,131471,2,2,B|320:72|320:72|320:24,1,75
256,48,131891,2,0,B|216:48|216:48|216:96,3,75
216,152,132730,5,0
152,200,132940,1,0
224,240,133150,1,0
296,240,133359,1,0
368,240,133569,6,0,B|456:240,1,75
368,176,133989,2,2,B|456:176,1,75
440,112,134408,1,0
376,112,134618,1,0
312,112,134828,1,0
248,112,135038,1,0
184,112,135247,1,0
120,112,135457,1,0
120,176,135667,2,0,B|144:208|144:208|160:176|160:176|184:208|184:208|208:176,1,150,0|4
256,192,139443,5,4
256,88,140282,1,4
256,192,141122,5,4
256,296,141961,1,4
256,192,142800,5,4
336,192,143010,2,0,B|336:112,1,75
176,192,143429,2,0,B|176:112,1,75,0|0
256,192,143849,1,0
256,192,144059,1,0
256,120,144268,1,0
256,48,144478,2,0,B|304:32|352:104,4,75
256,120,145527,5,0
256,120,145632,1,0
256,120,145737,1,0
256,120,145842,1,0
256,120,145947,1,0
256,120,146052,1,0
256,120,146157,5,4
256,192,146366,2,0,B|256:288,1,75,0|8
256,192,146786,2,0,B|168:192,1,75,0|0
256,192,147206,2,0,B|368:192,2,75,0|8|0
256,128,147835,6,0,B|256:88|256:88|320:88,1,75
360,88,148254,1,8
424,88,148464,1,0
424,152,148674,6,0,B|424:208,2,37.5
256,184,149094,2,0,B|256:128,2,37.5,8|0|0
256,88,149513,5,0
192,88,149723,1,0
128,88,149933,2,0,B|128:168,1,75,8|0
128,224,150352,2,0,B|128:320,1,75
192,296,150772,1,8
232,248,150982,1,0
272,296,151192,5,0
312,248,151401,1,0
344,192,151611,1,8
320,136,151821,1,0
280,88,152031,5,0
248,72,152136,1,0
208,72,152241,1,0
176,72,152345,1,0
152,88,152450,1,8
112,136,152660,1,0
152,192,152870,6,0,B|256:192,2,75,0|0|8
88,192,153499,1,0
88,256,153709,2,0,B|88:352,2,75,0|0|8
88,192,154338,1,0
88,128,154548,6,0,B|256:128,2,150,0|8|0
88,64,155597,1,0
152,64,155807,1,8
216,64,156017,1,0
280,64,156227,6,0,B|376:64|368:176,2,150,0|8|0
256,192,157485,1,8
256,352,157905,2,0,B|160:352|160:248,2,150,0|8|0
256,280,158954,1,0
256,216,159164,1,8
256,152,159373,1,0
256,88,159583,5,0
288,88,159688,1,0
320,88,159793,1,0
352,88,159898,1,0
384,88,160003,1,8
256,192,160422,5,0
224,192,160527,1,0
192,192,160632,1,0
160,192,160737,1,0
128,192,160842,1,8
256,328,161261,5,0
256,56,161681,1,8
256,192,162101,2,0,B|320:128,2,75,0|0|8
256,192,162730,2,0,B|192:256,1,75
72,192,163359,5,8
432,192,163779,1,0
256,192,164199,2,0,B|256:40,1,150,8|0
152,40,165038,1,8
360,40,165457,1,0
256,40,165877,2,0,B|256:192,1,150,8|0
256,304,166716,5,8
368,192,167136,1,0
144,192,167555,1,8
256,192,167975,2,0,B|256:112,1,75
256,117,168394,2,0,B|256:32,1,75,8|0
320,48,168814,2,0,B|368:48,2,37.5
192,48,169234,2,0,B|144:48,2,37.5,8|0|0
424,48,169653,5,0
424,112,169863,1,0
424,176,170073,1,8
360,176,170282,1,0
296,176,170492,2,0,B|296:96,1,75
232,104,170912,2,0,B|152:104,1,75,8|0
160,176,171331,5,0
160,176,171436,1,0
160,176,171541,1,0
160,176,171646,1,0
160,176,171751,1,8
240,176,171961,1,0
240,176,172066,1,0
240,176,172171,1,8
320,176,172380,1,0
320,176,172485,1,0
320,176,172590,1,8
320,176,172695,1,0
320,176,172800,1,0
320,176,172905,1,0
320,176,173010,5,4
