osu file format v13

[General]
AudioFilename: worlds collide.mp3
AudioLeadIn: 0
PreviewTime: 58406
Countdown: 0
SampleSet: Soft
StackLeniency: 0.6
Mode: 0
LetterboxInBreaks: 0
WidescreenStoryboard: 0

[Editor]
DistanceSpacing: 0.9
BeatDivisor: 4
GridSize: 4
TimelineZoom: 1.2

[Metadata]
Title:Worlds Collide
TitleUnicode:Worlds Collide
Artist:Apocalyptica
ArtistUnicode:Apocalyptica
Creator:pishifat
Version:!
Source:
Tags:cello thrash symphonic metal extended long
BeatmapID:582427
BeatmapSetID:239360

[Difficulty]
HPDrainRate:7
CircleSize:4
OverallDifficulty:8.2
ApproachRate:9
SliderMultiplier:1.5
SliderTickRate:2

[Events]
//Background and Video events
0,0,"green.png",0,0
//Break Periods
//Storyboard Layer 0 (Background)
//Storyboard Layer 1 (Fail)
//Storyboard Layer 2 (Pass)
//Storyboard Layer 3 (Foreground)
//Storyboard Sound Samples

[TimingPoints]
1500,375,4,2,1,5,1,0
5812,-100,4,3,1,15,0,0
6000,-166.666666666667,4,2,1,20,0,0
27000,-181.818181818182,4,2,1,17,0,0
27750,-166.666666666667,4,2,1,13,0,0
28500,-166.666666666667,4,2,1,20,0,0
29250,-181.818181818182,4,2,1,20,0,0
30000,-153.846153846154,4,2,1,20,0,0
36000,-166.666666666667,4,2,1,20,0,0
36750,-166.666666666667,4,2,1,13,0,0
36937,-166.666666666667,4,2,1,20,0,0
44250,-166.666666666667,4,2,1,14,0,0
44437,-166.666666666667,4,2,1,20,0,0
46500,-166.666666666667,4,2,1,13,0,0
46687,-166.666666666667,4,2,1,20,0,0
50250,-166.666666666667,4,2,1,25,0,0
51187,-166.666666666667,4,2,1,20,0,0
51750,-166.666666666667,4,2,1,14,0,0
51937,-166.666666666667,4,2,1,20,0,0
54000,-153.846153846154,4,2,1,25,0,0
57000,-142.857142857143,4,2,1,30,0,0
58500,-142.857142857143,4,2,1,25,0,0
58687,-142.857142857143,4,2,1,35,0,0
59250,-142.857142857143,4,3,1,40,0,0
59437,-142.857142857143,4,2,1,30,0,0
59625,-142.857142857143,4,1,1,45,0,0
59812,-142.857142857143,4,2,1,45,0,0
60000,375,5,1,1,55,1,1
60000,-76.9230769230769,5,1,1,55,0,1
61312,-100,5,1,1,55,0,1
61875,-111.111111111111,5,1,1,55,0,1
62437,-100,5,1,1,55,0,1
63750,-76.9230769230769,5,1,1,55,0,1
65062,-100,5,1,1,55,0,1
67125,-76.9230769230769,5,1,1,55,0,1
68812,-100,5,1,1,55,0,1
69000,-111.111111111111,5,1,1,55,0,1
69937,-100,5,1,1,55,0,1
70125,-76.9230769230769,5,1,1,55,0,1
72562,-100,5,1,1,55,0,1
73125,-111.111111111111,5,1,1,55,0,1
74062,-76.9230769230769,5,1,1,55,0,1
74906,-76.9230769230769,5,1,1,30,0,1
75000,375,3,1,1,60,1,0
75000,-76.9230769230769,3,1,1,60,0,0
97500,375,4,1,1,50,1,0
122250,-76.9230769230769,4,1,1,50,0,0
123000,375,5,1,1,55,1,1
123000,-76.9230769230769,5,1,1,55,0,1
124312,-100,5,1,1,55,0,1
124875,-111.111111111111,5,1,1,55,0,1
125437,-100,5,1,1,55,0,1
126750,-76.9230769230769,5,1,1,55,0,1
128062,-100,5,1,1,55,0,1
128625,-111.111111111111,5,1,1,55,0,1
130500,-76.9230769230769,5,1,1,55,0,1
131812,-100,5,1,1,55,0,1
133500,-76.9230769230769,5,1,1,55,0,1
135562,-100,5,1,1,55,0,1
136125,-111.111111111111,5,1,1,55,0,1
136687,-100,5,1,1,55,0,1
137250,-76.9230769230769,5,1,1,55,0,1
137906,-76.9230769230769,5,1,1,30,0,1
138000,375,3,1,1,60,1,0
138000,-76.9230769230769,3,1,1,60,0,0
150562,-76.9230769230769,3,1,1,45,0,0
150750,-76.9230769230769,3,1,1,60,0,0
150937,-76.9230769230769,3,1,1,45,0,0
151125,-76.9230769230769,3,1,1,60,0,0
151312,-76.9230769230769,3,1,1,45,0,0
151500,-76.9230769230769,3,1,1,60,0,0
155156,-76.9230769230769,3,1,1,45,0,0
155250,-76.9230769230769,3,1,1,60,0,0
156000,-71.4285714285714,3,1,1,60,0,0
158250,-68.9655172413793,3,1,1,60,0,0
160500,-62.5,3,1,1,60,0,0
160875,-66.6666666666667,3,1,1,60,0,0
162750,-68.9655172413793,3,1,1,60,0,0
163312,-68.9655172413793,3,1,1,45,0,0
163500,-68.9655172413793,3,1,1,60,0,0
165000,-71.4285714285714,3,1,1,60,0,0
167250,-68.9655172413793,3,1,1,60,0,0
169500,-66.6666666666667,3,1,1,60,0,0
171750,-68.9655172413793,3,1,1,60,0,0
172875,-76.9230769230769,3,1,1,60,0,0
174000,375,4,1,1,50,1,0
174000,-90.9090909090909,4,1,1,40,0,0
176625,-90.9090909090909,4,1,1,50,0,0
180000,-90.9090909090909,4,1,1,40,0,0
183000,-90.9090909090909,4,1,1,32,0,0
184875,-90.9090909090909,4,1,1,27,0,0
186000,-111.111111111111,4,2,1,16,0,0
189000,-117.647058823529,4,2,1,16,0,0
192000,-125,4,2,1,16,0,0
195000,-133.333333333333,4,2,1,16,0,0
198000,375,5,2,1,15,1,0
198000,-149.253731343284,5,2,1,15,0,0
213000,-138.888888888889,5,2,1,17,0,0
216750,-138.888888888889,5,2,1,19,0,0
220500,-138.888888888889,5,2,1,21,0,0
224250,-125,5,2,1,23,0,0
228000,-76.9230769230769,5,1,1,55,0,1
229312,-100,5,1,1,55,0,1
229875,-111.111111111111,5,1,1,55,0,1
230437,-100,5,1,1,55,0,1
231750,-76.9230769230769,5,1,1,55,0,1
233062,-100,5,1,1,55,0,1
235125,-76.9230769230769,5,1,1,55,0,1
236812,-100,5,1,1,55,0,1
237375,-111.111111111111,5,1,1,55,0,1
237937,-100,5,1,1,55,0,1
238875,-83.3333333333333,5,1,1,55,0,1
239250,-76.9230769230769,5,1,1,55,0,1
240562,-100,5,1,1,55,0,1
241125,-111.111111111111,5,1,1,55,0,1
242062,-76.9230769230769,5,1,1,55,0,1
242906,-76.9230769230769,5,1,1,30,0,0
243000,-76.9230769230769,5,1,1,55,0,1
244312,-100,5,1,1,55,0,1
244875,-111.111111111111,5,1,1,55,0,1
245437,-100,5,1,1,55,0,1
246750,-76.9230769230769,5,1,1,55,0,1
248062,-100,5,1,1,55,0,1
250125,-76.9230769230769,5,1,1,55,0,1
251812,-100,5,1,1,55,0,1
252375,-111.111111111111,5,1,1,55,0,1
252937,-100,5,1,1,55,0,1
253500,-76.9230769230769,5,1,1,55,0,1
255562,-100,5,1,1,55,0,1
257250,-76.9230769230769,5,1,1,55,0,1
257906,-76.9230769230769,5,1,1,30,0,1
258000,375,3,1,1,60,1,0
258000,-74.0740740740741,3,1,1,60,0,0
296906,-74.0740740740741,3,2,1,5,0,0

[Colours]
Combo1 : 70,107,170
Combo2 : 147,66,66
Combo3 : 109,109,88
Combo4 : 88,109,105
Combo5 : 125,104,145

[HitObjects]
256,192,1875,12,0,5812,0:0:0:0:
39,271,6000,54,0,L|31:319,1,45
110,306,6375,2,0,L|102:354,1,45,0|0,0:0|0:0,0:0:0:0:
182,261,6750,2,0,L|194:316,1,45,0|0,0:0|0:0,0:0:0:0:
262,270,7125,2,0,L|274:325,1,45,0|0,0:0|0:0,0:0:0:0:
351,190,7500,6,0,L|306:184,1,45
388,118,7875,2,0,L|343:110,1,45
476,210,8250,2,0,L|421:217,1,45,0|0,0:0|0:0,0:0:0:0:
460,289,8625,2,0,L|412:297,1,45
292,352,9000,54,0,L|303:296,1,45
222,319,9375,2,0,L|233:263,1,45,0|0,0:0|0:0,0:0:0:0:
126,294,9750,2,0,L|66:305,1,45
89,224,10125,2,0,L|26:235,1,45
150,136,10500,6,0,L|159:87,1,45
269,16,10875,2,0,L|211:25,1,45
207,201,11250,2,0,L|237:148,1,45
323,80,11625,2,0,L|272:106,1,45
327,180,12000,54,0,L|372:185,1,45
343,262,12375,2,0,L|402:269,1,45
271,355,12750,2,0,L|222:364,1,45
227,284,13125,2,0,L|165:295,1,45,0|0,0:0|0:0,0:0:0:0:
58,262,13500,6,0,L|45:205,1,45
129,223,13875,2,0,L|117:171,1,45
174,59,14250,2,0,L|167:113,1,45
247,95,14625,2,0,L|240:149,1,45
330,222,15000,54,0,L|379:215,1,45
343,141,15375,2,0,L|402:130,1,45
452,286,15750,2,0,L|445:347,1,45
371,303,16125,2,0,L|363:362,1,45
257,257,16500,6,0,L|198:267,1,44.999998626709
72,270,16875,2,0,L|131:282,1,44.999998626709
231,339,17250,2,0,L|168:354,1,44.999998626709
67,358,17625,2,0,L|125:368,1,44.999998626709
232,339,18000,54,0,P|276:316|325:322,1,89.9999972534181,2|0,0:0|0:0,0:0:0:0:
400,353,18562,1,0,0:0:0:0:
400,353,18750,2,0,L|405:303,1,45
480,380,19125,2,0,L|483:327,1,45
445,238,19500,6,0,P|421:205|421:153,1,89.9999972534181,2|0,0:0|0:0,0:0:0:0:
435,71,20062,1,0,0:0:0:0:
435,71,20250,2,0,L|373:82,1,45
322,35,20625,2,0,L|274:31,1,45
172,112,21000,54,0,P|128:118|86:103,1,89.9999972534181,2|0,0:0|0:0,0:0:0:0:
42,35,21562,1,0,0:0:0:0:
42,35,21750,2,0,L|-13:52,1,44.999998626709
87,104,22125,2,0,L|32:122,1,44.999998626709
80,219,22500,6,0,P|155:227|174:241,1,89.9999972534181,2|0,0:0|0:0,0:0:0:0:
212,332,23062,1,0,0:0:0:0:
212,332,23250,2,0,L|267:340,1,45
332,274,23625,2,0,L|270:267,1,45
217,200,24000,54,0,P|266:174|314:178,1,90,2|0,0:0|0:0,0:0:0:0:
395,214,24562,1,0,0:0:0:0:
395,214,24750,2,0,L|386:161,1,45
310,81,25125,2,0,L|365:90,1,45
229,59,25500,6,0,L|174:71,1,45
212,140,25875,2,0,L|157:152,1,45,0|0,0:0|0:0,0:0:0:0:
75,114,26250,2,0,P|25:121|-13:151,1,90,2|0,0:0|0:0,0:0:0:0:
63,208,26812,1,0,0:0:0:0:
63,208,27000,54,0,P|114:215|152:236,1,82.5000025177003,2|0,0:0|0:0,0:0:0:0:
176,316,27562,1,0,0:0:0:0:
176,316,27750,2,0,L|185:371,1,44.999998626709,0|0,0:0|0:0,0:0:0:0:
228,255,28125,2,0,L|220:204,1,44.999998626709
286,320,28500,6,0,P|321:339|383:336,1,89.9999972534181,2|0,0:0|0:0,0:0:0:0:
434,282,29062,1,0,0:0:0:0:
434,282,29250,2,0,P|416:237|419:202,1,82.5000025177003,2|0,0:0|0:0,0:0:0:0:
453,111,29812,1,0,0:0:0:0:
453,111,30000,54,0,P|418:120|342:98,1,97.4999955368044,2|0,0:0|0:0,0:0:0:0:
276,45,30562,1,0,0:0:0:0:
276,45,30750,2,0,L|214:60,1,48.7499977684022
140,122,31125,2,0,L|188:128,1,48.7499977684022
272,185,31500,6,0,P|290:219|280:291,1,97.4999955368044,2|0,0:0|0:0,0:0:0:0:
232,350,32062,1,0,0:0:0:0:
232,350,32250,2,0,L|296:354,1,48.7499977684022
186,280,32625,2,0,L|136:277,1,48.7499977684022
39,302,33000,54,0,P|12:263|17:207,1,97.4999955368044,2|0,0:0|0:0,0:0:0:0:
83,137,33562,1,0,0:0:0:0:
83,137,33750,2,0,L|72:80,1,48.7499977684022
169,166,34125,2,0,L|159:111,1,48.7499977684022
229,230,34500,6,0,P|268:255|326:251,1,97.4999955368044,2|0,0:0|0:0,0:0:0:0:
409,236,35062,1,0,0:0:0:0:
409,236,35250,2,0,L|424:305,1,48.7499977684022
390,154,35625,2,0,L|396:106,1,48.7499977684022,0|0,0:0|0:0,0:0:0:0:
314,213,36000,54,0,P|273:232|229:230,1,89.9999972534181,2|0,0:0|0:0,0:0:0:0:
134,211,36562,1,0,0:0:0:0:
134,211,36750,2,0,L|74:215,1,44.999998626709,0|0,0:0|0:0,0:0:0:0:
124,290,37125,2,0,L|67:295,1,44.999998626709,0|0,0:0|0:0,0:0:0:0:
198,360,37500,6,0,L|251:366,1,44.999998626709
224,285,37875,2,0,L|285:292,1,44.999998626709
355,357,38250,2,0,P|398:360|446:332,1,89.9999972534181,2|0,0:0|0:0,0:0:0:0:
447,189,38812,1,0,0:0:0:0:
447,189,39000,54,0,L|441:251,1,44.999998626709
370,162,39375,2,0,L|364:224,1,44.999998626709,0|0,0:0|0:0,0:0:0:0:
283,96,39750,2,0,L|292:145,1,44.999998626709
212,144,40125,2,0,L|223:195,1,44.999998626709
213,283,40500,6,0,P|175:274|133:221,1,89.9999972534181,2|0,0:0|0:0,0:0:0:0:
116,150,41062,1,0,0:0:0:0:
116,150,41250,2,0,L|60:154,1,44.999998626709
151,70,41625,1,0,0:0:0:0:
227,93,41812,1,0,0:0:0:0:
289,41,42000,54,0,P|336:38|386:60,1,89.9999972534181,2|0,0:0|0:0,0:0:0:0:
438,109,42562,1,0,0:0:0:0:
438,109,42750,2,0,L|503:105,1,44.999998626709
414,190,43125,2,0,L|476:187,1,44.999998626709
339,154,43500,6,0,P|286:158|242:191,1,89.9999972534181,2|0,0:0|0:0,0:0:0:0:
209,268,44062,1,0,0:0:0:0:
209,268,44250,2,0,L|149:277,1,44.999998626709,0|0,0:0|0:0,0:0:0:0:
282,298,44625,2,0,L|335:306,1,44.999998626709
193,359,45000,54,0,P|153:364|95:349,1,89.9999972534181,2|0,0:0|0:0,0:0:0:0:
26,281,45562,1,0,0:0:0:0:
26,281,45750,2,0,P|60:277|110:250,1,89.9999972534181,2|0,0:0|0:0,0:0:0:0:
156,162,46312,1,0,0:0:0:0:
156,162,46500,6,0,L|214:170,1,44.999998626709,0|0,0:0|0:0,0:0:0:0:
322,207,46875,2,0,L|260:213,1,44.999998626709
194,300,47250,2,0,P|247:325|288:316,1,89.9999972534181,2|0,0:0|0:0,0:0:0:0:
359,283,47812,1,0,0:0:0:0:
359,283,48000,54,0,P|338:244|341:200,1,89.9999972534181,2|0,0:0|0:0,0:0:0:0:
367,110,48562,1,0,0:0:0:0:
367,110,48750,2,0,L|310:122,1,44.999998626709
309,42,49125,2,0,L|246:55,1,44.999998626709
207,146,49500,6,0,P|228:185|217:240,1,89.9999972534181,2|0,0:0|0:0,0:0:0:0:
170,300,50062,1,0,0:0:0:0:
170,300,50250,2,0,L|223:309,1,44.999998626709
70,314,50625,1,0,0:0:0:0:
59,237,50812,1,0,0:0:0:0:
50,160,51000,54,0,L|0:154,1,44.999998626709
90,95,51375,2,0,L|141:89,1,44.999998626709
249,147,51750,2,0,L|263:209,1,44.999998626709,0|0,0:0|0:0,0:0:0:0:
316,102,52125,2,0,L|329:157,1,44.999998626709
406,243,52500,6,0,L|356:238,1,44.999998626709
368,317,52875,2,0,L|317:311,1,44.999998626709
217,319,53250,2,0,L|210:383,1,44.999998626709
188,240,53625,2,0,L|181:189,1,44.999998626709
236,113,54000,54,0,P|270:132|335:129,1,97.4999955368044,2|0,0:0|0:0,0:0:0:0:
415,107,54562,1,0,0:0:0:0:
415,107,54750,2,0,L|410:167,1,48.7499977684022
370,238,55125,2,0,L|376:287,1,48.7499977684022
308,180,55500,6,0,L|248:169,1,48.7499977684022
273,251,55875,2,0,L|221:241,1,48.7499977684022
112,196,56250,2,0,L|116:244,1,48.7499977684022
36,227,56625,2,0,L|42:293,1,48.7499977684022
2,117,57000,54,0,P|41:88|98:88,1,104.999996795654,2|0,0:0|0:0,0:0:0:0:
182,112,57562,1,0,0:0:0:0:
182,112,57750,2,0,L|177:53,1,52.4999983978272
256,90,58125,2,0,L|251:25,1,52.4999983978272
308,157,58500,5,2,0:0:0:0:
339,230,58687,1,4,0:3:0:0:
185,198,58875,1,8,0:3:0:0:
146,280,59062,1,0,0:3:0:0:
358,340,59250,1,8,0:0:0:0:
256,375,59437,1,8,0:3:0:0:
256,90,59625,37,8,0:0:0:0:
260,298,59812,1,4,0:3:0:0:
260,298,60000,38,0,B|139:309,1,97.4999955368044,6|0,0:0|0:0,0:0:0:0:
358,339,60375,2,0,B|394:349|394:349|455:354,1,97.4999955368044,2|0,0:0|0:0,0:0:0:0:
185,198,60750,1,10,0:0:0:0:
171,210,61125,5,6,0:0:0:0:
354,92,61312,2,0,L|268:96,1,75
157,223,61687,5,2,0:0:0:0:
364,248,61875,2,0,B|401:252|401:252|449:268,1,67.4999979400635,0|0,0:0|0:0,0:0:0:0:
145,238,62250,37,10,0:0:0:0:
406,168,62437,2,0,B|304:176,1,75
131,254,62812,5,8,0:3:0:0:
294,311,63000,1,4,0:3:0:0:
190,332,63187,1,4,0:3:0:0:
79,91,63375,1,4,0:3:0:0:
56,190,63562,1,4,0:3:0:0:
230,99,63750,6,0,B|264:92|264:92|344:97,1,97.4999955368044,6|0,0:0|0:0,0:0:0:0:
280,268,64125,2,0,L|270:171,1,97.4999955368044,2|0,0:0|0:0,0:0:0:0:
439,24,64500,1,10,0:0:0:0:
444,44,64875,37,6,0:0:0:0:
198,152,65062,2,0,L|275:161,1,75
449,59,65437,5,2,0:0:0:0:
507,152,65625,1,0,0:0:0:0:
408,333,65812,1,8,0:0:0:0:
454,74,66000,5,2,0:0:0:0:
263,187,66187,2,0,B|223:171|223:171|178:138,1,75,8|0,0:3|0:0,0:0:0:0:
461,89,66562,37,8,0:3:0:0:
440,193,66750,1,8,0:3:0:0:
495,284,66937,1,4,0:3:0:0:
362,120,67125,2,0,B|322:105|322:105|239:98,1,97.4999955368044,8|0,0:0|0:0,0:0:0:0:
177,327,67500,6,0,L|285:320,1,97.4999955368044,6|0,0:0|0:0,0:0:0:0:
116,245,67875,2,0,B|89:300|89:300|79:357,1,97.4999955368044,2|0,0:0|0:0,0:0:0:0:
341,210,68250,1,8,0:0:0:0:
348,225,68625,5,6,0:0:0:0:
169,112,68812,2,0,L|59:120,1,75
357,240,69187,37,2,0:0:0:0:
224,202,69375,2,0,B|192:196|192:196|143:198,1,67.4999979400635
363,254,69750,5,10,0:0:0:0:
239,65,69937,2,0,B|204:47|204:47|153:36,1,75
53,249,70312,5,8,0:0:0:0:
80,214,70406,1,0,0:0:0:0:
87,172,70500,2,0,P|81:147|78:109,1,48.7499977684022,8|0,0:3|0:0,0:0:0:0:
178,217,70687,2,0,P|203:211|228:200,1,48.7499977684022,4|0,0:3|0:0,0:0:0:0:
267,101,70875,1,8,0:0:0:0:
302,275,71062,1,8,0:3:0:0:
340,254,71156,1,0,0:0:0:0:
378,236,71250,38,0,B|416:242|416:242|492:271,1,97.4999955368044,6|0,0:0|0:0,0:0:0:0:
303,369,71625,2,0,B|340:357|340:357|404:318,1,97.4999955368044,2|0,0:0|0:0,0:0:0:0:
426,113,72000,1,10,0:0:0:0:
435,128,72375,5,6,0:0:0:0:
262,50,72562,2,0,L|164:46,1,75
443,144,72937,5,2,0:0:0:0:
154,122,73125,2,0,B|127:92|127:92|109:57,1,67.4999979400635,8|0,0:0|0:0,0:0:0:0:
452,159,73500,37,2,0:0:0:0:
431,260,73687,1,8,0:0:0:0:
362,30,73875,1,8,0:0:0:0:
246,124,74062,5,8,0:0:0:0:
237,167,74156,1,0,0:0:0:0:
256,206,74250,2,0,L|336:200,1,48.7499977684022,8|0,0:3|0:0,0:0:0:0:
280,312,74437,2,0,L|211:305,1,48.7499977684022,4|0,0:3|0:0,0:0:0:0:
128,268,74625,2,0,P|70:207|-13:227,1,146.249993305207,8|0,0:3|0:0,0:0:0:0:
23,222,75000,6,0,B|56:203|56:203|98:152,1,97.4999955368044,6|0,0:0|0:0,0:0:0:0:
169,30,75375,1,8,0:0:0:0:
77,46,75562,1,0,0:0:0:0:
260,109,75750,2,0,B|325:112|325:112|388:101,1,97.4999955368044,8|0,0:0|0:0,0:0:0:0:
181,164,76125,37,10,0:0:0:0:
304,239,76312,1,0,0:0:0:0:
346,246,76406,1,0,0:0:0:0:
388,255,76500,1,8,0:0:0:0:
357,107,76687,1,0,0:0:0:0:
261,311,76875,2,0,B|236:338|236:338|148:374,1,97.4999955368044,8|0,0:0|0:0,0:0:0:0:
103,207,77250,6,0,B|116:178|116:178|129:109,1,97.4999955368044,10|0,0:0|0:0,0:0:0:0:
151,32,77531,1,0,0:0:0:0:
189,14,77625,1,8,0:0:0:0:
7,257,77812,1,0,0:0:0:0:
197,185,78000,2,0,L|299:176,1,97.4999955368044,8|0,0:0|0:0,0:0:0:0:
39,154,78375,5,10,0:0:0:0:
176,265,78562,1,0,0:0:0:0:
214,275,78656,1,0,0:0:0:0:
258,278,78750,1,8,0:0:0:0:
372,208,78937,1,0,0:0:0:0:
338,181,79031,1,0,0:0:0:0:
327,143,79125,2,0,L|336:87,1,48.7499977684022,8|0,0:0|0:0,0:0:0:0:
248,38,79312,2,0,L|256:97,1,48.7499977684022
197,185,79500,38,0,B|158:189|158:189|77:176,1,97.4999955368044,14|0,0:0|0:0,0:0:0:0:
258,278,79875,1,8,0:0:0:0:
208,366,80062,1,0,0:0:0:0:
96,262,80250,2,0,L|-24:271,1,97.4999955368044,8|0,0:0|0:0,0:0:0:0:
160,115,80625,5,10,0:0:0:0:
258,278,80812,1,0,0:0:0:0:
271,241,80906,1,0,0:0:0:0:
287,203,81000,1,8,0:0:0:0:
189,222,81187,1,0,0:0:0:0:
364,156,81375,2,0,B|422:150|422:150|475:134,1,97.4999955368044,8|0,0:0|0:0,0:0:0:0:
215,48,81750,5,10,0:0:0:0:
118,175,81937,2,0,L|57:170,1,48.7499977684022
3,118,82125,1,8,0:0:0:0:
75,340,82312,2,0,L|21:308,1,48.7499977684022
26,233,82500,1,8,0:0:0:0:
197,343,82687,1,8,0:0:0:0:
307,186,82875,38,0,L|316:117,2,48.7499977684022,2|0|8,0:0|0:0|0:0,0:0:0:0:
471,357,83250,1,8,0:0:0:0:
297,259,83437,1,8,0:3:0:0:
340,253,83530,1,0,0:0:0:0:
383,261,83624,1,8,0:3:0:0:
421,282,83718,5,0,0:0:0:0:
419,232,83812,1,4,0:3:0:0:
437,186,83906,1,0,0:0:0:0:
501,151,84000,6,0,B|462:151|462:151|393:138,1,97.4999955368044,6|0,0:0|0:0,0:0:0:0:
165,161,84375,1,8,0:0:0:0:
263,143,84562,1,0,0:0:0:0:
118,15,84750,2,0,B|21:5,1,97.4999955368044,8|0,0:0|0:0,0:0:0:0:
139,241,85125,37,10,0:0:0:0:
63,64,85312,1,0,0:0:0:0:
25,89,85406,1,0,0:0:0:0:
7,130,85500,2,0,B|20:159|20:159|28:228,1,97.4999955368044,8|0,0:0|0:0,0:0:0:0:
43,304,85781,1,0,0:0:0:0:
84,321,85875,1,8,0:0:0:0:
87,138,86062,1,0,0:0:0:0:
127,132,86156,1,0,0:0:0:0:
167,149,86250,6,0,B|197:155|197:155|280:141,1,97.4999955368044,10|0,0:0|0:0,0:0:0:0:
441,28,86625,1,8,0:0:0:0:
502,102,86812,1,0,0:0:0:0:
295,62,87000,2,0,L|186:80,1,97.4999955368044,8|0,0:0|0:0,0:0:0:0:
436,159,87375,6,0,B|457:189|457:189|474:260,1,97.4999955368044,8|0,0:0|0:0,0:0:0:0:
213,325,87750,1,8,0:0:0:0:
374,285,87937,1,0,0:0:0:0:
365,235,88031,1,0,0:0:0:0:
331,200,88125,2,0,L|250:213,1,48.7499977684022,8|0,0:3|0:0,0:0:0:0:
160,211,88312,1,4,0:3:0:0:
199,195,88406,1,0,0:0:0:0:
241,178,88500,38,0,L|339:164,1,97.4999955368044,14|0,0:0|0:0,0:0:0:0:
213,325,88875,1,8,0:0:0:0:
292,273,89062,1,0,0:0:0:0:
99,313,89250,2,0,B|61:312|61:312|-5:292,1,97.4999955368044,8|0,0:0|0:0,0:0:0:0:
69,131,89625,6,0,L|78:254,1,97.4999955368044,10|0,0:0|0:0,0:0:0:0:
303,96,90000,1,8,0:0:0:0:
242,178,90187,1,0,0:0:0:0:
109,59,90375,1,8,0:0:0:0:
155,157,90562,1,0,0:0:0:0:
161,203,90656,1,0,0:0:0:0:
174,243,90750,6,0,B|210:248|210:248|273:272,1,97.4999955368044,2|0,0:0|0:0,0:0:0:0:
474,348,91125,1,8,0:0:0:0:
384,370,91312,1,0,0:0:0:0:
318,202,91500,1,8,0:0:0:0:
331,210,91875,37,8,0:0:0:0:
383,113,92062,1,8,0:0:0:0:
367,68,92156,1,0,0:0:0:0:
328,42,92250,1,2,0:0:0:0:
281,46,92343,1,0,0:0:0:0:
239,66,92437,1,8,0:0:0:0:
189,72,92531,1,0,0:0:0:0:
144,58,92625,2,0,L|82:48,1,48.7499977684022,8|0,0:3|0:0,0:0:0:0:
15,112,92812,2,0,L|107:129,1,48.7499977684022,4|0,0:3|0:0,0:0:0:0:
196,171,93000,5,6,0:0:0:0:
86,298,93187,1,2,0:0:0:0:
305,127,93375,1,2,0:0:0:0:
182,315,93562,1,2,0:0:0:0:
361,197,93750,1,2,0:0:0:0:
370,209,94125,5,2,0:0:0:0:
463,24,94312,1,2,0:0:0:0:
305,127,94500,1,2,0:0:0:0:
122,63,94687,1,2,0:0:0:0:
347,53,94875,1,2,0:0:0:0:
332,42,95250,37,2,0:0:0:0:
370,209,95437,1,2,0:0:0:0:
212,193,95625,1,2,0:0:0:0:
50,178,95812,1,2,0:0:0:0:
461,250,97500,21,6,0:0:0:0:
451,264,97875,1,0,0:0:0:0:
363,304,98062,1,0,0:0:0:0:
381,143,98250,2,0,P|343:139|296:137,1,75,8|0,0:0|0:0,0:0:0:0:
230,260,98625,2,0,P|287:244|334:239,1,75
190,335,99000,22,0,P|110:328|41:326,1,150,2|0,0:0|0:0,0:0:0:0:
40,325,99562,1,0,0:0:0:0:
164,219,99750,1,8,0:0:0:0:
95,157,99937,2,0,P|60:137|18:128,1,75
168,223,100312,1,0,0:0:0:0:
168,223,100500,54,0,L|257:236,1,75,2|0,0:0|0:0,0:0:0:0:
316,177,100875,2,0,P|343:149|384:129,1,75
481,235,101250,1,8,0:0:0:0:
466,228,101625,2,0,L|386:233,1,75
316,177,102000,54,0,P|270:129|189:129,1,150,2|0,0:0|0:0,0:0:0:0:
190,128,102562,1,0,0:0:0:0:
300,258,102750,2,0,P|263:260|226:271,1,75,8|0,0:0|0:0,0:0:0:0:
376,233,103125,2,0,P|432:245|457:258,1,75
364,311,103500,21,2,0:0:0:0:
380,316,103875,1,0,0:0:0:0:
456,368,104062,1,0,0:0:0:0:
437,168,104250,2,0,P|396:141|352:133,1,75,8|0,0:0|0:0,0:0:0:0:
285,204,104625,2,0,P|249:205|203:198,1,75
123,149,105000,54,0,P|172:182|175:268,1,150,2|0,0:0|0:0,0:0:0:0:
175,266,105562,1,0,0:0:0:0:
233,107,105750,1,8,0:0:0:0:
243,119,106125,2,0,L|325:126,1,75
435,183,106500,54,0,P|358:189|306:113,1,150,2|0,0:0|0:0,0:0:0:0:
299,41,107062,1,0,0:0:0:0:
182,185,107250,1,8,0:0:0:0:
192,198,107625,1,0,0:0:0:0:
280,216,107812,1,0,0:0:0:0:
220,284,108000,22,0,P|249:335|346:332,1,150,2|0,0:0|0:0,0:0:0:0:
470,221,108562,1,2,0:0:0:0:
469,227,108656,1,0,0:0:0:0:
468,233,108750,2,0,P|425:235|371:243,1,75,8|0,0:0|0:0,0:0:0:0:
496,128,109125,1,0,0:0:0:0:
389,136,109312,1,8,0:0:0:0:
377,134,109406,1,0,0:0:0:0:
365,132,109500,53,6,0:0:0:0:
137,294,109875,1,0,0:0:0:0:
98,209,110062,1,0,0:0:0:0:
266,233,110250,2,0,P|288:188|290:146,1,75,8|0,0:0|0:0,0:0:0:0:
207,84,110625,2,0,P|186:37|181:3,1,75
178,158,111000,54,0,P|110:163|5:182,1,150,2|0,0:0|0:0,0:0:0:0:
29,177,111562,1,0,0:0:0:0:
267,235,111750,1,8,0:0:0:0:
254,249,112125,2,0,L|244:333,1,75
347,232,112500,21,2,0:0:0:0:
140,351,112875,2,0,P|101:358|66:358,1,75
108,146,113250,1,8,0:0:0:0:
96,162,113625,2,0,P|132:178|193:185,1,75
245,138,114000,54,0,P|330:135|371:187,1,150,2|0,0:0|0:0,0:0:0:0:
368,180,114562,1,0,0:0:0:0:
265,21,114750,1,8,0:0:0:0:
292,208,115125,2,0,L|303:301,1,75
314,375,115500,54,0,P|322:315|405:291,1,150,6|0,0:0|0:0,0:0:0:0:
399,288,116062,1,0,0:0:0:0:
302,126,116250,2,0,B|250:115|250:115|150:109,1,150,8|0,0:0|0:0,0:0:0:0:
69,136,116812,1,0,0:0:0:0:
175,37,117000,22,0,P|210:60|181:180,1,150,2|0,0:0|0:0,0:0:0:0:
142,219,117562,1,0,0:0:0:0:
302,127,117750,2,0,P|400:144|436:204,1,150,8|0,0:0|0:0,0:0:0:0:
428,180,118312,1,0,0:0:0:0:
342,205,118500,54,0,B|284:212|284:212|186:246,1,150,6|0,0:0|0:0,0:0:0:0:
142,318,119062,1,0,0:0:0:0:
116,111,119250,1,8,0:0:0:0:
56,176,119437,1,0,0:0:0:0:
238,34,119625,1,8,0:0:0:0:
226,119,119812,1,0,0:0:0:0:
383,60,120000,54,0,P|454:53|515:121,1,150,6|0,0:0|0:0,0:0:0:0:
509,102,120562,1,0,0:0:0:0:
339,213,120750,1,8,0:0:0:0:
354,226,121125,1,0,0:0:0:0:
368,238,121500,22,0,L|374:321,1,75,2|0,0:0|0:0,0:0:0:0:
332,84,121875,1,8,0:0:0:0:
298,280,122062,1,8,0:0:0:0:
295,291,122156,1,0,0:0:0:0:
293,302,122250,2,0,L|232:312,1,48.7499977684022,8|0,0:0|0:0,0:0:0:0:
140,364,122437,2,4,L|213:373,1,48.7499977684022,0|0,0:0|0:0,3:0:0:0:
234,233,122625,1,8,0:0:0:0:
399,356,123000,6,0,L|509:368,1,97.4999955368044,6|0,0:0|0:0,0:0:0:0:
294,302,123375,2,0,B|233:311|233:311|176:303,1,97.4999955368044,2|0,0:0|0:0,0:0:0:0:
170,118,123750,1,10,0:0:0:0:
155,122,124125,5,6,0:0:0:0:
408,73,124312,2,0,L|333:64,1,75
143,127,124687,5,2,0:0:0:0:
378,143,124875,2,0,B|413:147|413:147|453:157,1,67.4999979400635
130,132,125250,37,10,0:0:0:0:
397,220,125437,2,0,L|319:229,1,75
117,138,125812,5,8,0:3:0:0:
232,267,126000,1,4,0:3:0:0:
219,366,126187,1,4,0:3:0:0:
308,155,126375,1,4,0:3:0:0:
397,220,126562,1,4,0:3:0:0:
309,36,126750,6,0,B|272:24|272:24|180:30,1,97.4999955368044,6|0,0:0|0:0,0:0:0:0:
394,52,127125,2,0,L|505:41,1,97.4999955368044,2|0,0:0|0:0,0:0:0:0:
261,106,127500,1,10,0:0:0:0:
254,89,127875,37,6,0:0:0:0:
256,311,128062,2,0,B|247:281|247:281|236:220,1,75
248,75,128437,5,2,0:0:0:0:
177,305,128625,2,0,B|188:342|188:342|212:388,1,67.4999979400635,8|0,0:0|0:0,0:0:0:0:
242,61,129000,5,2,0:0:0:0:
329,125,129187,1,0,0:0:0:0:
38,57,129375,1,8,0:0:0:0:
219,152,129562,37,8,0:3:0:0:
268,50,129750,1,4,0:3:0:0:
110,189,129937,1,4,0:3:0:0:
305,53,130125,1,4,0:3:0:0:
74,186,130312,1,4,0:3:0:0:
345,212,130500,6,0,L|460:222,1,97.4999955368044,6|0,0:0|0:0,0:0:0:0:
249,282,130875,2,0,B|193:311|193:311|166:335,1,97.4999955368044,2|0,0:0|0:0,0:0:0:0:
301,130,131250,1,10,0:0:0:0:
316,137,131625,5,6,0:0:0:0:
108,65,131812,2,0,L|196:72,1,75
332,144,132187,37,2,0:0:0:0:
294,50,132375,1,0,0:0:0:0:
255,302,132562,1,8,0:0:0:0:
347,151,132750,5,2,0:0:0:0:
136,242,132937,2,0,B|171:240|171:240|222:233,1,75,4|0,0:3|0:0,0:0:0:0:
75,77,133312,5,2,0:0:0:0:
87,119,133406,1,0,0:0:0:0:
104,159,133500,2,0,L|186:168,1,48.7499977684022,8|0,0:3|0:0,0:0:0:0:
259,237,133687,2,0,L|210:234,1,48.7499977684022,4|0,0:3|0:0,0:0:0:0:
234,132,133875,1,4,0:0:0:0:
122,262,134062,1,8,0:3:0:0:
113,303,134156,1,0,0:0:0:0:
119,346,134250,38,0,B|159:352|159:352|221:373,1,97.4999955368044,6|0,0:0|0:0,0:0:0:0:
435,347,134625,2,0,L|306:354,1,97.4999955368044,2|0,0:0|0:0,0:0:0:0:
104,159,135000,1,10,0:0:0:0:
90,169,135375,5,2,0:0:0:0:
309,136,135562,2,0,L|216:131,1,75,4|0,0:0|0:0,0:0:0:0:
79,179,135937,5,2,0:0:0:0:
362,199,136125,2,0,B|391:204|391:204|440:225,1,67.4999979400635
68,191,136500,37,10,0:0:0:0:
289,207,136687,2,0,B|255:229|255:229|207:246,1,75
399,94,137062,5,8,0:0:0:0:
461,239,137250,1,8,0:0:0:0:
455,280,137343,1,0,0:0:0:0:
449,320,137437,1,4,0:3:0:0:
443,362,137531,1,0,0:0:0:0:
512,348,137625,2,0,P|466:292|393:307,1,146.249993305207,8|0,0:3|0:0,0:0:0:0:
336,344,138000,6,0,B|324:316|324:316|317:225,1,97.4999955368044,6|0,0:0|0:0,0:0:0:0:
282,26,138375,1,8,0:0:0:0:
191,74,138562,1,0,0:0:0:0:
399,94,138750,2,0,L|514:86,1,97.4999955368044,8|0,0:0|0:0,0:0:0:0:
285,197,139125,38,0,B|243:198|243:198|162:183,1,97.4999955368044,10|0,0:0|0:0,0:0:0:0:
0,64,139500,1,8,0:0:0:0:
66,155,139687,1,0,0:0:0:0:
73,199,139781,1,0,0:0:0:0:
80,242,139875,2,0,L|188:266,1,97.4999955368044,8|0,0:0|0:0,0:0:0:0:
353,318,140250,6,0,B|295:304|295:304|241:268,1,97.4999955368044,10|0,0:0|0:0,0:0:0:0:
505,150,140625,1,8,0:0:0:0:
412,169,140812,1,0,0:0:0:0:
321,59,141000,2,0,B|263:49|263:49|203:53,1,97.4999955368044,8|0,0:0|0:0,0:0:0:0:
477,246,141375,5,10,0:0:0:0:
321,177,141562,1,0,0:0:0:0:
276,184,141656,1,0,0:0:0:0:
230,191,141750,2,0,B|194:209|194:209|148:246,1,97.4999955368044,8|0,0:0|0:0,0:0:0:0:
126,319,142031,1,0,0:0:0:0:
83,333,142124,1,12,0:0:0:0:
164,137,142312,1,0,0:0:0:0:
120,125,142406,1,0,0:0:0:0:
73,126,142500,38,0,B|35:137|35:137|-24:142,1,97.4999955368044,14|0,0:0|0:0,0:0:0:0:
254,267,142875,1,8,0:0:0:0:
150,244,143062,1,0,0:0:0:0:
362,344,143250,2,0,L|467:352,1,97.4999955368044,8|0,0:0|0:0,0:0:0:0:
368,144,143625,5,10,0:0:0:0:
222,172,143812,1,0,0:0:0:0:
180,154,143906,1,0,0:0:0:0:
153,123,144000,1,8,0:0:0:0:
287,342,144187,1,0,0:0:0:0:
278,302,144281,1,0,0:0:0:0:
250,261,144375,1,8,0:0:0:0:
78,345,144562,1,0,0:0:0:0:
46,313,144656,1,0,0:0:0:0:
30,274,144750,6,0,B|35:239|35:239|26:172,1,97.4999955368044,6|0,0:0|0:0,0:0:0:0:
15,27,145125,1,8,0:0:0:0:
116,184,145312,1,8,0:0:0:0:
148,146,145406,1,0,0:0:0:0:
160,102,145500,2,0,L|213:97,1,48.7499977684022,8|0,0:0|0:0,0:0:0:0:
334,133,145687,2,0,L|277:128,1,48.7499977684022,4|0,0:3|0:0,0:0:0:0:
220,177,145875,37,8,0:3:0:0:
260,204,145969,1,0,0:0:0:0:
281,247,146062,1,8,0:3:0:0:
278,295,146156,1,0,0:0:0:0:
249,339,146250,2,0,L|297:347,1,48.7499977684022,8|0,0:0|0:0,0:0:0:0:
404,283,146437,2,0,L|355:291,1,48.7499977684022,8|0,0:0|0:0,0:0:0:0:
427,357,146625,1,8,0:3:0:0:
467,329,146718,1,0,0:0:0:0:
479,277,146812,1,4,0:3:0:0:
456,228,146906,1,0,0:0:0:0:
404,283,147000,6,0,B|377:258|377:258|330:178,1,97.4999955368044,6|0,0:0|0:0,0:0:0:0:
451,38,147375,1,8,0:0:0:0:
501,130,147562,1,0,0:0:0:0:
320,69,147750,2,0,B|266:77|266:77|222:97,1,97.4999955368044,8|0,0:0|0:0,0:0:0:0:
238,343,148125,5,10,0:0:0:0:
108,216,148312,1,0,0:0:0:0:
92,179,148406,1,0,0:0:0:0:
80,140,148500,2,0,B|201:155,1,97.4999955368044,8|0,0:0|0:0,0:0:0:0:
227,95,148782,1,0,0:0:0:0:
190,69,148875,1,8,0:0:0:0:
311,166,149062,1,0,0:0:0:0:
347,193,149156,1,0,0:0:0:0:
384,220,149250,38,0,B|418:226|418:226|493:219,1,97.4999955368044,6|0,0:0|0:0,0:0:0:0:
227,181,149625,1,8,0:0:0:0:
307,86,149812,1,0,0:0:0:0:
356,287,150000,2,0,B|414:299|414:299|453:297,1,97.4999955368044,8|0,0:0|0:0,0:0:0:0:
145,137,150375,5,10,0:0:0:0:
276,302,150562,1,4,0:0:0:0:
190,69,150750,1,8,0:0:0:0:
146,350,150937,1,4,0:0:0:0:
303,220,151125,1,8,0:0:0:0:
67,321,151312,1,6,0:0:0:0:
227,368,151500,6,0,B|270:376|270:376|333:371,1,97.4999955368044,10|0,0:0|0:0,0:0:0:0:
483,228,151875,2,8,L|371:240,1,97.4999955368044,8|0,0:0|0:0,0:0:0:0:
263,89,152250,1,8,0:0:0:0:
303,220,152437,1,0,0:0:0:0:
294,262,152531,1,0,0:0:0:0:
276,302,152625,38,0,B|242:288|242:288|164:279,1,97.4999955368044,8|0,0:0|0:0,0:0:0:0:
117,240,152906,1,0,0:0:0:0:
100,199,153000,2,0,L|225:207,1,97.4999955368044,8|0,0:0|0:0,0:0:0:0:
259,164,153281,1,0,0:0:0:0:
308,149,153375,1,12,0:0:0:0:
468,253,153562,1,0,0:0:0:0:
428,230,153656,1,0,0:0:0:0:
401,193,153750,6,0,B|392:129|392:129|380:96,1,97.4999955368044,8|0,0:0|0:0,0:0:0:0:
150,71,154125,1,8,0:0:0:0:
308,149,154312,1,8,0:0:0:0:
323,191,154406,1,0,0:0:0:0:
316,234,154500,1,8,0:0:0:0:
292,274,154593,1,0,0:0:0:0:
276,315,154687,1,8,0:0:0:0:
285,358,154781,1,0,0:0:0:0:
326,379,154875,6,0,L|399:386,2,48.7499977684022,8|8|4,0:0|0:3|0:3,0:0:0:0:
236,294,155156,1,8,0:0:0:0:
200,267,155250,37,8,0:0:0:0:
156,270,155343,1,0,0:0:0:0:
114,254,155437,2,0,L|57:248,1,48.7499977684022,4|0,0:3|0:0,0:0:0:0:
23,321,155625,2,0,L|101:329,1,48.7499977684022,4|0,0:3|0:0,0:0:0:0:
91,174,155812,2,0,L|-3:161,1,48.7499977684022,8|0,0:3|0:0,0:0:0:0:
168,192,156000,6,0,B|205:174|205:174|275:164,1,104.999996795654,6|0,0:0|0:0,0:0:0:0:
493,231,156375,1,8,0:0:0:0:
468,142,156562,1,0,0:0:0:0:
341,261,156750,2,0,L|236:253,1,104.999996795654,8|0,0:0|0:0,0:0:0:0:
150,9,157125,5,8,0:0:0:0:
238,55,157312,1,0,0:0:0:0:
28,128,157500,1,8,0:0:0:0:
168,192,157687,1,0,0:0:0:0:
158,151,157781,1,0,0:0:0:0:
151,108,157875,1,12,0:0:0:0:
154,275,158062,1,0,0:0:0:0:
197,272,158156,1,0,0:0:0:0:
234,251,158250,38,0,B|270:268|270:268|354:347,1,108.750003318787,14|0,0:0|0:0,0:0:0:0:
426,157,158625,1,8,0:0:0:0:
402,242,158812,1,0,0:0:0:0:
242,171,159000,2,0,L|223:58,1,108.750003318787,8|0,0:0|0:0,0:0:0:0:
154,275,159375,5,8,0:0:0:0:
283,110,159562,2,0,L|361:118,1,54.3750016593934
426,157,159750,1,12,0:0:0:0:
299,35,159937,2,0,L|214:28,1,54.3750016593934
137,106,160125,2,0,B|72:118|72:118|10:116,1,108.750003318787,8|0,0:0|0:0,0:0:0:0:
69,197,160406,1,0,0:0:0:0:
89,163,160500,6,0,L|66:35,1,120,10|0,0:0|0:0,0:0:0:0:
306,114,160875,1,8,0:0:0:0:
400,87,161062,1,0,0:0:0:0:
242,171,161250,2,0,B|279:191|279:191|372:206,1,112.500004291535,8|0,0:0|0:0,0:0:0:0:
51,226,161625,37,10,0:0:0:0:
223,272,161812,1,0,0:0:0:0:
248,303,161906,1,0,0:0:0:0:
265,346,162000,1,12,0:0:0:0:
76,331,162187,1,0,0:0:0:0:
121,332,162281,1,0,0:0:0:0:
162,350,162375,1,8,0:0:0:0:
322,231,162562,1,0,0:0:0:0:
365,227,162656,1,0,0:0:0:0:
409,242,162750,6,0,B|449:253|449:253|523:260,1,108.750003318787,10|0,0:0|0:0,0:0:0:0:
414,83,163125,1,8,0:0:0:0:
177,137,163312,1,12,0:0:0:0:
322,231,163500,1,12,0:0:0:0:
246,91,163687,1,0,0:0:0:0:
212,67,163781,1,0,0:0:0:0:
176,55,163875,5,12,0:0:0:0:
228,223,164062,1,12,0:0:0:0:
274,21,164250,2,0,L|343:29,1,54.3750016593934,0|0,0:0|0:0,0:0:0:0:
432,8,164437,1,4,0:0:0:0:
413,157,164625,2,0,P|414:193|421:221,1,54.3750016593934,8|0,0:3|0:0,0:0:0:0:
492,318,164812,2,0,P|483:290|464:256,1,54.3750016593934,4|0,0:3|0:0,0:0:0:0:
361,306,165000,38,0,B|323:311|323:311|237:299,1,104.999996795654,6|0,0:0|0:0,0:0:0:0:
246,91,165375,1,8,0:0:0:0:
314,157,165562,1,0,0:0:0:0:
172,290,165750,2,0,L|46:299,1,104.999996795654,8|0,0:0|0:0,0:0:0:0:
221,178,166125,5,10,0:0:0:0:
361,306,166312,2,0,L|433:312,1,52.4999983978272
490,275,166500,1,12,0:0:0:0:
292,349,166687,1,8,0:0:0:0:
280,305,166781,1,0,0:0:0:0:
294,262,166875,1,8,0:0:0:0:
329,232,166968,2,0,L|391:223,2,52.4999983978272,8|4|4,0:3|0:3|0:3,0:0:0:0:
221,178,167250,6,0,B|182:167|182:167|101:177,1,108.750003318787,6|0,0:0|0:0,0:0:0:0:
353,56,167625,1,8,0:0:0:0:
255,72,167812,1,0,0:0:0:0:
455,174,168000,2,0,B|483:234|483:234|495:307,1,108.750003318787,8|0,0:0|0:0,0:0:0:0:
158,94,168375,37,10,0:0:0:0:
346,138,168562,1,8,0:0:0:0:
377,178,168655,1,0,0:0:0:0:
388,228,168749,1,2,0:0:0:0:
374,277,168843,1,0,0:0:0:0:
336,311,168937,1,8,0:0:0:0:
286,318,169030,1,0,0:0:0:0:
239,298,169124,1,8,0:3:0:0:
211,256,169218,1,0,0:0:0:0:
222,207,169312,1,4,0:3:0:0:
268,192,169405,1,0,0:0:0:0:
298,228,169500,6,0,B|264:231|264:231|178:213,1,112.500004291535,6|0,0:0|0:0,0:0:0:0:
73,47,169875,1,8,0:0:0:0:
128,135,170062,1,0,0:0:0:0:
249,12,170250,2,0,B|291:9|291:9|365:28,1,112.500004291535,8|0,0:0|0:0,0:0:0:0:
451,211,170625,5,12,0:0:0:0:
279,90,170812,2,0,L|218:94,1,56.2500021457673
128,135,171000,1,12,0:0:0:0:
302,166,171187,2,0,L|358:162,1,56.2500021457673
451,211,171375,2,0,B|410:232|410:232|321:239,1,112.500004291535,8|0,0:0|0:0,0:0:0:0:
228,368,171750,38,0,B|248:330|248:330|261:241,1,108.750003318787,10|0,0:0|0:0,0:0:0:0:
210,28,172125,1,8,0:0:0:0:
319,54,172312,1,0,0:0:0:0:
85,163,172500,1,8,0:0:0:0:
174,302,172687,2,0,L|183:239,1,54.3750016593934,8|0,0:0|0:0,0:0:0:0:
205,149,172875,5,8,0:0:0:0:
250,139,172968,1,0,0:0:0:0:
297,150,173062,2,0,L|356:160,1,48.7499977684022,4|0,0:3|0:0,0:0:0:0:
426,77,173250,2,0,L|354:88,1,48.7499977684022,8|0,0:3|0:0,0:0:0:0:
416,206,173437,2,0,L|430:260,1,48.7499977684022,4|0,0:3|0:0,0:0:0:0:
278,245,173625,2,0,L|345:236,1,48.7499977684022,8|0,0:3|0:0,0:0:0:0:
245,355,173812,2,0,L|191:344,1,48.7499977684022,4|0,0:3|0:0,0:0:0:0:
143,237,174000,6,0,P|130:199|99:164,2,82.5000025177003,6|0|0,0:0|0:0|0:0,0:0:0:0:
57,335,174562,1,0,0:0:0:0:
57,335,174750,2,0,P|61:291|46:238,1,82.5000025177003,2|0,0:0|0:0,0:0:0:0:
162,316,175125,2,0,P|209:285|228:256,1,82.5000025177003
248,125,175500,5,2,0:0:0:0:
299,193,175687,2,0,P|342:208|394:202,2,82.5000025177003,0|0|0,0:0|0:0|0:0,0:0:0:0:
248,125,176250,1,2,0:0:0:0:
161,144,176437,1,0,0:0:0:0:
61,65,176625,1,2,0:0:0:0:
155,160,176812,1,2,0:0:0:0:
122,298,177000,54,0,P|160:303|212:288,1,82.5000025177003,4|0,0:0|0:0,0:0:0:0:
299,194,177375,1,2,0:0:0:0:
299,194,177562,1,0,0:0:0:0:
398,226,177750,1,2,0:0:0:0:
427,357,177937,1,2,0:0:0:0:
427,357,178125,2,0,P|466:341|534:354,1,82.5000025177003
398,226,178500,6,0,P|393:188|422:134,2,82.5000025177003,6|0|0,2:0|0:0|2:0,0:0:0:0:
355,82,179062,2,0,P|393:67|434:70,2,82.5000025177003,2|0|0,0:0|0:0|0:0,0:0:0:0:
291,143,179625,1,0,0:0:0:0:
264,227,179812,1,0,0:0:0:0:
201,162,180000,54,0,P|149:149|99:163,2,82.5000025177003,2|0|0,0:0|0:0|0:0,0:0:0:0:
268,231,180562,1,0,0:0:0:0:
268,231,180750,2,0,P|205:253|176:292,1,82.5000025177003,2|0,0:0|0:0,0:0:0:0:
341,338,181125,2,0,P|279:310|245:313,1,82.5000025177003
131,350,181500,5,2,0:0:0:0:
59,305,181687,2,0,P|46:271|51:218,2,82.5000025177003,0|0|0,0:0|0:0|0:0,0:0:0:0:
194,262,182250,2,0,P|227:239|268:231,1,82.5000025177003,2|0,0:0|0:0,0:0:0:0:
355,248,182625,1,0,0:0:0:0:
326,167,182812,1,0,0:0:0:0:
439,269,183000,54,0,P|484:283|524:277,2,82.5000025177003,2|0|0,0:0|0:0|0:0,0:0:0:0:
415,183,183562,1,0,0:0:0:0:
415,183,183750,2,0,P|429:140|423:98,1,82.5000025177003,2|0,0:0|0:0,0:0:0:0:
377,27,184125,1,0,0:0:0:0:
287,8,184312,1,0,0:0:0:0:
252,90,184500,6,0,P|192:108|150:97,1,82.5000025177003,2|0,0:0|0:0,0:0:0:0:
83,63,184875,1,2,0:3:0:0:
12,130,185062,1,0,0:0:0:0:
105,163,185250,1,2,0:3:0:0:
76,262,185437,1,2,0:3:0:0:
171,289,185625,1,0,0:3:0:0:
100,360,185812,1,2,0:3:0:0:
100,360,186000,6,0,L|23:369,2,67.4999979400635,2|0|0,0:0|0:0|0:0,0:0:0:0:
218,367,186562,2,0,L|313:376,2,67.4999979400635,2|0|0,0:0|0:0|0:0,0:0:0:0:
141,282,187125,2,0,B|111:270|111:270|68:260,2,67.4999979400635,2|0|0,0:0|0:0|0:0,0:0:0:0:
189,199,187687,2,0,L|177:120,2,67.4999979400635,2|0|0,0:0|0:0|0:0,0:0:0:0:
241,309,188250,2,0,B|274:316|274:316|310:319,2,67.4999979400635,2|0|0,0:0|0:0|0:0,0:0:0:0:
286,231,188812,1,0,0:0:0:0:
379,261,189000,54,0,B|410:255|410:255|450:242,2,63.7500012159348,2|0|0,0:0|0:0|0:0,0:0:0:0:
389,157,189562,2,0,B|409:132|409:132|427:97,2,63.7500012159348,2|0|0,0:0|0:0|0:0,0:0:0:0:
321,77,190125,2,0,B|314:46|314:46|299:9,2,63.7500012159348,2|0|0,0:0|0:0|0:0,0:0:0:0:
210,78,190687,2,0,B|179:69|179:69|139:63,2,63.7500012159348,2|0|0,0:0|0:0|0:0,0:0:0:0:
145,167,191250,2,0,B|114:176|114:176|80:193,2,63.7500012159348,2|0|0,0:0|0:0|0:0,0:0:0:0:
246,198,191812,1,0,0:0:0:0:
293,291,192000,6,0,L|303:379,2,60,2|0|0,0:0|0:0|0:0,0:0:0:0:
411,283,192562,2,0,B|442:291|442:291|488:292,2,60,2|0|0,0:0|0:0|0:0,0:0:0:0:
330,204,193125,2,0,B|356:190|356:190|384:179,2,60,2|0|0,0:0|0:0|0:0,0:0:0:0:
239,289,193687,2,0,B|214:307|214:307|179:322,2,60,2|0|0,0:0|0:0|0:0,0:0:0:0:
209,171,194250,2,0,B|180:163|180:163|136:159,2,60,2|0|0,0:0|0:0|0:0,0:0:0:0:
239,289,194812,1,0,0:0:0:0:
159,242,195000,54,0,L|98:246,2,56.2500021457673,2|0|0,0:0|0:0|0:0,0:0:0:0:
287,200,195562,2,0,B|314:188|314:188|351:179,2,56.2500021457673,2|0|0,0:0|0:0|0:0,0:0:0:0:
239,289,196125,2,0,L|232:364,2,56.2500021457673,2|0|0,0:0|0:0|0:0,0:0:0:0:
198,176,196687,2,0,B|176:170|176:170|140:168,2,56.2500021457673,2|0|0,0:0|0:0|0:0,0:0:0:0:
312,270,197250,2,0,B|317:295|317:295|331:331,2,56.2500021457673,2|0|0,0:0|0:0|0:0,0:0:0:0:
375,205,197812,1,0,0:0:0:0:
400,292,198000,6,0,L|450:304,1,50.2499976230622
466,224,198375,2,0,L|522:248,1,50.2499976230622
467,103,198750,1,0,3:0:0:0:
467,103,198937,2,0,L|401:110,1,50.2499976230622
288,148,199312,1,0,3:0:0:0:
288,148,199499,2,0,L|352:157,1,50.2499976230622,0|0,0:0|0:0,0:0:0:0:
327,252,199875,53,0,3:0:0:0:
327,252,200062,2,0,L|257:264,1,50.2499976230622
147,182,200437,1,0,3:0:0:0:
147,182,200624,2,0,L|205:192,1,50.2499976230622
167,316,201000,2,0,L|99:326,1,50.2499976230622
43,242,201375,2,0,L|94:250,1,50.2499976230622
171,320,201750,6,0,L|179:382,1,50.2499976230622
261,288,202125,2,0,L|255:337,1,50.2499976230622
306,135,202500,1,0,3:0:0:0:
306,135,202687,2,0,L|317:200,1,50.2499976230622
428,264,203062,1,0,3:0:0:0:
428,264,203250,2,0,L|438:209,1,50.2499976230622
312,275,203625,53,0,3:0:0:0:
312,275,203812,2,0,L|321:346,1,50.2499976230622
200,197,204187,1,0,3:0:0:0:
200,197,204375,2,0,L|212:137,1,50.2499976230622
129,100,204750,2,0,L|133:160,1,50.2499976230622
109,233,205125,1,0,0:0:0:0:
95,226,205500,6,0,L|25:235,1,50.2499976230622,0|0,0:0|0:0,0:0:0:0:
132,151,205875,2,0,L|65:143,1,50.2499976230622
251,34,206250,1,0,3:0:0:0:
251,34,206437,2,0,L|188:42,1,50.2499976230622
306,131,206812,1,0,3:0:0:0:
306,131,207000,2,0,L|250:124,1,50.2499976230622
93,203,207375,53,0,3:0:0:0:
93,203,207562,2,0,L|152:195,1,50.2499976230622
40,99,207937,1,0,3:0:0:0:
40,99,208125,2,0,L|106:108,1,50.2499976230622
165,67,208500,2,0,L|224:62,1,50.2499976230622
251,148,208875,2,0,L|183:141,1,50.2499976230622
279,222,209250,6,0,L|337:216,1,50.2499976230622
288,302,209625,2,0,L|219:295,1,50.2499976230622
427,197,210000,1,0,3:0:0:0:
427,197,210187,2,0,L|417:263,1,50.2499976230622
283,252,210562,1,0,3:0:0:0:
283,252,210750,2,0,L|290:325,1,50.2499976230622
89,267,211125,53,0,3:0:0:0:
89,267,211312,2,0,L|80:339,1,50.2499976230622
195,201,211687,1,0,3:0:0:0:
195,201,211875,2,0,L|202:260,1,50.2499976230622
122,176,212250,2,0,L|129:117,1,50.2499976230622
111,47,212625,1,0,0:0:0:0:
100,56,213000,6,0,L|168:46,1,54.0000013183594
225,23,213375,1,0,0:0:0:0:
300,32,213562,1,0,0:0:0:0:
385,154,213750,1,0,3:0:0:0:
385,154,213937,2,0,L|377:91,1,54.0000013183594
252,248,214312,1,0,3:0:0:0:
252,248,214500,2,0,L|247:307,1,54.0000013183594
413,257,214875,53,0,3:0:0:0:
413,257,215062,2,0,L|349:265,1,54.0000013183594
211,125,215437,1,0,3:0:0:0:
211,125,215624,2,0,L|274:133,1,54.0000013183594
165,191,216000,2,0,L|106:201,1,54.0000013183594
58,274,216375,2,0,L|116:280,1,54.0000013183594
209,327,216750,6,0,L|220:396,1,54.0000013183594
289,336,217125,1,0,0:0:0:0:
334,272,217312,1,0,0:0:0:0:
508,311,217500,1,0,3:0:0:0:
508,311,217687,2,0,L|447:320,1,54.0000013183594
481,201,218062,1,0,3:0:0:0:
481,201,218250,2,0,L|412:228,1,54.0000013183594
213,183,218625,53,0,3:0:0:0:
213,183,218812,2,0,L|286:187,1,54.0000013183594
243,64,219187,1,0,3:0:0:0:
243,64,219374,2,0,L|313:82,1,54.0000013183594
373,56,219750,2,0,L|426:48,1,54.0000013183594
503,79,220125,1,0,0:0:0:0:
487,91,220500,6,0,L|483:161,1,54.0000013183594
439,210,220875,1,0,0:0:0:0:
466,283,221062,1,0,0:0:0:0:
358,140,221250,1,0,3:0:0:0:
358,140,221437,2,0,L|296:149,1,54.0000013183594
106,84,221812,1,0,3:0:0:0:
106,84,222000,2,0,L|183:98,1,54.0000013183594
337,306,222375,53,0,3:0:0:0:
337,306,222562,2,0,L|323:235,1,54.0000013183594
98,262,222937,1,0,3:0:0:0:
98,262,223125,2,0,L|114:184,1,54.0000013183594
186,291,223500,1,0,0:0:0:0:
252,239,223687,1,0,0:0:0:0:
266,341,223875,1,0,0:0:0:0:
337,306,224062,1,0,0:0:0:0:
410,354,224250,6,0,L|491:346,1,60
437,271,224625,1,0,0:0:0:0:
485,208,224812,1,0,0:0:0:0:
306,125,225000,1,0,3:0:0:0:
306,125,225187,2,0,L|314:66,1,60
233,178,225562,1,0,3:0:0:0:
233,178,225750,2,0,L|218:110,1,60
308,271,226125,53,0,3:0:0:0:
308,271,226312,2,0,L|313:204,1,60
230,327,226687,1,0,3:0:0:0:
230,327,226875,2,0,L|225:266,1,60
150,221,227250,1,0,0:0:0:0:
132,223,227437,1,0,0:0:0:0:
115,229,227625,1,0,0:0:0:0:
362,345,228000,22,0,L|494:353,1,97.4999955368044,6|0,0:0|0:0,0:0:0:0:
169,329,228375,2,0,B|104:334|104:334|48:324,1,97.4999955368044,2|0,0:0|0:0,0:0:0:0:
352,190,228750,1,10,0:0:0:0:
361,204,229125,5,6,0:0:0:0:
94,75,229312,2,0,L|176:84,1,75
370,218,229687,5,2,0:0:0:0:
230,23,229875,2,0,B|193:10|193:10|149:4,1,67.4999979400635
377,231,230250,37,10,0:0:0:0:
155,163,230437,2,0,L|248:154,1,75
412,371,230812,5,8,0:3:0:0:
280,251,231000,1,4,0:3:0:0:
307,347,231187,1,4,0:3:0:0:
155,163,231375,1,4,0:3:0:0:
113,253,231562,1,4,0:3:0:0:
286,81,231750,6,0,B|251:65|251:65|193:54,1,97.4999955368044,6|0,0:0|0:0,0:0:0:0:
58,158,232125,2,0,L|156:163,1,97.4999955368044,2|0,0:0|0:0,0:0:0:0:
430,103,232500,1,10,0:0:0:0:
441,89,232875,37,6,0:0:0:0:
381,331,233062,2,0,L|388:240,1,75
452,77,233437,5,2,0:0:0:0:
343,28,233625,1,0,0:0:0:0:
491,236,233812,1,8,0:0:0:0:
464,66,234000,5,2,0:0:0:0:
262,277,234187,2,0,B|272:239|272:239|292:201,1,75,4|0,0:3|0:0,0:0:0:0:
477,54,234562,37,8,0:3:0:0:
378,134,234750,1,4,0:3:0:0:
247,122,234937,1,4,0:3:0:0:
53,273,235125,2,0,B|108:263|108:263|150:265,1,97.4999955368044,8|0,0:0|0:0,0:0:0:0:
316,350,235500,6,0,L|305:239,1,97.4999955368044,6|0,0:0|0:0,0:0:0:0:
152,103,235875,2,0,B|188:117|188:117|246:121,1,97.4999955368044,2|0,0:0|0:0,0:0:0:0:
41,50,236250,1,10,0:0:0:0:
35,65,236625,5,6,0:0:0:0:
284,196,236812,2,0,L|188:205,1,75
30,82,237187,37,2,0:0:0:0:
257,276,237375,2,0,B|293:280|293:280|339:292,1,67.4999979400635
25,101,237750,5,10,0:0:0:0:
174,283,237937,2,0,L|88:277,1,75
220,124,238312,5,8,0:0:0:0:
266,113,238406,1,0,0:0:0:0:
311,100,238500,1,8,0:3:0:0:
307,144,238593,1,0,0:0:0:0:
322,188,238687,1,4,0:3:0:0:
362,214,238781,1,0,0:0:0:0:
408,215,238875,1,8,0:0:0:0:
229,46,239062,1,8,0:3:0:0:
183,59,239156,1,0,0:0:0:0:
138,72,239250,38,0,B|188:96|188:96|246:145,1,97.4999955368044,6|0,0:0|0:0,0:0:0:0:
98,255,239625,2,0,B|120:200|120:200|145:158,1,97.4999955368044,2|0,0:0|0:0,0:0:0:0:
380,322,240000,1,10,0:0:0:0:
399,325,240375,5,6,0:0:0:0:
137,305,240562,2,0,L|227:310,1,75
415,329,240937,5,2,0:0:0:0:
190,384,241125,2,0,B|230:382|230:382|269:369,1,67.4999979400635,8|0,0:0|0:0,0:0:0:0:
434,335,241500,37,2,0:0:0:0:
378,126,241687,1,8,0:0:0:0:
362,376,241875,1,8,0:0:0:0:
290,141,242062,5,8,0:0:0:0:
298,151,242156,1,0,0:0:0:0:
306,159,242250,2,0,L|292:253,1,48.7499977684022,8|0,0:3|0:0,0:0:0:0:
228,340,242437,2,0,L|277:333,1,48.7499977684022,4|0,0:3|0:0,0:0:0:0:
360,292,242625,2,0,P|285:242|199:281,1,146.249993305207,8|0,0:3|0:0,0:0:0:0:
224,260,243000,6,0,B|184:252|184:252|100:248,1,97.4999955368044,6|0,0:0|0:0,0:0:0:0:
385,370,243375,2,0,B|420:336|420:336|452:288,1,97.4999955368044,2|0,0:0|0:0,0:0:0:0:
401,68,243750,1,10,0:0:0:0:
417,61,244125,37,6,0:0:0:0:
194,143,244312,2,0,L|271:132,1,75
432,55,244687,5,2,0:0:0:0:
257,216,244875,2,0,B|235:245|235:245|217:278,1,67.4999979400635
446,49,245250,5,10,0:0:0:0:
163,48,245437,2,0,L|253:55,1,75
459,42,245812,37,8,0:3:0:0:
397,227,246000,1,4,0:3:0:0:
338,134,246187,1,4,0:3:0:0:
371,349,246375,1,4,0:3:0:0:
403,240,246562,1,4,0:3:0:0:
259,317,246750,6,0,B|203:313|203:313|141:297,1,97.4999955368044,6|0,0:0|0:0,0:0:0:0:
228,133,247125,2,0,L|219:235,1,97.4999955368044,2|0,0:0|0:0,0:0:0:0:
163,48,247500,1,10,0:0:0:0:
155,64,247875,5,6,0:0:0:0:
99,282,248062,2,0,L|90:185,1,75
148,80,248437,37,2,0:0:0:0:
57,126,248625,1,0,0:0:0:0:
327,166,248812,1,8,0:0:0:0:
141,97,249000,5,2,0:0:0:0:
235,323,249187,2,0,B|201:289|201:289|179:254,1,75,8|0,0:3|0:0,0:0:0:0:
133,112,249562,5,8,0:3:0:0:
90,208,249750,1,8,0:3:0:0:
12,283,249937,1,4,0:3:0:0:
231,182,250125,2,0,B|278:170|278:170|356:163,1,97.4999955368044,8|0,0:0|0:0,0:0:0:0:
465,365,250500,38,0,L|343:355,1,97.4999955368044,6|0,0:0|0:0,0:0:0:0:
139,341,250875,2,0,B|174:337|174:337|239:321,1,97.4999955368044,2|0,0:0|0:0,0:0:0:0:
411,181,251250,1,10,0:0:0:0:
427,187,251625,5,6,0:0:0:0:
292,24,251812,2,0,L|310:112,1,75
440,194,252187,5,2,0:0:0:0:
232,128,252375,2,0,B|196:119|196:119|147:117,1,67.4999979400635
452,200,252750,37,10,0:0:0:0:
197,214,252937,2,0,L|281:208,1,75
399,356,253312,5,8,0:0:0:0:
366,319,253406,1,0,0:0:0:0:
323,302,253500,2,0,L|269:306,1,48.7499977684022,8|0,0:3|0:0,0:0:0:0:
439,251,253687,2,0,L|496:257,1,48.7499977684022,4|0,0:3|0:0,0:0:0:0:
476,363,253875,2,0,B|480:321|480:321|501:246,1,97.4999955368044,8|8,0:0|0:3,0:0:0:0:
478,181,254156,1,0,0:0:0:0:
434,160,254250,6,0,B|406:135|406:135|366:76,1,97.4999955368044,6|0,0:0|0:0,0:0:0:0:
128,112,254625,2,0,L|254:127,1,97.4999955368044,2|0,0:0|0:0,0:0:0:0:
74,295,255000,1,10,0:0:0:0:
68,312,255375,37,6,0:0:0:0:
270,243,255562,2,0,L|170:255,1,75,0|0,0:0|0:0,0:0:0:0:
61,332,255937,5,2,0:0:0:0:
353,226,256125,2,0,B|347:263|347:263|333:297,1,75,8|0,0:0|0:0,0:0:0:0:
54,354,256500,5,2,0:0:0:0:
129,146,256687,1,8,0:0:0:0:
0,267,256875,1,8,0:0:0:0:
241,218,257062,37,8,0:0:0:0:
290,209,257156,1,0,0:0:0:0:
340,197,257250,2,0,L|288:188,1,48.7499977684022,8|8,0:3|0:3,0:0:0:0:
275,66,257437,2,0,L|339:76,1,48.7499977684022,4|0,0:3|0:0,0:0:0:0:
457,111,257625,2,0,P|392:58|301:96,1,146.249993305207,8|0,0:0|0:0,0:0:0:0:
380,134,258000,6,0,B|400:172|400:172|419:243,1,101.250000386238,6|0,0:0|0:0,0:0:0:0:
187,114,258375,1,8,0:0:0:0:
88,144,258562,1,0,0:0:0:0:
319,304,258750,2,0,B|328:241|328:241|325:191,1,101.250000386238,8|0,0:0|0:0,0:0:0:0:
61,325,259125,5,10,0:0:0:0:
152,246,259312,1,0,0:0:0:0:
197,243,259406,1,0,0:0:0:0:
242,239,259500,1,8,0:0:0:0:
187,114,259687,1,0,0:0:0:0:
319,304,259875,2,0,B|359:314|359:314|439:323,1,101.250000386238,8|0,0:0|0:0,0:0:0:0:
289,122,260250,38,0,B|316:179|316:179|338:210,1,101.250000386238,10|0,0:0|0:0,0:0:0:0:
424,227,260531,1,0,0:0:0:0:
440,184,260625,1,8,0:0:0:0:
473,339,260812,1,0,0:0:0:0:
269,192,261000,2,0,L|154:199,1,101.250000386238,8|0,0:0|0:0,0:0:0:0:
20,286,261375,5,10,0:0:0:0:
194,334,261562,1,0,0:0:0:0:
231,308,261656,1,0,0:0:0:0:
275,296,261750,1,8,0:0:0:0:
168,198,261937,1,0,0:0:0:0:
155,153,262031,1,0,0:0:0:0:
125,117,262125,1,8,0:0:0:0:
309,205,262312,1,0,0:0:0:0:
354,209,262406,1,0,0:0:0:0:
399,210,262500,6,0,B|434:189|434:189|510:165,1,101.250000386238,14|0,0:0|0:0,0:0:0:0:
229,41,262875,1,8,0:0:0:0:
328,65,263062,1,0,0:0:0:0:
125,117,263250,2,0,L|15:124,1,101.250000386238,8|0,0:0|0:0,0:0:0:0:
309,205,263625,37,10,0:0:0:0:
197,129,263812,1,0,0:0:0:0:
155,153,263906,1,0,0:0:0:0:
126,191,264000,1,8,0:0:0:0:
22,120,264187,1,0,0:0:0:0:
66,303,264375,2,0,B|110:311|110:311|183:315,1,101.250000386238,8|0,0:0|0:0,0:0:0:0:
389,230,264750,5,10,0:0:0:0:
330,363,264937,2,0,L|388:358,1,50.6250001931191
468,324,265125,1,8,0:0:0:0:
278,267,265312,2,0,L|194:256,1,50.6250001931191
154,207,265500,1,8,0:0:0:0:
341,351,265687,1,8,0:0:0:0:
230,155,265875,5,2,0:0:0:0:
217,111,265968,1,0,0:0:0:0:
205,65,266062,1,8,0:0:0:0:
364,146,266250,1,8,0:0:0:0:
395,112,266344,1,0,0:0:0:0:
394,66,266437,1,8,0:3:0:0:
361,34,266531,1,0,0:0:0:0:
315,33,266625,2,0,L|325:99,1,50.6250001931191,8|0,0:3|0:0,0:0:0:0:
342,207,266812,2,0,L|352:140,1,50.6250001931191,4|0,0:3|0:0,0:0:0:0:
217,111,267000,38,0,B|174:116|174:116|86:106,1,101.250000386238,6|0,0:0|0:0,0:0:0:0:
120,303,267375,1,8,0:0:0:0:
33,251,267562,1,0,0:0:0:0:
248,280,267750,2,0,L|361:286,1,101.250000386238,8|0,0:0|0:0,0:0:0:0:
498,95,268125,6,0,B|483:124|483:124|470:191,1,101.250000386238,10|0,0:0|0:0,0:0:0:0:
450,271,268406,1,0,0:0:0:0:
411,246,268500,1,8,0:0:0:0:
262,370,268687,1,0,0:0:0:0:
255,325,268781,1,0,0:0:0:0:
248,280,268875,2,0,B|205:277|205:277|105:289,1,101.250000386238,8|0,0:0|0:0,0:0:0:0:
69,269,269156,1,0,0:0:0:0:
87,228,269250,6,0,B|76:190|76:190|39:129,1,101.250000386238,10|0,0:0|0:0,0:0:0:0:
262,195,269625,1,8,0:0:0:0:
282,101,269812,1,0,0:0:0:0:
342,293,270000,2,0,B|378:305|378:305|452:316,1,101.250000386238,8|0,0:0|0:0,0:0:0:0:
248,280,270375,38,0,L|113:291,1,101.250000386238,8|0,0:0|0:0,0:0:0:0:
282,101,270750,1,8,0:0:0:0:
88,220,270937,1,8,0:0:0:0:
83,170,271031,1,0,0:0:0:0:
115,127,271125,1,8,0:3:0:0:
165,114,271218,1,0,0:0:0:0:
211,139,271312,1,4,0:3:0:0:
247,172,271406,1,0,0:0:0:0:
298,181,271500,6,0,B|340:182|340:182|410:195,1,101.250000386238,14|0,0:0|0:0,0:0:0:0:
122,23,271875,1,8,0:0:0:0:
165,114,272062,1,0,0:0:0:0:
344,64,272250,2,0,L|476:54,1,101.250000386238,8|0,0:0|0:0,0:0:0:0:
324,264,272625,6,0,B|280:260|280:260|192:240,1,101.250000386238,10|0,0:0|0:0,0:0:0:0:
491,229,273000,1,8,0:0:0:0:
447,319,273187,1,0,0:0:0:0:
412,120,273375,1,8,0:0:0:0:
266,166,273562,1,0,0:0:0:0:
219,170,273656,1,0,0:0:0:0:
172,171,273750,38,0,B|126:162|126:162|63:158,1,101.250000386238,2|0,0:0|0:0,0:0:0:0:
249,262,274125,1,8,0:0:0:0:
205,346,274312,1,0,0:0:0:0:
105,82,274500,1,8,0:0:0:0:
114,95,274875,6,0,L|175:101,1,50.6250001931191,2|0,0:0|0:0,0:0:0:0:
258,62,275062,1,8,0:0:0:0:
145,182,275250,1,8,0:0:0:0:
323,118,275437,1,2,0:0:0:0:
328,167,275531,1,0,0:0:0:0:
335,215,275625,1,8,0:3:0:0:
290,183,275718,5,0,0:0:0:0:
236,186,275812,1,4,0:3:0:0:
198,224,275906,1,0,0:0:0:0:
270,257,276000,38,0,B|328:266|328:266|379:284,1,101.250000386238,6|0,0:0|0:0,0:0:0:0:
106,289,276375,1,8,0:0:0:0:
166,373,276562,1,0,0:0:0:0:
188,159,276750,2,0,L|62:149,1,101.250000386238,8|0,0:0|0:0,0:0:0:0:
295,350,277125,5,10,0:0:0:0:
316,186,277312,1,0,0:0:0:0:
343,154,277406,1,0,0:0:0:0:
383,137,277500,2,0,B|379:97|379:97|353:28,1,101.250000386238,8|0,0:0|0:0,0:0:0:0:
448,255,277875,1,8,0:0:0:0:
316,186,278062,1,0,0:0:0:0:
278,160,278156,1,0,0:0:0:0:
255,123,278250,6,0,B|222:107|222:107|146:89,1,101.250000386238,10|0,0:0|0:0,0:0:0:0:
82,104,278531,1,0,0:0:0:0:
48,79,278625,1,8,0:0:0:0:
128,203,278812,1,0,0:0:0:0:
111,26,279000,2,0,B|149:16|149:16|233:13,1,101.250000386238,8|0,0:0|0:0,0:0:0:0:
406,124,279375,37,10,0:0:0:0:
217,195,279562,1,0,0:0:0:0:
258,200,279656,1,0,0:0:0:0:
300,206,279750,1,8,0:0:0:0:
220,50,279937,1,0,0:0:0:0:
255,74,280031,1,0,0:0:0:0:
289,99,280125,1,8,0:0:0:0:
118,130,280312,1,0,0:0:0:0:
84,158,280406,1,0,0:0:0:0:
56,193,280500,6,0,B|38:228|38:228|21:319,1,101.250000386238,14|0,0:0|0:0,0:0:0:0:
271,279,280875,1,8,0:0:0:0:
182,324,281062,1,0,0:0:0:0:
363,366,281250,2,0,L|463:377,1,101.250000386238,8|0,0:0|0:0,0:0:0:0:
319,177,281625,5,10,0:0:0:0:
271,279,281812,1,0,0:0:0:0:
229,269,281906,1,0,0:0:0:0:
185,259,282000,1,8,0:0:0:0:
97,331,282187,1,0,0:0:0:0:
184,175,282375,2,0,B|144:188|144:188|93:219,1,101.250000386238,8|0,0:0|0:0,0:0:0:0:
279,358,282750,37,10,0:0:0:0:
319,177,282937,2,0,L|394:182,1,50.6250001931191
449,205,283125,1,8,0:0:0:0:
290,49,283312,2,0,L|230:58,1,50.6250001931191
162,96,283500,1,8,0:0:0:0:
402,113,283687,1,8,0:0:0:0:
184,175,283875,6,0,L|128:180,1,50.6250001931191,2|0,0:0|0:0,0:0:0:0:
61,135,284062,1,8,0:0:0:0:
177,262,284250,1,8,0:0:0:0:
226,254,284343,1,0,0:0:0:0:
262,220,284437,1,2,0:0:0:0:
273,171,284531,1,0,0:0:0:0:
261,124,284625,2,0,L|347:143,1,50.6250001931191,8|0,0:3|0:0,0:0:0:0:
443,182,284812,2,0,L|361:201,1,50.6250001931191,4|0,0:3|0:0,0:0:0:0:
364,302,285000,6,0,B|382:268|382:268|390:175,1,101.250000386238,6|0,0:0|0:0,0:0:0:0:
367,16,285375,1,8,0:0:0:0:
463,48,285562,1,0,0:0:0:0:
261,124,285750,2,0,L|151:133,1,101.250000386238,8|0,0:0|0:0,0:0:0:0:
434,335,286125,37,10,0:0:0:0:
264,255,286312,1,0,0:0:0:0:
220,267,286406,1,0,0:0:0:0:
186,295,286500,2,0,L|78:299,1,101.250000386238,8|0,0:0|0:0,0:0:0:0:
22,239,286781,1,0,0:0:0:0:
7,196,286875,1,8,0:0:0:0:
158,215,287062,1,0,0:0:0:0:
181,178,287156,1,0,0:0:0:0:
184,133,287250,6,0,B|180:70|180:70|198:0,1,101.250000386238,10|0,0:0|0:0,0:0:0:0:
406,194,287625,1,8,0:0:0:0:
369,101,287812,1,0,0:0:0:0:
324,319,288000,2,0,L|198:325,1,101.250000386238,8|0,0:0|0:0,0:0:0:0:
36,366,288375,6,0,B|73:361|73:361|159:321,1,101.250000386238,10|0,0:0|0:0,0:0:0:0:
444,354,288750,1,8,0:0:0:0:
269,206,288937,2,0,L|333:196,1,50.6250001931191,4|0,0:3|0:0,0:0:0:0:
203,248,289125,2,0,L|136:242,1,50.6250001931191,8|0,0:3|0:3,0:0:0:0:
185,124,289312,2,0,L|197:172,1,50.6250001931191,4|0,0:3|0:0,0:0:0:0:
166,349,289500,38,0,B|180:308|180:308|239:222,1,101.250000386238,14|0,0:0|0:0,0:0:0:0:
497,203,289875,1,8,0:0:0:0:
405,161,290062,1,0,0:0:0:0:
365,336,290250,2,0,L|255:344,1,101.250000386238,8|0,0:0|0:0,0:0:0:0:
32,203,290625,6,0,B|77:216|77:216|145:262,1,101.250000386238,10|0,0:0|0:0,0:0:0:0:
14,101,291000,1,8,0:0:0:0:
46,291,291187,1,0,0:0:0:0:
196,156,291375,1,8,0:0:0:0:
223,270,291562,1,0,0:0:0:0:
265,274,291656,1,0,0:0:0:0:
309,278,291750,6,0,B|341:258|341:258|416:237,1,101.250000386238,2|0,0:0|0:0,0:0:0:0:
196,157,292125,1,8,0:0:0:0:
287,177,292312,1,0,0:0:0:0:
401,28,292500,1,8,0:0:0:0:
416,35,292875,37,10,0:0:0:0:
308,156,293062,1,8,0:0:0:0:
264,160,293156,1,0,0:0:0:0:
228,134,293250,1,8,0:0:0:0:
208,95,293343,1,0,0:0:0:0:
172,74,293437,1,10,0:0:0:0:
127,73,293531,1,0,0:0:0:0:
88,93,293625,2,0,L|26:84,1,50.6250001931191,10|0,0:0|0:0,0:0:0:0:
148,149,293812,2,0,L|157:211,1,50.6250001931191,10|0,0:0|0:0,0:0:0:0:
141,286,294000,5,6,0:0:0:0:
228,135,294187,1,2,0:0:0:0:
61,314,294375,1,2,0:0:0:0:
300,194,294562,1,2,0:0:0:0:
230,343,294750,1,2,0:0:0:0:
236,327,295125,5,2,0:0:0:0:
350,115,295312,1,2,0:0:0:0:
314,373,295500,1,2,0:0:0:0:
254,181,295687,1,2,0:0:0:0:
471,312,295875,1,2,0:0:0:0:
451,303,296250,37,2,0:0:0:0:
328,236,296437,1,2,0:0:0:0:
176,258,296625,1,2,0:0:0:0:
24,276,296812,1,2,0:0:0:0:
256,192,296906,12,2,306000,0:0:0:0:
