osu file format v9

[General]
AudioFilename: Apocalyptica - Prologue (Apperehension).mp3
AudioLeadIn: 0
PreviewTime: -1
Countdown: 0
SampleSet: Normal
StackLeniency: 0.7
Mode: 0
LetterboxInBreaks: 1

[Editor]
DistanceSpacing: 0.5
BeatDivisor: 4
GridSize: 8

[Metadata]
Title:Prologue (Apprehension)
Artist:Apocalyptica
Creator:Sanolina
Version:Easy
Source:
Tags:

[Difficulty]
HPDrainRate:2
CircleSize:3
OverallDifficulty:0
ApproachRate:0
SliderMultiplier:0.999999999999999
SliderTickRate:1

[Events]
//Background and Video events
0,0,"apocalyptica_7.jpg"
//Break Periods
2,68485,73758
2,116970,122243
//Storyboard Layer 0 (Background)
//Storyboard Layer 1 (Fail)
//Storyboard Layer 2 (Pass)
//Storyboard Layer 3 (Foreground)
//Storyboard Sound Samples
//Background Colour Transformations
3,100,163,162,255

[TimingPoints]
407,303.030303030303,4,1,0,50,1,0

[Colours]
Combo1 : 0,128,255
Combo2 : 255,128,128

[HitObjects]
256,192,8891,12,12,10103
264,56,10710,6,8,B|352:128|288:184|376:240,1,200
258,226,11922,2,8,B|178:170|234:122|138:58,1,200
77,135,13134,1,8
77,234,13740,1,8
147,304,14346,1,8
336,56,14952,6,0,B|384:80|384:144,2,99.9999999999999,8|4|8
236,56,16164,2,8,B|124:88|276:112|108:200,1,200
189,264,17376,2,8,B|293:256|157:176|357:160,1,200
406,91,18588,1,8
306,91,19194,1,8
235,161,19800,1,8
96,184,20407,6,8,B|144:280|280:288,1,200
357,286,21619,2,0,B|421:262|429:198,2,99.9999999999999,8|4|8
357,186,22831,1,8
357,86,23437,2,8,B|272:40|272:160|168:72,1,200
173,176,24649,2,8,B|258:222|258:102|362:190,1,200
356,285,25861,1,8
152,288,26467,6,0,B|112:240|160:232|112:184,2,99.9999999999999,8|4|8
248,288,27679,2,8,B|352:288|272:232|424:208,1,200
422,108,28891,1,8
176,112,29497,5,8
176,211,30103,2,0,B|200:264|216:176|272:232,2,99.9999999999999,8|4|8
176,311,31316,2,8,B|280:344|368:264,1,200
432,198,32528,2,0,B|456:152|416:136|456:96,2,99.9999999999999,8|4|8
332,198,33740,1,8
112,200,34346,5,8
112,104,34952,2,0,B|152:56|176:104|224:72,2,99.9999999999999,8|4|8
182,174,36164,2,8,B|272:112|280:240|368:144,1,200
433,219,37376,2,0,B|408:280|360:240|360:296,2,99.9999999999999,8|4|8
433,119,38588,1,8
256,56,39194,6,8,B|152:56|152:200,1,200
222,268,40406,2,8,B|344:264|344:112,1,200
443,136,41619,2,0,B|400:192|464:200|408:240,2,99.9999999999999,8|4|8
372,65,42831,2,0,B|320:40|320:96|256:48,2,99.9999999999999,8|4|8
128,72,44043,6,8,B|128:176|192:112|136:272,1,200
232,296,45255,2,0,B|256:232|288:288|304:216,2,99.9999999999999,8|4|8
161,225,46467,2,8,B|248:160|160:160|288:48,2,200
256,264,48285,1,8
344,208,48891,1,8
120,56,49497,6,8,B|232:56|232:56|232:160,1,200
232,192,50406,2,0,B|288:192|288:192|288:256,3,99.9999999999999,4|8|4|8
388,236,51922,6,8,B|388:134|388:134|289:134,1,200
240,136,52831,2,0,B|192:136|192:136|192:200,3,99.9999999999999,4|8|4|8
192,287,54346,5,8
291,287,54952,2,8,B|394:287|394:287|394:188,1,200
394,90,56164,1,8
294,90,56770,2,8,B|194:90|194:90|194:193,1,200
194,289,57982,1,8
293,289,58588,1,8
392,80,59194,6,0,B|336:80|336:80|336:144,2,99.9999999999999,8|4|8
392,179,60406,2,8,B|392:283|392:283|288:283,1,200
195,283,61619,2,0,B|144:283|144:283|144:224,2,99.9999999999999,8|4|8
195,183,62831,2,8,B|195:80|195:80|290:80,1,200
352,296,64043,5,8
252,296,64649,2,0,B|200:296|200:296|200:248,1,99.9999999999999,8|12
200,148,65558,2,0,B|200:96|200:96|248:96,1,99.9999999999999,8|12
347,96,66467,2,8,B|448:96|448:96|448:208,1,200
256,192,67225,12,12,68285
256,192,75558,12,12,77982
256,96,78588,6,8,B|360:96|360:96|360:192,1,200
360,291,79800,2,0,B|307:291|307:291|307:238,2,99.9999999999999,8|4|12
430,220,81013,1,8
430,120,81619,2,0,B|376:120|376:120|376:64,4,99.9999999999999,8|4|8|4|8
256,280,83437,6,8,B|256:179|256:179|156:179,1,200
57,179,84649,2,0,B|57:129|57:129|112:128,3,99.9999999999999,8|4|8|4
177,57,86164,2,0,B|286:57,5,99.9999999999999,4|8|4|8|4|8
383,163,88588,6,8,B|384:272|384:272|272:272,3,200
192,272,91013,2,0,B|192:162|192:162|196:168,3,99.9999999999999,8|8|4|8
262,101,92528,1,8
332,171,93134,2,0,B|332:275,2,99.9999999999999,8|4|8
232,171,94346,2,0,B|232:69,2,99.9999999999999,8|4|8
161,241,95558,1,8
231,311,96164,1,8
301,240,96770,2,8,B|304:136|304:136|208:136,1,200,8|12
120,80,97982,6,0,B|240:80,2,99.9999999999999,8|4|8
120,179,99194,2,0,B|224:179,2,99.9999999999999,8|4|8
120,278,100406,2,8,B|319:278,1,200
420,278,101619,2,0,B|419:176,4,99.9999999999999,8|4|8|4|8
349,207,103437,1,8
278,277,104043,2,0,B|278:169,4,99.9999999999999,8|4|8|4|8
207,206,105861,1,8
136,276,106467,1,8
88,72,107073,5,8
187,72,107679,2,0,B|240:72|240:72|240:128,2,99.9999999999999,8|4|8
187,171,108891,1,8
257,241,109497,1,8
327,170,110103,2,0,B|328:112|328:112|392:112,2,99.9999999999999,8|4|8
397,240,111316,1,8
256,312,111922,5,8
185,241,112528,2,0,B|185:120,2,99.9999999999999,8|4|8
255,170,113740,2,8,B|356:170|356:170|356:68,1,200
426,141,114952,2,0,B|426:245,2,99.9999999999999,8|12|8
256,192,115710,12,12,116770
256,192,124043,12,12,126467
256,88,127073,6,8,B|256:192|256:192|160:192,1,200
60,192,128285,2,8,B|60:296|60:296|160:296,1,200
255,296,129497,2,8,B|256:192,2,99.9999999999999,8|8|8
355,296,130710,2,8,B|457:296|457:296|457:189,1,200
457,98,131922,2,8,B|355:97|355:97|354:202,1,200
256,192,133134,6,0,B|200:192|200:192|200:144,3,99.9999999999999,8|4|8|12
104,144,134649,2,0,B|104:80,4,50,12|4|8|4|8
104,240,135861,2,0,B|104:296,2,50,8|0|12
