osu file format v13

[General]
AudioFilename: lasthope.mp3
AudioLeadIn: 0
PreviewTime: 57728
Countdown: 0
SampleSet: Normal
StackLeniency: 0.6
Mode: 0
LetterboxInBreaks: 0
EpilepsyWarning: 1
WidescreenStoryboard: 1

[Editor]
Bookmarks: 37502,45087,47142,56403,57024,98258,108807,126134,133610
DistanceSpacing: 1.3
BeatDivisor: 4
GridSize: 4
TimelineZoom: 2.299999

[Metadata]
Title:Last Hope
TitleUnicode:Last Hope
Artist:Apocalyptica
ArtistUnicode:Apocalyptica
Creator:pishifat
Version:Hard
Source:
Tags:cello thrash symphonic alternative metal worlds collide okoratu
BeatmapID:490573
BeatmapSetID:199452

[Difficulty]
HPDrainRate:5
CircleSize:3.5
OverallDifficulty:6
ApproachRate:7.2
SliderMultiplier:1.2
SliderTickRate:2

[Events]
//Background and Video events
0,0,"french.jpg",0,0
//Break Periods
2,82368,88569
//Storyboard Layer 0 (Background)
//Storyboard Layer 1 (Fail)
//Storyboard Layer 2 (Pass)
//Storyboard Layer 3 (Foreground)
//Storyboard Sound Samples
//Background Colour Transformations
3,100,163,162,255

[TimingPoints]
194,403.768506056528,4,1,1,60,1,0
1809,422.535211267606,4,1,1,60,1,0
3076,431.654676258993,4,1,1,60,1,8
3507,413.793103448276,4,1,1,60,1,0
5162,402.684563758389,4,1,1,60,1,0
6370,444.444444444444,4,1,1,60,1,8
6814,416.666666666667,4,1,1,60,1,0
8480,413.793103448276,4,1,1,60,1,0
9721,458.015267175573,4,1,1,60,1,8
10179,408.163265306122,4,1,1,60,1,0
11811,412.654745529574,4,1,1,60,1,0
13048,405.95399188092,4,1,1,60,1,8
13453,416.666666666667,4,1,1,60,1,0
18453,422.535211267606,4,1,1,60,1,0
19720,397.350993377483,4,1,1,60,1,8
20117,405.405405405405,4,1,1,60,1,0
21738,399.467376830892,4,1,1,60,1,0
22936,461.538461538462,4,1,1,60,1,8
23398,406.2288422478,4,1,1,60,1,0
24616,427.046263345196,4,1,1,60,1,8
25042,428.571428571429,4,1,1,60,1,0
25470,416.666666666667,4,1,1,60,1,8
26720,444.444444444444,4,1,1,60,1,0
27608,530.973451327434,4,1,1,60,1,8
28138,522.147767818293,4,1,1,60,1,0
34403,342.857142857143,4,1,1,45,1,0
34403,-76.9230769230769,4,1,1,45,0,0
34917,379.746835443038,4,1,1,45,1,8
35106,352.941176470588,4,1,1,45,1,8
35106,-76.9230769230769,4,1,1,45,0,0
35635,392.156862745098,4,1,1,45,1,8
35831,351.906158357771,4,1,1,50,1,0
35831,-76.9230769230769,4,1,1,50,0,0
38646,-76.9230769230769,4,1,1,50,0,0
41462,353.982300884956,4,1,1,50,1,0
41462,-76.9230769230769,4,1,1,50,0,0
44293,353.148911124191,4,1,1,50,1,0
44293,-76.9230769230769,4,1,1,50,0,0
45705,359.281437125748,4,1,1,50,1,0
45705,-76.9230769230769,4,1,1,50,0,0
46064,335.195530726257,4,1,1,50,1,8
46064,-76.9230769230769,4,1,1,50,0,0
46399,357.142857142857,4,1,1,50,1,8
46399,-76.9230769230769,4,1,1,50,0,0
47113,380.469245402663,4,1,1,50,1,0
47113,-76.9230769230769,4,1,1,50,0,0
47493,351.906158357771,4,1,1,50,1,8
48548,352.319436288902,4,1,1,50,1,0
48548,-76.9230769230769,4,1,1,50,0,0
49957,363.636363636364,4,1,1,50,1,0
49957,-76.9230769230769,4,1,1,50,0,0
50320,343.053173241852,4,1,1,50,1,8
50663,353.356890459364,4,1,1,50,1,8
50663,-76.9230769230769,4,1,1,50,0,0
51370,353.356890459364,4,1,1,50,1,0
51370,-76.9230769230769,4,1,1,50,0,0
52783,368.098159509202,4,1,1,50,1,0
52783,-76.9230769230769,4,1,1,50,0,0
53151,338.983050847458,4,1,1,50,1,8
53489,353.356890459364,4,1,1,50,1,8
53489,-76.9230769230769,4,1,1,50,0,0
54195,353.356890459364,4,1,1,50,1,0
54195,-76.9230769230769,4,1,1,50,0,0
57728,-142.857142857143,4,1,1,30,0,0
58435,-76.9230769230769,4,1,1,60,0,0
63384,346.820809248555,4,1,1,60,1,8
63384,-76.9230769230769,4,1,1,60,0,8
64077,365.853658536585,4,1,1,60,1,0
64077,-76.9230769230769,4,1,1,60,0,0
64442,352.941176470588,4,1,1,60,1,8
64442,-76.9230769230769,4,1,1,60,0,8
65500,352.941176470588,4,1,1,60,1,0
65676,-76.9230769230769,4,1,1,60,0,0
66205,-76.9230769230769,4,1,1,60,0,0
66558,359.281437125748,4,1,1,60,1,8
66917,359.281437125748,4,1,1,60,1,0
66917,-76.9230769230769,4,1,1,60,0,0
67635,336.134453781513,4,1,1,60,1,8
67971,352.941176470588,4,1,1,60,1,8
67971,-76.9230769230769,4,1,1,60,0,0
68324,352.941176470588,4,1,1,60,1,0
68324,-76.9230769230769,4,1,1,60,0,0
68676,344.827586206897,4,1,1,60,1,8
68676,-76.9230769230769,4,1,1,60,0,0
69710,382.165605095541,4,1,1,60,1,0
69710,-71.4285714285714,4,1,1,60,0,0
70092,357.142857142857,4,1,1,60,1,8
70092,-76.9230769230769,4,1,1,60,0,0
71163,357.142857142857,4,1,1,60,1,0
71520,352.941176470588,4,1,1,60,1,8
71520,-76.9230769230769,4,1,1,60,0,8
71872,342.857142857143,4,1,1,60,1,8
71872,-76.9230769230769,4,1,1,60,0,8
72557,359.281437125748,4,1,1,60,1,0
72557,-76.9230769230769,4,1,1,60,0,0
73275,346.820809248555,4,1,1,60,1,8
73275,-76.9230769230769,4,1,1,60,0,8
73968,346.820809248555,4,1,1,60,1,0
74662,352.941176470588,4,1,1,60,1,8
74662,-76.9230769230769,4,1,1,60,0,8
75367,375,4,1,1,60,1,0
75367,-76.9230769230769,4,1,1,60,0,0
76117,340.909090909091,4,1,1,60,1,8
76117,-76.9230769230769,4,1,1,60,0,0
76798,340.909090909091,4,1,1,60,1,0
76798,-76.9230769230769,4,1,1,60,0,0
77480,352.941176470588,4,1,1,60,1,8
77480,-76.9230769230769,4,1,1,60,0,8
78185,352.941176470588,4,1,1,60,1,0
78185,-76.9230769230769,4,1,1,60,0,0
78538,375,4,1,1,60,1,8
78538,-76.9230769230769,4,1,1,60,0,0
79663,300,4,1,1,60,1,0
79663,-90.9090909090909,4,1,1,60,0,0
79813,315.789473684211,4,1,1,60,1,8
79970,342.857142857143,4,1,1,60,1,8
79970,-83.3333333333333,4,1,1,60,0,8
80141,352.941176470588,4,1,1,60,1,8
80317,352.941176470588,4,1,1,60,1,8
80317,-76.9230769230769,4,1,1,60,0,8
81022,336.700336700337,4,1,1,60,1,0
82368,346.820809248555,4,1,1,60,1,0
83408,327.868852459016,4,1,1,60,1,8
83735,361.44578313253,4,1,1,60,1,0
85180,352.941176470588,4,1,1,60,1,0
86591,361.44578313253,4,1,1,60,1,0
88036,350.877192982456,4,1,1,60,1,0
89439,355.029585798817,4,1,1,50,1,0
89439,-83.3333333333333,4,1,1,50,0,0
90504,-76.9230769230769,4,1,1,50,0,0
92279,340.909090909091,4,1,1,50,1,0
92279,-76.9230769230769,4,1,1,60,0,0
94324,392.156862745098,4,1,1,60,1,8
94324,-76.9230769230769,4,1,1,60,0,0
94520,337.078651685393,4,1,1,60,1,8
94690,365.853658536585,4,1,1,60,1,8
94690,-76.9230769230769,4,1,1,60,0,0
95055,365.853658536585,4,1,1,60,1,0
95421,352.941176470588,4,1,1,60,1,8
95421,-76.9230769230769,4,1,1,60,0,0
96126,347.826086956522,4,1,1,60,1,8
96126,-76.9230769230769,4,1,1,60,0,8
96473,348.027842227378,4,1,1,60,1,0
96473,-76.9230769230769,4,1,1,60,0,0
97865,413.793103448276,4,1,1,60,1,0
97865,-66.6666666666667,4,1,1,60,0,0
98071,375,4,1,1,60,1,8
98258,342.857142857143,4,1,1,60,1,8
98258,-76.9230769230769,4,1,1,60,0,8
98601,352.941176470588,4,1,1,60,1,8
98601,-76.9230769230769,4,1,1,60,0,8
99306,352.941176470588,4,1,1,60,1,0
99306,-76.9230769230769,4,1,1,60,0,0
101953,300,4,1,1,60,1,8
102103,352.941176470588,4,1,1,60,1,0
102103,-76.9230769230769,4,1,1,60,0,0
103514,400,4,1,1,60,1,0
103514,-68.0272108843537,4,1,1,60,0,0
103714,306.122448979592,4,1,1,60,1,8
103867,352.941176470588,4,1,1,60,1,8
103867,-76.9230769230769,4,1,1,60,0,0
104925,352.941176470588,4,1,1,60,1,0
104925,-76.9230769230769,4,1,1,60,0,0
113395,300,4,1,1,60,1,0
113395,-76.9230769230769,4,1,1,60,0,0
113545,428.571428571429,4,1,1,60,1,8
113759,352.941176470588,4,1,1,60,1,8
113759,-76.9230769230769,4,1,1,60,0,8
114111,368.098159509202,4,1,1,60,1,8
114203,-73.7463126843658,4,1,1,60,0,8
114663,324.324324324324,4,1,1,60,1,8
114825,366.97247706422,4,1,1,60,1,0
114825,-76.9230769230769,4,1,1,50,0,0
115558,352.941176470588,4,1,1,50,1,8
115558,-76.9230769230769,4,1,1,50,0,8
116263,352.941176470588,4,1,1,50,1,0
116616,338.983050847458,4,1,1,50,1,8
117463,400,4,1,1,50,1,8
117663,352.941176470588,4,1,1,50,1,0
117663,-71.4285714285714,4,1,1,50,0,0
118721,285.714285714286,4,1,1,60,1,8
118721,-80,4,1,1,60,0,0
118863,387.096774193548,4,1,1,60,1,8
118959,-100,4,1,1,5,0,8
119056,352.941176470588,4,1,1,60,1,0
119408,365.853658536585,4,1,1,60,1,8
119773,356.50623885918,4,1,1,60,1,8
120486,361.44578313253,4,1,1,60,1,0
120486,-76.9230769230769,4,1,1,60,0,0
120847,345.821325648415,4,1,1,60,1,8
121019,-76.9230769230769,4,1,1,60,0,0
121192,315.789473684211,4,1,1,50,1,8
121507,375,4,1,1,50,1,8
121507,-76.9230769230769,4,1,1,50,0,8
121882,352.941176470588,4,1,1,50,1,0
121882,-76.9230769230769,4,1,1,50,0,0
123293,384.615384615385,4,1,1,50,1,0
123293,-71.4285714285714,4,1,1,50,0,0
124062,352.941176470588,4,1,1,50,1,8
124238,285.714285714286,4,1,1,50,1,8
124238,-76.9230769230769,4,1,1,50,0,0
124380,315.789473684211,4,1,1,50,1,8
124380,-76.9230769230769,4,1,1,50,0,8
124537,372.670807453416,4,1,1,50,1,8
124723,346.820809248555,4,1,1,30,1,0
124723,-76.9230769230769,4,1,1,30,0,0
125069,-100,4,1,1,40,0,0
125416,-133.333333333333,4,1,1,5,0,0
125503,-66.6666666666667,4,1,2,100,0,0
126022,-66.6666666666667,4,3,0,50,0,0
126110,349.854227405248,4,1,1,60,1,1
126110,-76.9230769230769,4,1,1,60,0,1
128209,400,4,1,1,60,1,9
128209,-68.0272108843537,4,1,1,60,0,1
128409,333.333333333333,4,1,1,60,1,9
128575,384.615384615385,4,1,1,60,1,9
128575,-68.0272108843537,4,1,1,60,0,9
128767,350.877192982456,4,1,1,60,1,9
128942,375,4,1,1,60,1,1
128942,-71.4285714285714,4,1,1,60,0,1
129129,346.820809248555,4,1,1,60,1,9
129302,344.827586206897,4,1,1,60,1,9
129646,352.319436288902,4,1,1,60,1,9
129646,-76.9230769230769,4,1,1,60,0,1
130174,375,4,1,1,60,1,9
130361,338.983050847458,4,1,1,60,1,1
130361,-76.9230769230769,4,1,1,60,0,1
130530,363.636363636364,4,1,1,60,1,9
130651,-100,4,1,1,5,0,9
130711,352.941176470588,4,1,1,60,1,9
130711,-76.9230769230769,4,1,1,60,0,1
131416,400,4,1,1,60,1,9
131616,338.983050847458,4,1,1,60,1,9
131785,392.156862745098,4,1,1,60,1,1
131785,-68.9655172413793,4,1,1,60,0,1
131981,352.941176470588,4,1,1,60,1,9
132333,350.877192982456,4,1,1,60,1,9
132508,348.837209302326,4,1,1,60,1,9
132508,-76.9230769230769,4,1,1,60,0,1
133205,333.333333333333,4,1,1,60,1,1
133205,-76.9230769230769,4,1,1,60,0,1
133538,352.941176470588,4,1,1,60,1,9
133538,-76.9230769230769,4,1,1,60,0,9
133890,346.820809248555,4,1,1,60,1,9
133890,-76.9230769230769,4,1,1,60,0,1
134236,333.333333333333,4,1,1,60,1,9
134236,-76.9230769230769,4,1,1,60,0,1
134569,361.44578313253,4,1,1,60,1,1
134569,-76.9230769230769,4,1,1,60,0,1
134930,375,4,1,1,60,1,9
134930,-76.9230769230769,4,1,1,60,0,1
135492,317.460317460317,4,1,1,60,1,9
135650,352.941176470588,4,1,1,60,1,9
135650,-76.9230769230769,4,1,1,60,0,1
136002,352.941176470588,4,1,1,60,1,0
136002,-76.9230769230769,4,1,1,60,0,0
136178,300,4,1,1,60,1,8
136178,-76.9230769230769,4,1,1,60,0,0
136478,380.952380952381,4,1,1,60,1,8
136478,-76.9230769230769,4,1,1,60,0,0
136668,374.298190892077,4,1,1,60,1,8
136668,-76.9230769230769,4,1,1,60,0,0
137416,352.941176470588,4,1,1,60,1,1
137416,-71.4285714285714,4,1,1,60,0,1
138121,344.827586206897,4,1,1,60,1,9
138121,-76.9230769230769,4,1,1,60,0,1
138810,352.941176470588,4,1,1,60,1,1
138810,-71.4285714285714,4,1,1,60,0,1
139162,387.096774193548,4,1,1,60,1,9
139162,-71.4285714285714,4,1,1,60,0,1
139355,340.909090909091,4,1,1,60,1,9
139525,333.333333333333,4,1,1,60,1,9
139525,-71.4285714285714,4,1,1,60,0,1
139858,400,4,1,1,60,1,9
139858,-71.4285714285714,4,1,1,60,0,1
140058,333.333333333333,4,1,1,60,1,9
140224,350.877192982456,4,1,1,60,1,1
140224,-71.4285714285714,4,1,1,60,0,1
140574,387.096774193548,4,1,1,60,1,9
140574,-66.6666666666667,4,1,1,60,0,9
140767,352.941176470588,4,1,1,60,1,9
140943,335.195530726257,4,1,1,60,1,9
140943,-71.4285714285714,4,1,1,60,0,1
141110,352.941176470588,4,1,1,60,1,9
141286,352.941176470588,4,1,1,60,1,9
141286,-71.4285714285714,4,1,1,60,0,1
141638,315.789473684211,4,1,1,60,1,1
141638,-76.9230769230769,4,1,1,60,0,1
141795,428.571428571429,4,1,1,60,1,9
141795,-71.4285714285714,4,1,1,60,0,1
141937,529.411764706038,4,1,1,60,1,9
142025,-55.5555555555556,4,1,1,60,0,1
142289,-52.6315789473684,4,1,1,60,0,1
142466,573.248407679825,4,1,1,60,1,9
142466,-50,4,1,1,60,0,1
142561,-50,4,1,1,60,0,1
142752,346.820809248555,4,1,1,60,1,9
142752,-76.9230769230769,4,1,1,60,0,9
143098,350.672121566335,4,1,1,60,1,0
148708,397.350993377483,4,1,1,45,1,0
148708,-83.3333333333333,4,1,1,45,0,0
149105,402.684563758389,4,1,1,45,1,8
149105,-83.3333333333333,4,1,1,45,0,0
149507,417.246175243394,4,1,1,45,1,8
149507,-83.3333333333333,4,1,1,45,0,0
150341,397.350993377483,4,1,1,45,1,0
150341,-83.3333333333333,4,1,1,45,0,0
150738,384.615384615385,4,1,1,45,1,8
150738,-83.3333333333333,4,1,1,45,0,0
150930,413.793103448276,4,1,1,45,1,8
150930,-83.3333333333333,4,1,1,45,0,8
151136,402.684563758389,4,1,1,45,1,8
151136,-83.3333333333333,4,1,1,45,0,8
151538,422.535211267606,4,1,1,45,1,8
151538,-83.3333333333333,4,1,1,45,0,0
151960,388.349514563107,4,1,1,45,1,0
151960,-83.3333333333333,4,1,1,45,0,0
152542,425.531914893617,4,1,1,45,1,8
152754,404.040404040404,4,1,1,45,1,8
152754,-83.3333333333333,4,1,1,45,0,0
153562,384.615384615385,4,1,1,45,1,0
153562,-83.3333333333333,4,1,1,45,0,0
153946,392.156862745098,4,1,1,45,1,8
153946,-83.3333333333333,4,1,1,45,0,0
154338,416.666666666667,4,1,1,45,1,8
154338,-83.3333333333333,4,1,1,45,0,0
155170,379.746835443038,4,1,1,45,1,0
155170,-83.3333333333333,4,1,1,45,0,0
155739,413.793103448276,4,1,1,45,1,8
155945,393.44262295082,4,1,1,45,1,8
155945,-83.3333333333333,4,1,1,45,0,0
156731,393.44262295082,4,1,1,45,1,0
156731,-83.3333333333333,4,1,1,45,0,0
157518,405.405405405405,4,1,1,45,1,8
157518,-83.3333333333333,4,1,1,45,0,8
157923,428.571428571429,4,1,1,45,1,8
157923,-83.3333333333333,4,1,1,45,0,0
158351,392.156862745098,4,1,1,45,1,0
158351,-83.3333333333333,4,1,1,45,0,0
158939,422.535211267606,4,1,1,45,1,8
159150,408.163265306122,4,1,1,45,1,8
159150,-83.3333333333333,4,1,1,45,0,0
159966,396.039603960396,4,1,1,45,1,0
159966,-83.3333333333333,4,1,1,45,0,0
160362,-76.9230769230769,4,1,1,45,0,0

[Colours]
Combo1 : 194,151,61
Combo2 : 118,130,177
Combo3 : 130,170,146
Combo4 : 145,133,158
Combo5 : 193,193,193
Combo6 : 182,122,78
Combo7 : 181,102,102
Combo8 : 172,134,151

[HitObjects]
97,205,34403,6,0,B|149:155|149:155|205:122,2,116.999994644165,2|0|0,0:0|0:0|0:0,0:0:0:0:
152,289,35106,2,0,B|203:238|203:238|259:205,2,116.999994644165,2|0|0,0:0|0:0|0:0,0:0:0:0:
246,332,35831,6,0,P|288:316|339:306,1,77.9999964294435,4|0,0:0|0:0,0:0:0:0:
414,309,36182,2,0,L|443:349,2,38.9999982147218,8|0|0,0:0|0:0|0:0,0:0:0:0:
369,226,36534,2,0,B|352:189|339:128,1,77.9999964294435,2|0,0:0|0:0,0:0:0:0:
326,59,36886,1,8,0:0:0:0:
243,102,37062,1,0,0:0:0:0:
157,64,37238,6,0,P|135:131|131:169,1,77.9999964294435,2|0,0:0|0:0,0:0:0:0:
110,229,37590,1,8,0:0:0:0:
18,248,37766,1,0,0:0:0:0:
48,336,37942,2,0,P|112:349|150:348,1,77.9999964294435,2|0,0:0|0:0,0:0:0:0:
193,283,38294,2,0,L|215:233,2,38.9999982147218,8|0|0,0:0|0:0|0:0,0:0:0:0:
254,357,38646,85,2,0:0:0:0:
345,374,38822,1,0,0:0:0:0:
432,340,38998,2,0,P|441:282|439:229,1,77.9999964294435,8|0,0:0|0:0,0:0:0:0:
420,171,39350,1,2,0:0:0:0:
332,203,39526,1,0,0:0:0:0:
241,185,39701,2,0,P|211:114|209:107,1,77.9999964294435,8|0,0:0|0:0,0:0:0:0:
146,44,40053,6,0,B|88:99|88:99|62:143,2,116.999994644165,2|0|0,0:0|0:0|0:0,0:0:0:0:
237,22,40757,2,0,B|315:39|315:39|347:56,2,116.999994644165,2|0|0,0:0|0:0|0:0,0:0:0:0:
211,114,41462,6,0,P|204:165|184:218,1,77.9999964294435,6|0,0:0|0:0,0:0:0:0:
151,273,41815,2,0,L|101:242,2,38.9999982147218,8|0|0,0:0|0:0|0:0,0:0:0:0:
243,288,42169,2,0,P|292:286|347:275,1,77.9999964294435,2|0,0:0|0:0,0:0:0:0:
406,243,42523,1,8,0:0:0:0:
495,269,42700,1,0,0:0:0:0:
460,356,42877,86,0,P|391:358|365:352,1,77.9999964294435,2|0,0:0|0:0,0:0:0:0:
320,281,43231,2,0,P|312:221|299:191,1,77.9999964294435,8|0,0:0|0:0,0:0:0:0:
239,139,43585,1,2,0:0:0:0:
164,195,43762,1,0,0:0:0:0:
100,124,43939,2,0,L|140:87,2,38.9999982147218,8|0|0,0:0|0:0|0:0,0:0:0:0:
25,186,44293,6,0,P|64:236|116:272,1,116.999994644165,4|0,0:0|0:0,0:0:0:0:
155,290,44646,2,0,L|175:325,2,38.9999982147218,8|0|0,0:0|0:0|0:0,0:0:0:0:
164,195,44999,2,0,L|197:158,7,38.9999982147218,8|0|0|0|0|0|0|0,0:0|0:0|0:0|0:0|0:0|0:0|0:0|0:0,0:0:0:0:
235,136,45705,6,0,B|275:204|275:204|281:251,1,116.999994644165,2|8,0:0|0:3,0:0:0:0:
209,318,46147,2,0,L|180:280,2,38.9999982147218,0|0|0,0:0|0:0|0:0,0:0:0:0:
256,344,46399,2,0,B|328:351|328:351|387:334,2,116.999994644165,2|8|4,0:0|0:3|0:3,0:0:0:0:
185,287,47113,86,0,B|168:250|187:208|187:208|212:178|212:178|229:117,1,155.999992858887,6|8,0:0|0:0,0:0:0:0:
407,104,47844,1,2,0:0:0:0:
318,137,48020,1,0,0:0:0:0:
222,144,48196,1,8,0:0:0:0:
133,114,48372,1,0,0:0:0:0:
51,67,48548,2,0,P|37:119|118:204,1,155.999992858887,2|8,0:0|0:0,0:0:0:0:
267,266,49252,2,0,B|309:280|309:280|344:267|344:267|398:282|424:327,1,155.999992858887,2|8,0:0|0:0,0:0:0:0:
231,345,49957,6,0,P|183:290|216:195,1,155.999992858887,6|8,0:0|0:0,0:0:0:0:
364,141,50663,2,0,P|331:159|286:176,1,77.9999964294435,2|0,0:0|0:0,0:0:0:0:
213,124,51016,1,8,0:0:0:0:
109,279,51369,2,0,P|163:342|235:344,1,155.999992858887,2|8,0:0|0:0,0:0:0:0:
410,287,52076,2,0,L|499:308,2,77.9999964294435,2|0|8,0:0|0:0|0:0,0:0:0:0:
238,228,52783,6,0,B|212:196|212:196|216:162|216:162|196:109|149:69,1,155.999992858887,6|8,0:0|0:0,0:0:0:0:
11,166,53489,1,2,0:0:0:0:
20,258,53665,1,0,0:0:0:0:
96,311,53842,1,8,0:0:0:0:
189,308,54019,1,0,0:0:0:0:
239,228,54195,2,0,B|261:195|261:195|301:186|331:166|331:166|351:129,1,155.999992858887,2|8,0:0|0:0,0:0:0:0:
167,169,54901,2,0,P|152:255|191:309,1,155.999992858887,2|8,0:0|0:0,0:0:0:0:
376,292,55608,85,6,0:0:0:0:
314,115,55961,1,8,0:0:0:0:
132,66,56315,2,0,P|103:48|61:9,2,77.9999964294435,2|0|8,0:0|0:0|0:0,0:0:0:0:
217,103,56845,1,0,0:0:0:0:
277,32,57021,5,2,0:0:0:0:
143,197,57728,2,0,B|160:168|160:168|164:141|164:141|196:125|217:103,1,125.999996154785,2|0,2:0|0:0,0:0:0:0:
254,126,58435,38,0,L|340:200,1,77.9999964294435,6|0,0:0|0:0,0:0:0:0:
356,259,58788,1,8,0:0:0:0:
279,312,58965,1,0,0:0:0:0:
191,284,59141,2,0,P|151:218|59:241,1,155.999992858887,2|0,0:0|0:0,0:0:0:0:
33,303,59672,1,8,0:0:0:0:
104,129,60025,2,0,P|148:130|205:156,2,77.9999964294435,0|8|0,0:0|0:0|0:0,0:0:0:0:
11,137,60555,1,2,0:0:0:0:
237,74,60908,1,8,0:0:0:0:
355,276,61262,6,0,L|300:188,1,77.9999964294435,6|0,0:0|0:0,0:0:0:0:
232,162,61615,2,0,P|165:172|134:166,2,77.9999964294435,8|0|8,0:0|0:0|0:0,0:0:0:0:
316,120,62145,1,0,0:0:0:0:
134,267,62498,1,8,0:0:0:0:
350,355,62852,2,0,P|385:330|412:286,2,77.9999964294435,0|8|0,0:0|0:0|0:0,0:0:0:0:
254,339,63384,1,2,0:0:0:0:
162,357,63557,2,0,L|98:389,4,38.9999982147218,8|0|0|0|0,0:0|0:0|0:0|0:0|0:0,0:0:0:0:
189,272,64077,6,0,L|179:182,1,77.9999964294435,6|0,0:0|0:0,0:0:0:0:
92,235,64442,1,8,0:0:0:0:
25,168,64618,1,0,0:0:0:0:
84,95,64794,2,0,P|164:105|221:58,1,155.999992858887,2|0,0:0|0:0,0:0:0:0:
137,16,65324,1,8,0:0:0:0:
248,223,65676,2,0,P|280:201|308:174,2,77.9999964294435,0|8|0,0:0|0:0|0:0,0:0:0:0:
154,215,66205,1,2,0:0:0:0:
386,238,66558,1,8,0:0:0:0:
185,359,66917,86,0,L|108:328,1,77.9999964294435,6|0,0:0|0:0,0:0:0:0:
25,295,67276,2,0,P|20:349|32:378,2,77.9999964294435,0|0|8,0:0|0:0|0:0,0:0:0:0:
249,224,67971,2,0,P|278:207|306:168,1,77.9999964294435,0|2,0:0|0:0,0:0:0:0:
341,88,68324,2,0,L|392:113,2,38.9999982147218,8|0|0,0:0|0:0|0:0,0:0:0:0:
250,57,68676,2,0,P|227:87|191:146,1,77.9999964294435,8|0,0:3|0:0,0:0:0:0:
148,49,69020,2,0,P|128:85|105:146,1,77.9999964294435,8|0,0:3|0:0,0:0:0:0:
47,57,69365,2,0,P|33:99|21:160,1,77.9999964294435,4|0,0:3|0:0,0:0:0:0:
26,253,69710,6,0,L|118:299,1,83.9999974365235,6|0,0:0|0:0,0:0:0:0:
183,234,70092,1,8,0:0:0:0:
266,276,70270,1,0,0:0:0:0:
320,199,70449,2,0,P|359:131|463:129,1,155.999992858887,2|0,0:0|0:0,0:0:0:0:
509,165,70984,1,8,0:0:0:0:
320,199,71341,1,0,0:0:0:0:
238,155,71520,2,0,P|208:133|169:119,1,77.9999964294435,8|0,0:0|0:0,0:0:0:0:
74,136,71872,1,2,0:0:0:0:
266,276,72214,1,8,0:0:0:0:
391,85,72557,6,0,L|301:113,1,77.9999964294435,6|0,0:0|0:0,0:0:0:0:
235,60,72916,2,0,P|192:20|168:8,2,77.9999964294435,0|0|8,0:0|0:0|0:0,0:0:0:0:
238,154,73448,2,0,P|250:222|271:248,1,77.9999964294435
342,259,73795,2,0,P|381:214|472:203,1,155.999992858887,2|0,0:0|0:0,0:0:0:0:
502,291,74314,1,8,0:3:0:0:
270,323,74661,1,8,0:3:0:0:
150,121,75014,1,4,0:3:0:0:
106,336,75367,86,0,L|129:233,1,77.9999964294435,6|0,0:0|0:0,0:0:0:0:
196,201,75742,1,8,0:0:0:0:
288,189,75929,1,0,0:0:0:0:
261,95,76117,2,0,P|308:33|404:41,1,155.999992858887,2|0,0:0|0:0,0:0:0:0:
352,119,76628,1,8,0:0:0:0:
119,102,76968,2,0,P|79:157|69:186,2,77.9999964294435,0|8|0,0:0|0:0|0:0,0:0:0:0:
189,39,77479,1,2,0:0:0:0:
262,225,77832,2,0,P|268:269|290:312,1,77.9999964294435,8|0,0:0|0:0,0:0:0:0:
300,319,78097,1,0,0:0:0:0:
327,332,78185,6,0,L|431:324,1,77.9999964294435,6|0,0:0|0:0,0:0:0:0:
463,254,78538,2,0,P|487:216|528:178,2,77.9999964294435,0|0|8,0:0|0:0|0:0,0:0:0:0:
373,243,79100,2,0,P|348:203|335:163,1,77.9999964294435
257,131,79475,1,2,0:0:0:0:
189,197,79663,6,0,L|260:224,1,66.0000020141602,2|0,0:0|0:0,0:0:0:0:
194,289,79970,2,0,L|124:264,1,71.9999978027344,2|0,0:0|0:0,0:0:0:0:
51,325,80317,2,0,L|124:353,2,77.9999964294435,2|0|2,0:0|0:0|0:0,0:0:0:0:
31,233,80846,1,2,0:0:0:0:
98,168,81022,21,4,0:2:0:0:
297,147,89439,6,0,B|237:109|237:109|201:110|201:110|176:48|103:39,2,215.999993408203,6|2|2,0:0|0:0|0:0,0:0:0:0:
375,203,90681,2,0,L|352:246,2,38.9999982147218,0|0|0,0:0|0:0|0:0,0:0:0:0:
398,163,90947,6,0,B|417:132|417:132|452:114|452:114|482:82|470:30,1,155.999992858887,8|0,0:3|0:0,0:0:0:0:
379,54,91480,2,0,L|323:74,7,38.9999982147218,8|0|0|0|0|0|0|0,0:3|0:0|0:0|0:0|0:0|0:0|0:0|0:0,0:0:0:0:
263,125,92279,22,0,B|238:156|238:156|188:188,1,77.9999964294435,6|0,0:0|0:0,0:0:0:0:
112,167,92619,2,0,L|103:119,2,38.9999982147218,8|0|0,0:0|0:0|0:0,0:0:0:0:
146,254,92960,2,0,B|177:280|177:280|241:298,1,77.9999964294435,2|0,0:0|0:0,0:0:0:0:
306,285,93301,1,8,0:0:0:0:
381,229,93472,1,0,0:0:0:0:
474,230,93642,6,0,B|473:179|441:155|441:155|445:133|445:133|412:119|401:74,1,155.999992858887,6|8,0:0|0:0,0:0:0:0:
385,8,94154,1,0,0:0:0:0:
319,75,94324,2,0,B|285:96|285:96|222:113,1,77.9999964294435,2|0,0:0|0:0,0:0:0:0:
160,80,94690,2,0,L|186:32,2,38.9999982147218,8|0|0,0:0|0:0|0:0,0:0:0:0:
107,158,95055,5,6,0:0:0:0:
157,236,95237,1,0,0:0:0:0:
245,205,95421,2,0,L|232:148,2,38.9999982147218,8|0|0,0:0|0:0|0:0,0:0:0:0:
284,286,95773,2,0,B|314:311|314:311|374:335,1,77.9999964294435,2|0,0:0|0:0,0:0:0:0:
399,245,96126,2,0,B|385:208|385:208|377:159,1,77.9999964294435,8|0,0:0|0:0,0:0:0:0:
441,101,96473,85,6,0:0:0:0:
363,48,96647,2,0,L|306:40,5,38.9999982147218,0|0|8|0|0|0,0:0|0:0|0:0|0:0|0:0|0:0,0:0:0:0:
290,89,97169,2,0,L|242:125,4,38.9999982147218,2|0|0|0|8,0:0|0:0|0:0|0:0|0:0,0:0:0:0:
232,19,97691,1,8,0:0:0:0:
140,16,97865,6,0,B|104:26|104:26|90:48|90:48|36:97|22:169,1,171,6|8,0:0|0:0,0:0:0:0:
38,231,98429,1,0,0:0:0:0:
109,170,98601,2,0,P|143:117|239:70,1,155.999992858887,2|8,0:0|0:0,0:0:0:0:
316,62,99130,1,0,0:0:0:0:
309,155,99306,6,0,B|284:158|284:158|260:151|260:151|211:155|175:198|188:248,1,155.999992858887,6|8,0:0|0:0,0:0:0:0:
205,307,99835,1,0,0:0:0:0:
270,372,100011,2,0,P|299:302|265:235,1,155.999992858887,2|8,0:0|0:0,0:0:0:0:
205,307,100541,1,0,0:0:0:0:
112,315,100717,86,0,B|85:287|83:244|83:244|66:218|66:218|62:196|80:155,1,155.999992858887,6|8,0:0|0:0,0:0:0:0:
118,93,101247,1,0,0:0:0:0:
202,54,101423,2,0,L|221:142,1,77.9999964294435,8|0,0:0|0:0,0:0:0:0:
294,41,101776,2,0,L|313:129,1,77.9999964294435,8|0,0:0|0:0,0:0:0:0:
278,219,102103,6,0,B|218:268|218:268|169:281,2,116.999994644165,6|8|8,0:0|0:3|0:3,0:0:0:0:
383,197,102808,2,0,L|440:222,3,38.9999982147218,2|0|0|0,0:0|0:0|0:0|0:0,0:0:0:0:
420,276,103161,2,0,L|460:326,3,38.9999982147218,8|0|0|0,0:0|0:0|0:0|0:0,0:0:0:0:
419,363,103514,6,0,B|385:375|385:375|361:357|361:357|300:375|243:343,1,155.399991790467,6|8,0:0|0:0,0:0:0:0:
191,314,104043,1,0,0:0:0:0:
154,229,104219,2,0,B|143:191|143:191|108:143,2,77.9999964294435,2|0|8,0:0|0:0|0:0,0:0:0:0:
100,306,104749,1,0,0:0:0:0:
19,258,104925,86,0,B|11:208|11:208|34:174|34:174|30:138|51:105,1,155.999992858887,6|8,0:0|0:0,0:0:0:0:
112,48,105454,1,0,0:0:0:0:
191,96,105630,2,0,B|231:97|231:97|284:84,1,77.9999964294435,2|0,0:0|0:0,0:0:0:0:
319,6,105983,2,0,B|358:12|358:12|414:40,1,77.9999964294435,8|0,0:0|0:0,0:0:0:0:
474,75,106336,6,0,B|456:108|427:117|427:117|426:143|426:143|395:151|368:182,1,155.999992858887,6|8,0:0|0:0,0:0:0:0:
314,252,106866,1,0,0:0:0:0:
298,344,107042,2,0,B|333:355|333:355|374:355,2,77.9999964294435,2|0|8,0:0|0:0|0:0,0:0:0:0:
211,306,107572,1,0,0:0:0:0:
147,237,107748,6,0,L|94:160,1,77.9999964294435,6|0,0:0|0:0,0:0:0:0:
162,96,108101,2,0,L|215:173,1,77.9999964294435,8|0,0:0|0:0,0:0:0:0:
305,142,108454,2,0,L|252:65,1,77.9999964294435,2|0,0:0|0:0,0:0:0:0:
321,7,108807,2,0,L|374:84,1,77.9999964294435,8|0,0:0|0:0,0:0:0:0:
424,145,109160,86,0,B|443:164|443:164|467:180|467:180|474:205|474:205|506:226|514:274,1,155.999992858887,6|8,0:0|0:0,0:0:0:0:
456,344,109689,1,0,0:0:0:0:
368,379,109866,2,0,B|329:383|329:383|284:373,2,77.9999964294435,2|0|8,0:0|0:0|0:0,0:0:0:0:
378,285,110395,1,0,0:0:0:0:
288,250,110572,6,0,B|247:239|247:239|234:205|234:205|198:182|177:131,1,155.999992858887,6|8,0:0|0:0,0:0:0:0:
214,58,111101,1,0,0:0:0:0:
307,46,111277,2,0,B|337:69|337:69|365:105,1,77.9999964294435,2|0,0:0|0:0,0:0:0:0:
445,45,111630,2,0,B|456:83|456:83|460:139,1,77.9999964294435,8|0,0:0|0:0,0:0:0:0:
390,204,111983,6,0,B|361:215|361:215|339:237|339:237|294:208|232:228,1,155.999992858887,6|8,0:0|0:0,0:0:0:0:
160,256,112513,1,0,0:0:0:0:
96,187,112689,2,0,B|108:149|108:149|137:108,1,77.9999964294435,2|0,0:0|0:0,0:0:0:0:
179,37,113042,2,0,L|132:20,2,38.9999982147218,8|0|0,0:0|0:0|0:0,0:0:0:0:
271,68,113395,54,0,P|325:65|385:51,1,77.9999964294435
374,69,113616,1,0,0:0:0:0:
387,91,113687,1,0,0:0:0:0:
395,114,113759,2,0,L|404:165,3,38.9999982147218,8|0|0|8,0:0|0:0|0:0|0:3,0:0:0:0:
385,247,114203,2,0,L|327:285,5,40.6799987213013,8|0|0|2|0|0,0:3|0:0|0:0|0:0|0:0|0:3,0:0:0:0:
266,294,114825,38,0,B|238:266|238:266|181:232,2,77.9999964294435,6|0|0,0:0|0:0|0:0,0:0:0:0:
182,335,115375,2,0,B|143:331|143:331|91:306,1,77.9999964294435,2|0,0:0|0:0,0:0:0:0:
82,223,115734,1,0,0:0:0:0:
21,151,115910,2,0,B|37:107|37:107|66:97|66:97|97:60|134:62,1,155.999992858887,8|0,0:0|0:0,0:0:0:0:
266,132,117663,6,0,B|250:93|250:93|211:55,2,83.9999974365235,6|0|0,0:0|0:0|0:0,0:0:0:0:
302,230,118192,2,0,B|344:236|344:236|385:224,2,83.9999974365235,2|0|0,0:0|0:0|0:0,0:0:0:0:
199,213,118721,2,0,B|159:227|159:227|139:259|139:259|99:235|37:234,1,176,8|0,0:0|0:0,0:0:0:0:
134,82,120486,102,0,B|117:117|117:117|105:171,1,77.9999964294435,6|0,0:0|0:0,0:0:0:0:
116,248,120847,1,0,0:0:0:0:
195,198,121019,2,0,B|212:231|212:231|247:264,1,77.9999964294435,2|0,0:0|0:0,0:0:0:0:
329,287,121349,1,0,0:0:0:0:
311,189,121507,2,0,B|353:199|353:199|417:188,1,77.9999964294435,8|0,0:0|0:0,0:0:0:0:
474,144,121882,1,0,0:0:0:0:
188,44,123293,6,0,B|201:85|201:85|204:144,2,83.9999974365235,6|0|0,0:0|0:0|0:0,0:0:0:0:
101,95,123869,2,0,B|103:138|103:138|89:190,1,83.9999974365235,2|0,0:0|0:0,0:0:0:0:
37,259,124238,1,0,0:0:0:0:
112,315,124380,2,0,L|212:339,1,77.9999964294435,8|0,0:0|0:0,0:0:0:0:
270,286,124723,1,8,0:0:0:0:
440,328,125069,102,0,B|460:300|464:268|464:268|484:256|484:256|516:220,1,120,2|0,2:0|2:0,0:0:0:0:
491,210,125503,86,2,B|451:199|451:199|433:151|433:151|333:146|295:29,1,270.000010299683,0|0,0:0|3:0,0:0:0:0:
278,60,126110,54,0,B|254:90|254:90|209:122,1,77.9999964294435,6|0,0:0|0:0,0:0:0:0:
131,138,126459,2,0,L|123:97,2,38.9999982147218,8|0|0,0:0|0:0|0:0,0:0:0:0:
160,228,126809,1,2,0:0:0:0:
238,279,126984,1,0,0:0:0:0:
331,272,127159,2,0,L|356:309,2,38.9999982147218,8|0|0,0:0|0:0|0:0,0:0:0:0:
281,192,127509,86,0,B|266:166|266:166|259:128|259:128|215:105|186:60,1,155.999992858887,6|8,0:0|0:0,0:0:0:0:
110,27,128034,1,0,0:0:0:0:
65,107,128209,2,0,L|140:173,1,88.1999958952333,2|0,0:0|0:0,0:0:0:0:
32,204,128575,2,0,L|106:268,1,88.1999958952333,8|0,0:0|0:0,0:0:0:0:
174,317,128942,6,0,B|186:304|186:304|199:276|199:276|250:290|304:249,1,160.999994873047,6|8,0:0|0:0,0:0:0:0:
368,181,129474,1,0,0:0:0:0:
459,174,129646,2,0,B|469:215|469:215|469:281,1,77.9999964294435,2|0,0:0|0:0,0:0:0:0:
435,338,129998,2,0,B|398:352|398:352|344:352,1,77.9999964294435,8|0,0:0|0:0,0:0:0:0:
270,321,130361,6,0,B|241:290|247:247|247:247|219:230|219:230|223:197|199:166,1,161,6|8,0:0|0:0,0:0:0:0:
190,93,130887,1,0,0:0:0:0:
278,124,131063,2,0,B|298:134|330:120|330:120|353:144|353:144|381:165|420:156,1,155.999992858887,2|8,0:0|0:0,0:0:0:0:
508,131,131616,1,0,0:0:0:0:
442,63,131785,86,0,B|421:59|421:59|407:64|407:64|353:3|272:37,1,165.000005310059,6|8,0:0|0:0,0:0:0:0:
202,67,132333,1,0,0:0:0:0:
187,162,132508,2,0,B|175:201|175:201|146:244,2,77.9999964294435,2|0|8,0:0|0:0|0:0,0:0:0:0:
111,102,133031,2,0,L|93:66,2,38.9999982147218,0|0|4,0:0|0:0|0:0,0:0:0:0:
92,148,133288,6,0,B|63:178|63:178|-5:209,1,116.999994644165,2|8,0:0|0:0,0:0:0:0:
21,297,133714,1,0,0:0:0:0:
107,320,133890,2,0,B|145:326|145:326|218:312,1,77.9999964294435,2|0,0:0|0:0,0:0:0:0:
245,248,134236,2,0,B|280:227|280:227|335:208,1,77.9999964294435,8|0,0:0|0:0,0:0:0:0:
369,141,134569,102,0,L|388:89,4,38.9999982147218,6|0|0|0|0,0:0|0:0|0:0|0:0|0:0,0:0:0:0:
278,92,135117,2,0,L|274:30,4,38.9999982147218,2|0|0|0|0,0:0|0:0|0:0|0:0|0:0,0:0:0:0:
178,120,135650,2,0,L|162:82,4,38.9999982147218,2|0|0|0|4,0:0|0:0|0:0|0:0|0:0,0:0:0:0:
193,217,136178,6,0,B|188:256|188:256|172:281|172:281|166:340|199:378,1,155.999992858887,8|8,0:3|0:0,0:0:0:0:
213,374,136573,1,0,0:0:0:0:
237,373,136668,1,0,0:0:0:0:
289,295,136855,2,0,L|296:240,5,38.9999982147218,8|0|2|0|8|0,0:0|0:0|0:0|0:0|0:0|0:0,0:0:0:0:
302,203,137416,6,0,B|319:164|319:164|356:122,1,83.9999974365235,6|0,0:0|0:0,0:0:0:0:
417,62,137768,2,0,L|465:70,2,41.9999987182618,8|0|0,0:0|0:0|0:0,0:0:0:0:
338,6,138121,1,2,0:0:0:0:
251,41,138293,1,0,0:0:0:0:
191,113,138465,2,0,L|185:160,2,38.9999982147218,8|0|0,0:0|0:0|0:0,0:0:0:0:
108,68,138810,86,0,B|73:92|73:92|35:142,1,83.9999974365235,6|0,0:0|0:0,0:0:0:0:
45,216,139162,2,0,L|94:204,2,41.9999987182618,8|0|0,0:0|0:0|0:0,0:0:0:0:
4,298,139525,2,0,B|44:317|44:317|92:322,1,83.9999974365235,2|0,0:0|0:0,0:0:0:0:
167,280,139858,2,0,B|199:256|199:256|248:240,1,83.9999974365235,8|0,0:0|0:0,0:0:0:0:
335,224,140224,5,6,0:0:0:0:
418,279,140399,1,0,0:0:0:0:
331,324,140574,2,0,L|284:349,2,45.0000017166138,8|0|0,0:0|0:0|0:0,0:0:0:0:
418,279,140943,2,0,B|445:244|445:244|466:183,1,83.9999974365235,2|0,0:0|0:0,0:0:0:0:
477,107,141286,2,0,L|528:131,2,41.9999987182618,8|0|0,0:0|0:0|0:0,0:0:0:0:
382,94,141638,6,0,P|343:102|290:135,1,77.9999964294435,6|0,0:0|0:0,0:0:0:0:
283,117,141866,1,0,0:0:0:0:
257,102,141937,1,0,0:0:0:0:
243,77,142025,2,0,L|237:37,4,35.9999989013672,2|0|0|0|0,0:0|0:0|0:0|0:0|0:0,0:0:0:0:
198,121,142466,86,0,L|177:168,2,40,2|0|0,0:0|0:0|0:0,0:0:0:0:
158,72,142752,2,0,B|121:58|121:58|71:53,2,77.9999964294435,8|0|6,0:0|0:0|0:0,0:0:0:0:
256,192,143273,12,0,148358,0:0:0:0:
172,76,148708,54,0,B|104:104|104:104|60:176,1,143.999995605469,8|0,0:0|0:0,0:0:0:0:
116,324,149507,1,2,0:0:0:0:
116,324,150341,6,8,B|112:252|112:252|148:180,1,143.999995605469,8|0,0:0|0:0,0:0:0:0:
310,167,151136,1,2,0:0:0:0:
342,83,151337,1,0,0:0:0:0:
292,12,151538,1,2,0:0:0:0:
398,153,151960,86,0,B|436:213|436:213|430:297,1,143.999995605469,8|0,0:0|0:0,0:0:0:0:
262,242,152754,1,2,0:0:0:0:
262,242,153562,6,0,B|190:240|190:240|130:202,1,143.999995605469,8|0,0:0|0:0,0:0:0:0:
67,51,154338,1,2,0:0:0:0:
234,10,154754,1,2,0:0:0:0:
373,137,155170,6,0,B|440:162|440:162|531:151,1,143.999995605469,8|0,0:0|0:0,0:0:0:0:
355,228,155945,1,2,0:0:0:0:
355,228,156731,86,0,B|377:160|377:160|362:84,1,143.999995605469,8|0,0:0|0:0,0:0:0:0:
204,144,157518,1,2,0:0:0:0:
118,149,157720,1,0,0:0:0:0:
58,93,157923,1,2,0:0:0:0:
84,279,158351,6,0,B|127:337|127:337|208:375,1,143.999995605469,8|0,0:0|0:0,0:0:0:0:
355,313,159150,1,2,0:0:0:0:
188,265,159558,1,2,0:0:0:0:
362,230,159966,6,0,L|435:218,1,71.9999978027344,8|0,0:0|0:0,0:0:0:0:
340,146,160362,2,0,L|262:133,1,77.9999964294435,8|0,0:0|0:0,0:0:0:0:
172,166,160758,1,8,0:0:0:0:
70,103,160956,1,8,0:0:0:0:
88,213,161154,1,8,0:0:0:0:
181,72,161352,1,8,0:0:0:0:
