osu file format v9

[General]
AudioFilename: 04 - Ion.mp3
AudioLeadIn: 2007
PreviewTime: -1
Countdown: 1
SampleSet: Normal
StackLeniency: 0.4
Mode: 0
LetterboxInBreaks: 1

[Editor]
DistanceSpacing: 1.2
BeatDivisor: 4
GridSize: 4

[Metadata]
Title:Ion
Artist:Apocalyptica
Creator:sevas-tra
Version:Insane
Source:
Tags:cello metal

[Difficulty]
HPDrainRate:7
CircleSize:4
OverallDifficulty:7
ApproachRate:9
SliderMultiplier:2
SliderTickRate:1

[Events]
//Background and Video events
//Break Periods
//Storyboard Layer 0 (Background)
//Storyboard Layer 1 (Fail)
//Storyboard Layer 2 (Pass)
//Storyboard Layer 3 (Foreground)
//Storyboard Sound Samples
//Background Colour Transformations
3,100,163,162,255

[TimingPoints]
165,329.67032967033,4,1,0,100,1,0
21263,-200,4,1,0,100,0,0
25302,-200,4,2,0,100,0,0
26538,-200,4,1,0,100,0,0
27857,-100,4,1,0,100,0,0

[HitObjects]
256,56,165,1,0
256,328,494,1,0
256,328,824,1,0
312,224,989,1,0
200,184,1154,1,0
312,144,1318,1,0
376,48,1648,5,0
136,48,1813,1,0
256,256,2143,1,0
368,296,2307,1,0
256,344,2472,1,0
144,296,2637,1,0
256,256,2802,5,0
256,16,3131,1,0
192,248,3461,1,0
304,296,3626,1,0
192,328,3791,1,0
304,296,3956,1,0
360,192,4121,5,0
256,128,4286,1,0
152,192,4450,1,0
256,256,4614,1,0
312,152,4779,5,0
200,152,4944,1,0
200,232,5110,1,0
312,232,5274,1,0
312,232,5357,1,0
312,232,5439,1,0
128,80,5768,5,0
336,192,6098,1,0
328,312,6263,1,0
336,192,6428,1,0
264,288,6593,1,0
256,48,6922,5,0
256,48,7087,1,0
176,192,7417,1,0
184,72,7582,1,0
176,192,7747,1,0
248,96,7912,1,0
176,192,8077,1,0
176,192,8405,5,0
312,280,8736,1,0
424,336,8901,1,0
416,216,9065,1,0
312,280,9229,1,0
424,336,9395,1,0
416,216,9560,1,0
312,280,9724,1,0
368,176,9890,5,0
352,160,9972,1,0
328,144,10055,1,0
304,128,10137,1,0
280,120,10219,1,0
256,112,10302,1,0
232,120,10384,1,0
208,128,10466,1,0
184,144,10548,1,0
160,160,10631,1,0
144,176,10713,1,0
256,192,11044,5,0
256,192,11373,2,0,B|256:296,3,100
256,48,12197,5,0
256,48,12362,1,0
152,104,12527,2,0,B|152:160|96:192,1,100
56,268,12857,2,0,B|56:213|104:186,1,100
56,268,13186,2,0,B|56:324|9:351,1,100
502,351,13681,6,0,B|455:324|455:268,1,100
407,186,14010,2,0,B|455:213|455:268,1,100
407,186,14340,2,0,B|360:160|360:104,1,100
256,40,14670,5,0
104,192,14835,1,0
256,344,15000,1,0
408,192,15165,1,0
392,72,15329,5,0
120,72,15494,1,0
256,344,15659,1,0
256,192,15824,1,0
256,192,15906,1,0
256,192,15989,1,0
56,328,16318,2,0,B|88:384|152:384,1,100
256,360,16648,1,0
256,240,16813,1,0
456,328,16978,2,0,B|424:384|360:384,1,100
448,152,17472,6,0,B|416:96|352:96,1,100
256,56,17802,1,0
64,152,17967,2,0,B|96:96|160:96,1,100
256,160,18296,5,0
256,224,18461,1,0
256,280,18626,1,0
88,160,18956,2,0,B|40:208|80:256,1,100
424,160,19285,2,0,B|472:208|432:256,1,100
256,80,19615,1,0
152,136,19780,5,0
176,152,19862,1,0
200,168,19945,1,0
224,184,20027,1,0
200,200,20110,1,0
176,208,20192,1,0
152,216,20274,1,0
360,136,20439,5,0
336,152,20521,1,0
312,168,20604,1,0
288,184,20686,1,0
312,200,20769,1,0
336,208,20851,1,0
360,216,20933,1,0
256,280,21099,1,0
64,120,21263,6,0,B|256:221|448:120,3,400
424,240,25549,5,0
300,216,25714,1,0
280,200,25796,1,0
256,196,25879,1,0
168,244,26044,1,0
148,260,26126,1,0
124,264,26208,1,0
100,260,26291,1,0
80,248,26373,1,0
64,228,26456,1,0
64,204,26538,6,0,B|256:103|448:204,1,400
444,324,28022,1,0
332,360,28186,1,0
256,132,28516,1,0
136,112,28681,1,0
124,132,28763,1,0
136,152,28846,1,0
376,152,29011,1,0
388,132,29094,1,0
376,112,29176,1,0
256,320,29505,5,0
256,80,29835,1,0
153,142,30000,1,0
48,204,30165,1,0
256,320,30494,1,0
359,259,30659,1,0
464,196,30824,1,0
464,196,30989,1,0
359,259,31154,1,0
256,320,31318,1,0
256,200,31483,1,0
256,80,31648,1,0
256,80,31813,1,0
256,320,32143,5,0
416,80,32637,1,0
96,192,32802,1,0
416,304,32967,1,0
256,40,33296,1,0
256,344,33461,1,0
248,156,33956,5,0
272,156,34038,1,0
296,156,34121,1,0
200,228,34285,1,0
224,228,34368,1,0
248,228,34450,1,0
384,192,34780,5,0
368,352,35274,1,0
256,32,35439,1,0
144,352,35604,1,0
408,192,35933,1,0
104,192,36098,1,0
204,172,36593,5,0
188,192,36675,1,0
204,216,36758,1,0
308,216,36923,1,0
324,192,37006,1,0
308,172,37088,1,0
256,192,37417,5,0
84,24,37912,2,0,B|28:64|44:136,1,100
160,116,38241,1,0
428,360,38571,2,0,B|484:320|468:248,1,100
40,274,39066,2,0,B|28:320|84:360,1,100
256,192,39395,1,0
471,109,39560,2,0,B|484:64|428:24,1,100
188,148,40055,5,0
491,142,40550,2,0,B|517:204|482:235,1,100
377,178,40879,1,0
20,241,41209,2,0,B|-5:179|29:148,1,100
134,205,41538,1,0
132,84,41703,5,0
228,152,41868,1,0
324,220,42033,1,0
440,252,42197,2,0,B|424:316|377:321,1,100
456,92,42692,6,0,B|368:28,1,100
416,148,43022,2,0,B|328:84,1,100
228,36,43351,1,0
120,84,43516,1,0
20,304,43846,1,0
140,312,44011,6,0,B|228:376,1,100
180,256,44341,2,0,B|268:320,1,100
380,316,44670,1,0
452,220,44835,1,0
448,100,45000,1,0
