osu file format v14

[General]
AudioFilename: mountainkinglive.mp3
AudioLeadIn: 0
PreviewTime: 54148
Countdown: 0
SampleSet: Soft
StackLeniency: 0.7
Mode: 0
LetterboxInBreaks: 1
WidescreenStoryboard: 1

[Editor]
Bookmarks: 97085,120864,185372
DistanceSpacing: 1.3
BeatDivisor: 4
GridSize: 4
TimelineZoom: 1.30272

[Metadata]
Title:Hall of the Mountain King
TitleUnicode:Hall of the Mountain King
Artist:Apocalyptica
ArtistUnicode:Apocalyptica
Creator:pishifat
Version:VI
Source:
Tags:live speed increase cello thrash symphonic orchestral classical cult edvard grieg life burns tour even better
BeatmapID:753100
BeatmapSetID:340399

[Difficulty]
HPDrainRate:6
CircleSize:4.1
OverallDifficulty:8
ApproachRate:9
SliderMultiplier:1.75
SliderTickRate:1

[Events]
//Background and Video events
0,0,"jpg.jpg",0,0
//Break Periods
2,100556,111883
//Storyboard Layer 0 (Background)
//Storyboard Layer 1 (Fail)
//Storyboard Layer 2 (Pass)
//Storyboard Layer 3 (Foreground)
//Storyboard Sound Samples

[TimingPoints]
25407,1764.70588235294,4,2,1,50,1,0
26289,1739.13043478261,4,2,1,50,1,0
27158,1621.62162162162,4,2,1,50,1,0
27968,1538.46153846154,4,2,1,50,1,0
28737,1509.43396226415,4,2,1,50,1,0
30246,1371.42857142857,4,2,1,50,1,0
31617,1445.78313253012,4,2,1,50,1,0
33062,1363.63636363636,4,2,1,50,1,0
34425,1387.28323699422,4,2,1,50,1,0
35812,1297.2972972973,4,2,1,50,1,0
37109,1206.03015075377,4,2,1,50,1,0
37712,1153.84615384615,4,2,1,50,1,0
38288,1132.07547169811,4,2,1,50,1,0
39420,1016.94915254237,4,2,1,50,1,0
40436,916.030534351145,4,2,1,50,1,0
41352,845.070422535211,4,2,1,50,1,0
43042,764.331210191083,4,2,1,50,1,0
43042,-142.857142857143,4,2,1,50,0,0
44570,779.220779220779,4,2,1,50,1,0
44959,710.059171597633,4,2,1,50,1,0
45314,701.754385964912,4,2,1,50,1,0
45664,677.966101694915,4,2,1,50,1,0
46002,677.966101694915,4,2,1,50,1,0
47357,652.173913043478,4,2,1,50,1,0
48009,634.920634920635,4,2,1,50,1,0
48643,652.173913043478,4,2,1,50,1,0
49295,634.920634920635,4,2,1,50,1,0
49929,600,4,2,1,50,1,0
51129,574.162679425837,4,2,1,50,1,0
51416,-100,4,2,1,60,0,0
51703,550.45871559633,4,2,1,60,1,0
51978,535.714285714286,4,2,1,60,1,0
51978,-111.111111111111,4,2,1,60,0,0
52245,535.714285714286,4,2,1,60,1,0
52512,515.021459227468,4,2,1,60,1,0
52769,515.021459227468,4,2,1,60,1,0
53026,-111.111111111111,4,2,1,60,0,0
53284,493.827160493827,4,2,1,60,1,0
54271,444.444444444444,4,2,1,60,1,0
54271,-125,4,2,1,60,0,0
55604,428.571428571429,4,2,1,60,1,0
56032,413.793103448276,4,2,1,60,1,0
56032,-125,4,2,1,60,0,0
57687,394.736842105263,4,2,1,60,1,0
57687,-120.481927710843,4,2,1,60,0,0
59265,382.165605095541,4,2,1,60,1,0
59265,-117.647058823529,4,2,1,60,0,0
61940,370.37037037037,4,2,1,60,1,0
62310,359.281437125748,4,2,1,60,1,0
62310,-117.647058823529,4,2,1,60,0,0
63747,-117.647058823529,4,2,1,60,0,0
64824,337.078651685393,4,2,1,60,1,0
65161,337.078651685393,4,2,1,60,1,0
65161,-117.647058823529,4,2,1,60,0,0
66509,329.67032967033,4,2,1,60,1,0
66509,-111.111111111111,4,2,1,60,0,0
67498,315.789473684211,4,2,1,60,1,0
67813,315.789473684211,4,2,1,60,1,0
67813,-111.111111111111,4,2,1,60,0,0
68286,-100,4,2,1,60,0,0
68444,-111.111111111111,4,2,1,60,0,0
68918,-100,4,2,1,60,0,0
69076,309.278350515464,4,2,1,60,1,0
69076,-111.111111111111,4,2,1,60,0,0
70158,-100,4,2,1,60,0,0
70313,303.030303030303,4,2,1,60,1,0
70313,-111.111111111111,4,2,1,60,0,0
70767,-100,4,2,1,60,0,0
70919,-111.111111111111,4,2,1,60,0,0
71525,291.26213592233,4,2,1,60,1,0
71525,-111.111111111111,4,2,1,60,0,0
72544,-100,4,2,1,60,0,0
72690,-111.111111111111,4,2,1,60,0,0
73126,-100,4,2,1,60,0,0
73272,-111.111111111111,4,2,1,60,0,0
73855,284.36018957346,4,2,1,60,1,0
73855,-111.111111111111,4,2,1,60,0,0
74992,281.69014084507,4,2,1,60,1,0
74992,-111.111111111111,4,2,1,60,0,0
75414,-100,4,2,1,60,0,0
75555,-111.111111111111,4,2,1,60,0,0
76118,276.497695852535,4,2,1,52,1,0
76118,-125,4,2,1,52,0,0
76670,271.493212669683,4,2,1,52,1,0
77212,271.493212669683,4,2,1,52,1,0
77212,-125,4,2,1,52,0,0
78297,260.869565217391,4,2,1,52,1,0
78297,-125,4,2,1,52,0,0
84557,-133.333333333333,4,2,1,55,0,0
88731,-125,4,2,1,58,0,0
89775,-117.647058823529,4,2,1,60,0,0
90818,-111.111111111111,4,2,1,62,0,0
91862,-105.263157894737,4,2,1,65,0,0
92905,-117.647058823529,4,2,1,50,0,0
97079,288.461538461538,4,2,1,60,1,0
97079,-166.666666666667,4,2,1,60,0,0
97367,302.267002518892,4,2,1,60,1,0
98273,510.63829787234,4,2,1,60,1,0
98273,-142.857142857143,4,2,1,60,0,0
98783,591.133004926108,4,2,1,60,1,0
100556,394.736842105263,4,2,1,60,1,0
102134,372.670807453416,4,2,1,60,1,0
103624,370.37037037037,4,2,1,60,1,0
105105,368.098159509202,4,2,1,60,1,0
106577,370.37037037037,4,2,1,60,1,0
109539,368.098159509202,4,2,1,60,1,0
112483,365.853658536585,4,2,1,52,1,0
112483,-117.647058823529,4,2,1,52,0,0
113214,384.615384615385,4,2,1,52,1,0
113214,-117.647058823529,4,2,1,52,0,0
113598,-117.647058823529,4,2,1,52,0,0
113983,375,4,2,1,52,1,0
113983,-117.647058823529,4,2,1,52,0,0
115483,377.358490566038,4,2,1,52,1,0
115483,-117.647058823529,4,2,1,52,0,0
116992,379.746835443038,4,2,1,52,1,0
116992,-117.647058823529,4,2,1,52,0,0
118510,377.358490566038,4,2,1,52,1,0
118510,-117.647058823529,4,2,1,52,0,0
120019,375,4,2,1,52,1,0
120019,-117.647058823529,4,2,1,52,0,0
123019,370.37037037037,4,2,1,52,1,0
123019,-117.647058823529,4,2,1,52,0,0
124500,-117.647058823529,4,2,1,57,0,0
125981,361.44578313253,4,2,1,57,1,0
125981,-117.647058823529,4,2,1,57,0,0
126703,370.37037037037,4,2,1,57,1,0
126703,-117.647058823529,4,2,1,57,0,0
127443,357.142857142857,4,2,1,57,1,0
127443,-117.647058823529,4,2,1,57,0,0
128871,352.941176470588,4,2,1,57,1,0
128871,-117.647058823529,4,2,1,57,0,0
130282,348.837209302326,4,2,1,57,1,0
130282,-117.647058823529,4,2,1,57,0,0
130979,333.333333333333,4,2,1,57,1,0
131312,-117.647058823529,4,2,1,57,0,0
131645,329.67032967033,4,2,1,57,1,0
131645,-117.647058823529,4,2,1,57,0,0
132963,307.692307692308,4,2,1,57,1,0
132963,-117.647058823529,4,2,1,57,0,0
133578,295.566502463054,4,2,1,57,1,0
134169,297.029702970297,4,2,1,57,1,0
134763,287.081339712919,4,2,1,57,1,0
135337,266.666666666667,4,2,1,70,1,1
143870,-100,4,2,1,70,0,0
144137,-117.647058823529,4,2,1,45,0,0
152403,-92.5925925925926,4,2,1,70,0,1
154537,255.31914893617,4,2,1,70,1,1
154537,-92.5925925925926,4,2,1,70,0,1
155558,244.897959183673,4,2,1,70,1,1
155558,-92.5925925925926,4,2,1,70,0,1
156537,241.935483870968,4,2,1,70,1,1
156537,-92.5925925925926,4,2,1,70,0,1
157504,240,4,2,1,70,1,1
157504,-92.5925925925926,4,2,1,70,0,1
158464,235.294117647059,4,2,1,70,1,1
158464,-92.5925925925926,4,2,1,70,0,1
160111,-92.5925925925926,4,2,1,70,0,0
160346,230.769230769231,4,2,1,77,1,1
160346,-92.5925925925926,4,2,1,77,0,1
161269,226.415094339623,4,2,1,77,1,1
161269,-92.5925925925926,4,2,1,77,0,1
162174,212.765957446809,4,2,1,77,1,1
162174,-92.5925925925926,4,2,1,77,0,1
163025,210.526315789474,4,2,1,77,1,1
163025,-92.5925925925926,4,2,1,77,0,1
163867,209.79020979021,4,2,1,77,1,1
163867,-92.5925925925926,4,2,1,77,0,1
164706,200,4,2,1,77,1,1
164706,-92.5925925925926,4,2,1,77,0,1
165506,189.274447949527,4,2,1,77,1,1
165506,-92.5925925925926,4,2,1,77,0,1
166263,-86.9565217391304,4,2,1,77,0,1
166641,-86.9565217391304,4,2,1,77,0,0
167020,294.117647058824,4,2,1,60,1,0
167902,322.58064516129,4,2,1,60,1,0
168869,588.235294117647,4,2,1,60,1,0
169163,555.555555555556,4,2,1,60,1,0
169440,571.428571428571,4,2,1,60,1,0
170011,612.244897959184,4,2,1,60,1,0
170623,689.655172413793,4,2,1,60,1,0
171312,495.867768595041,4,2,1,60,1,0

[Colours]
Combo1 : 230,179,60
Combo2 : 165,97,97
Combo3 : 175,167,154
Combo4 : 227,165,96
Combo5 : 172,170,136
SliderBorder : 170,150,150
SliderTrackOverride : 33,20,20

[HitObjects]
85,96,25406,6,0,P|156:85|208:88,1,87.5,0|0,0:0|0:0,0:0:0:0:
249,163,27158,2,0,L|353:172,1,87.5,0|0,0:0|0:0,0:0:0:0:
128,188,28737,1,0,0:0:0:0:
132,276,29491,1,0,0:0:0:0:
128,188,30246,1,0,0:0:0:0:
224,209,31617,5,0,0:0:0:0:
194,295,32339,1,0,0:0:0:0:
224,209,33062,1,0,0:0:0:0:
315,258,34425,5,0,0:0:0:0:
246,324,35118,1,0,0:0:0:0:
315,258,35812,1,0,0:0:0:0:
339,355,37109,6,0,P|389:368|436:370,1,87.5,2|0,0:3|0:0,0:0:0:0:
275,264,38288,2,0,L|182:269,1,87.5,0|0,0:0|0:0,0:0:0:0:
96,146,39420,1,0,0:0:0:0:
69,237,39928,1,0,0:0:0:0:
96,146,40436,1,0,0:0:0:0:
32,72,40894,1,0,0:0:0:0:
189,122,41352,22,0,L|299:117,1,87.5
345,211,42197,2,0,P|389:225|464:225,1,87.5,0|0,0:0|0:0,0:0:0:0:
441,19,43042,2,0,P|415:105|412:158,1,122.499996261597,0|2,0:0|0:1,0:0:0:0:
412,137,44570,6,0,L|305:131,1,87.5,2|0,0:3|0:0,0:0:0:0:
236,59,45314,2,0,P|175:46|131:51,1,87.5,0|0,0:0|0:0,0:0:0:0:
81,159,46002,1,0,0:0:0:0:
178,180,46340,1,0,0:0:0:0:
81,159,46679,1,0,0:0:0:0:
113,248,47357,5,0,0:0:0:0:
201,282,47683,1,0,0:0:0:0:
113,248,48009,1,0,0:0:0:0:
125,341,48643,5,0,0:0:0:0:
211,384,48969,1,0,0:0:0:0:
125,341,49295,1,0,0:0:0:0:
245,265,49929,22,0,P|312:271|348:282,1,87.5,2|0,0:3|0:0,0:0:0:0:
443,177,50529,2,0,L|325:191,1,87.5,0|0,0:0|0:0,0:0:0:0:
407,72,51129,1,0,0:0:0:0:
98,51,51416,6,0,B|76:88|76:88|63:153,1,87.5,0|0,3:0|0:0,0:0:0:0:
224,365,51978,2,0,L|215:261,1,78.7499975967408,0|0,3:0|0:0,0:0:0:0:
113,43,52512,6,0,B|70:32|70:32|-11:35,1,87.5,0|0,3:0|0:0,0:0:0:0:
226,271,53026,2,0,L|327:261,1,78.7499975967408,0|0,3:0|0:0,0:0:0:0:
127,33,53530,6,0,B|90:57|90:57|59:96,2,87.5,0|0|0,3:0|3:0|3:0,0:0:0:0:
300,189,54271,22,0,L|470:202,1,140,4|2,0:0|0:0,0:0:0:0:
439,199,54937,1,2,0:0:0:0:
245,112,55159,2,0,B|209:115|209:115|148:137,1,70,8|2,0:0|0:0,0:0:0:0:
100,286,55604,1,2,0:0:0:0:
41,191,55818,1,2,0:0:0:0:
41,191,55925,1,0,0:0:0:0:
41,191,56032,6,0,L|126:194,1,70,2|2,0:0|0:0,0:0:0:0:
196,360,56445,1,2,0:0:0:0:
108,293,56652,1,2,0:0:0:0:
108,293,56756,1,0,0:0:0:0:
108,293,56859,2,0,B|70:295|70:295|30:305,1,70,8|2,0:0|0:0,0:0:0:0:
212,186,57273,1,2,0:0:0:0:
257,288,57480,1,2,0:0:0:0:
257,288,57583,1,0,0:0:0:0:
257,288,57687,6,0,L|335:294,1,72.6250010527611,2|2,0:0|0:0,0:0:0:0:
428,198,58081,2,0,L|341:204,1,72.6250010527611,2|2,0:0|0:0,0:0:0:0:
203,103,58476,1,8,0:0:0:0:
225,193,58673,1,2,0:0:0:0:
244,23,58871,1,2,0:0:0:0:
133,166,59068,1,2,0:0:0:0:
325,72,59265,6,0,B|364:73|364:73|410:83,1,74.3750014185906,2|2,0:0|0:0,0:0:0:0:
308,235,59647,2,0,B|341:251|341:251|389:291,1,74.3750014185906,2|2,0:0|0:0,0:0:0:0:
509,151,60029,2,0,L|335:169,1,148.750002837181,8|2,0:0|0:1,0:0:0:0:
361,166,60793,22,0,B|322:162|322:162|266:138,1,74.3750014185906,2|2,0:0|0:0,0:0:0:0:
227,5,61175,2,0,L|222:97,1,74.3750014185906,2|2,0:0|0:0,0:0:0:0:
211,267,61557,1,8,0:0:0:0:
143,193,61749,1,2,0:0:0:0:
308,235,61940,1,2,0:0:0:0:
235,171,62125,1,2,0:0:0:0:
235,171,62217,1,0,0:0:0:0:
235,171,62310,6,0,B|269:153|269:153|308:142,1,74.3750014185906,2|2,0:0|0:0,0:0:0:0:
492,165,62669,1,2,0:0:0:0:
400,114,62848,1,2,0:0:0:0:
400,114,62938,1,0,0:0:0:0:
400,114,63028,2,0,L|402:198,2,74.3750014185906,8|2|2,0:0|0:0|0:0,0:0:0:0:
276,33,63567,1,2,0:0:0:0:
267,37,63657,1,0,0:0:0:0:
258,43,63747,6,0,B|205:53|205:53|170:42|170:42|99:52,1,148.750002837181,2|2,0:0|0:0,0:0:0:0:
43,120,64286,1,2,0:0:0:0:
218,201,64465,1,8,0:0:0:0:
119,190,64645,1,2,0:0:0:0:
157,325,64824,1,2,0:0:0:0:
179,107,64992,1,2,0:0:0:0:
356,242,65161,6,0,L|450:246,1,74.3750014185906,2|2,0:0|0:0,0:0:0:0:
296,129,65498,2,0,L|386:120,1,74.3750014185906,2|2,0:0|0:0,0:0:0:0:
399,326,65835,2,0,P|334:285|245:265,1,148.750002837181,8|2,0:0|0:1,0:0:0:0:
265,266,66509,22,0,B|227:275|227:275|160:273,1,78.7499975967408,2|2,0:0|0:0,0:0:0:0:
75,216,66838,1,2,0:0:0:0:
75,216,67003,1,2,0:0:0:0:
296,129,67168,1,8,0:0:0:0:
212,186,67333,1,2,0:0:0:0:
239,38,67498,1,2,0:0:0:0:
155,101,67655,1,2,0:0:0:0:
155,101,67734,1,0,0:0:0:0:
155,101,67813,6,0,L|66:94,1,78.7499975967408,2|2,0:0|0:0,0:0:0:0:
239,38,68128,1,2,0:0:0:0:
304,137,68286,1,2,0:0:0:0:
304,137,68365,1,0,0:0:0:0:
304,137,68444,2,0,B|344:128|344:128|404:125,1,78.7499975967408,8|2,0:0|0:0,0:0:0:0:
499,222,68760,1,2,0:0:0:0:
363,218,68918,1,2,0:0:0:0:
354,221,68997,1,0,0:0:0:0:
346,226,69076,6,0,L|340:317,1,78.7499975967408,2|2,0:0|0:0,0:0:0:0:
230,190,69385,2,0,B|193:174|193:174|117:163,1,78.7499975967408,2|2,0:0|0:0,0:0:0:0:
11,311,69694,1,10,0:0:0:0:
110,306,69849,1,2,0:0:0:0:
0,325,70003,1,2,0:0:0:0:
54,213,70158,1,2,0:0:0:0:
54,213,70235,1,0,0:0:0:0:
54,213,70313,6,0,L|61:126,1,78.7499975967408,2|2,0:0|0:0,0:0:0:0:
200,15,70616,1,2,0:0:0:0:
256,108,70767,1,2,0:0:0:0:
256,108,70843,1,0,0:0:0:0:
256,108,70919,2,0,P|333:89|444:89,1,157.499995193482,8|2,0:0|0:1,0:0:0:0:
410,85,71525,22,0,B|398:121|398:121|400:171,1,78.7499975967408,2|2,0:0|0:0,0:0:0:0:
512,277,71816,2,0,B|476:261|476:261|411:250,1,78.7499975967408,2|2,0:0|0:0,0:0:0:0:
279,341,72107,1,8,0:0:0:0:
340,240,72253,1,2,0:0:0:0:
391,345,72398,1,2,0:0:0:0:
252,260,72544,1,2,0:0:0:0:
252,260,72617,1,0,0:0:0:0:
252,260,72690,6,0,B|214:270|214:270|168:274,1,78.7499975967408,2|2,0:0|0:0,0:0:0:0:
0,203,72981,1,2,0:0:0:0:
80,313,73126,1,2,0:0:0:0:
80,313,73199,1,0,0:0:0:0:
80,313,73272,2,0,L|91:222,1,78.7499975967408,8|2,0:0|0:0,0:0:0:0:
52,50,73563,1,2,0:0:0:0:
124,134,73709,1,2,0:0:0:0:
124,134,73782,1,0,0:0:0:0:
124,134,73855,6,0,B|162:120|162:120|220:115,1,78.7499975967408,2|2,0:0|0:0,0:0:0:0:
318,160,74139,2,0,L|431:167,1,78.7499975967408,2|2,0:0|0:0,0:0:0:0:
261,43,74423,2,0,B|223:31|223:31|156:27,2,78.7499975967408,8|2|2,0:0|0:0|0:0,0:0:0:0:
325,167,74850,1,2,0:0:0:0:
325,167,74921,1,0,0:0:0:0:
325,167,74992,5,2,0:0:0:0:
387,101,75132,1,2,0:0:0:0:
230,132,75273,1,2,0:0:0:0:
334,259,75414,1,2,0:0:0:0:
334,259,75484,1,0,0:0:0:0:
334,259,75555,2,0,P|257:244|169:238,1,157.499995193482,8|2,0:0|0:1,0:0:0:0:
178,238,76118,22,0,L|185:315,1,70,2|2,0:0|0:0,0:0:0:0:
82,259,76394,2,0,L|87:175,1,70,2|2,0:0|0:0,0:0:0:0:
135,33,76670,1,8,0:0:0:0:
44,66,76805,1,2,0:0:0:0:
147,44,76941,1,2,0:0:0:0:
158,55,77212,6,0,L|252:59,1,70,2|2,0:0|0:0,0:0:0:0:
334,22,77483,1,2,0:0:0:0:
346,35,77754,5,8,0:0:0:0:
315,133,77890,1,0,0:0:0:0:
411,115,78026,1,2,0:0:0:0:
422,128,78297,6,0,L|437:277,1,140,2|2,0:0|0:0,0:0:0:0:
488,363,78688,1,2,0:0:0:0:
290,280,78818,2,0,B|293:243|293:243|312:186,1,70,8|2,0:0|0:0,0:0:0:0:
433,143,79079,1,2,0:0:0:0:
447,281,79210,1,2,0:0:0:0:
298,123,79340,22,0,B|262:114|262:114|200:112,1,70,2|2,0:0|0:0,0:0:0:0:
118,212,79601,2,0,L|208:206,1,70,2|2,0:0|0:0,0:0:0:0:
14,265,79862,2,0,B|0:212|0:212|8:117,1,140,8|2,0:0|0:1,0:0:0:0:
7,127,80383,6,0,B|42:138|42:138|95:141,1,70,2|2,0:0|0:0,0:0:0:0:
188,52,80644,2,0,L|285:46,1,70,2|2,0:0|0:0,0:0:0:0:
415,161,80905,1,8,0:0:0:0:
379,62,81036,1,2,0:0:0:0:
317,146,81166,1,2,0:0:0:0:
306,161,81427,6,0,B|319:194|319:194|328:251,1,70,2|2,0:0|0:0,0:0:0:0:
302,341,81688,1,2,0:0:0:0:
315,353,81949,5,8,0:0:0:0:
219,340,82079,1,2,0:0:0:0:
141,378,82210,1,2,0:0:0:0:
126,366,82470,22,0,B|119:305|119:305|125:287|125:287|118:200,1,140,2|2,0:0|0:0,0:0:0:0:
72,138,82862,1,2,0:0:0:0:
230,95,82992,2,0,B|327:98,2,70,8|2|2,0:0|0:0|0:0,0:0:0:0:
128,50,83383,1,2,0:0:0:0:
203,198,83514,6,0,B|237:208|237:208|297:216,1,70,2|2,0:0|0:0,0:0:0:0:
366,161,83775,2,0,L|455:150,1,70,2|2,0:0|0:0,0:0:0:0:
300,302,84036,5,8,0:0:0:0:
285,204,84166,1,2,0:0:0:0:
222,357,84297,5,8,0:0:0:0:
385,342,84427,1,2,0:0:0:0:
185,269,84557,22,0,P|122:278|34:306,1,131.25000500679,6|2,0:0|0:0,0:0:0:0:
57,296,84949,1,0,0:0:0:0:
155,179,85079,2,0,L|163:94,1,65.6250025033952,2|0,0:0|0:0,0:0:0:0:
63,24,85340,2,0,P|72:78|83:105,1,65.6250025033952,2|0,0:0|0:0,0:0:0:0:
255,64,85601,6,0,P|322:66|406:85,1,131.25000500679,2|2,0:0|0:0,0:0:0:0:
441,181,85992,1,0,0:0:0:0:
221,189,86123,2,0,L|152:197,2,65.6250025033952,2|0|2,0:0|0:0|0:0,0:0:0:0:
319,117,86514,1,0,0:0:0:0:
395,251,86644,6,0,P|408:315|411:387,1,131.25000500679,2|2,0:0|0:0,0:0:0:0:
456,168,87036,1,0,0:0:0:0:
314,326,87166,2,0,L|219:329,1,65.6250025033952,2|0,0:0|0:0,0:0:0:0:
167,192,87427,2,0,P|229:202|250:209,1,65.6250025033952,2|0,0:0|0:0,0:0:0:0:
88,278,87688,6,0,L|79:131,1,131.25000500679,2|2,0:0|0:0,0:0:0:0:
79,146,88079,1,0,0:0:0:0:
32,353,88210,2,0,P|82:369|115:368,1,65.6250025033952,2|0,0:0|0:0,0:0:0:0:
226,303,88470,1,2,0:0:0:0:
226,303,88601,1,0,0:0:0:0:
163,100,88731,22,0,P|235:83|331:80,1,140,2|2,0:0|0:0,0:0:0:0:
403,124,89123,1,0,0:0:0:0:
217,208,89253,2,0,L|120:196,1,70,2|0,0:0|0:0,0:0:0:0:
348,195,89514,2,0,B|358:228|358:228|364:290,1,70,2|0,0:0|0:0,0:0:0:0:
321,82,89775,6,0,P|359:44|456:49,1,148.750002837181,2|2,0:0|0:0,0:0:0:0:
449,44,90166,1,0,0:0:0:0:
236,107,90296,2,0,L|146:100,1,74.3750014185906,2|0,0:0|0:0,0:0:0:0:
306,173,90557,1,2,0:0:0:0:
249,24,90688,1,0,0:0:0:0:
112,169,90818,6,0,P|95:248|90:329,1,157.499995193482,2|2,0:0|0:0,0:0:0:0:
89,324,91210,1,0,0:0:0:0:
235,191,91340,2,0,L|331:184,1,78.7499975967408,2|0,0:0|0:0,0:0:0:0:
466,244,91601,1,2,0:0:0:0:
466,244,91731,1,0,0:0:0:0:
250,283,91862,6,0,P|210:278|167:259,1,83.1249977803231,2|0,0:0|0:0,0:0:0:0:
113,68,92123,2,0,L|121:179,1,83.1249977803231,2|0,0:0|0:0,0:0:0:0:
176,359,92383,1,2,0:0:0:0:
235,191,92514,1,0,0:0:0:0:
87,309,92644,2,0,B|47:320|47:320|-6:313,1,83.1249977803231,2|0,0:0|0:0,0:0:0:0:
132,75,92905,21,6,0:0:0:0:
150,78,92970,1,0,0:0:0:0:
168,81,93036,1,0,0:0:0:0:
186,84,93101,1,0,0:0:0:0:
204,87,93166,2,0,L|274:77,3,37.1875007092953,2|0|0|0,0:0|0:0|0:0|0:0,0:0:0:0:
166,166,93427,2,0,L|110:174,3,37.1875007092953,2|0|0|0,0:0|0:0|0:0|0:0,0:0:0:0:
251,202,93688,2,0,L|321:192,3,37.1875007092953,2|0|0|0,0:0|0:0|0:0|0:0,0:0:0:0:
176,259,93949,5,2,0:0:0:0:
175,277,94014,1,0,0:0:0:0:
178,295,94079,1,0,0:0:0:0:
187,310,94144,1,0,0:0:0:0:
201,322,94210,2,0,L|259:328,3,37.1875007092953,2|0|0|0,0:0|0:0|0:0|0:0,0:0:0:0:
316,278,94470,1,2,0:0:0:0:
334,275,94536,1,0,0:0:0:0:
352,277,94601,1,0,0:0:0:0:
368,285,94666,1,0,0:0:0:0:
381,297,94731,1,2,0:0:0:0:
408,153,94992,5,6,0:0:0:0:
403,135,95057,1,0,0:0:0:0:
398,116,95123,1,0,0:0:0:0:
393,97,95188,1,0,0:0:0:0:
389,78,95253,2,0,L|395:20,3,37.1875007092953,2|0|0|0,0:0|0:0|0:0|0:0,0:0:0:0:
315,129,95514,2,0,L|311:173,3,37.1875007092953,2|0|0|0,0:0|0:0|0:0|0:0,0:0:0:0:
276,45,95775,2,0,L|282:-13,3,37.1875007092953,2|0|0|0,0:0|0:0|0:0|0:0,0:0:0:0:
223,123,96036,5,2,0:0:0:0:
205,129,96101,1,0,0:0:0:0:
186,128,96166,1,0,0:0:0:0:
168,122,96231,1,0,0:0:0:0:
155,108,96296,2,0,L|150:56,3,37.1875007092953,2|0|0|0,0:0|0:0|0:0|0:0,0:0:0:0:
77,158,96557,1,2,0:0:0:0:
69,175,96623,1,0,0:0:0:0:
66,193,96688,1,0,0:0:0:0:
66,211,96753,1,0,0:0:0:0:
70,228,96818,2,0,L|159:232,1,74.3750014185906,2|0,0:0|0:0,0:0:0:0:
365,308,97079,22,0,P|307:291|245:287,1,104.999996795654,6|2,0:0|0:1,0:0:0:0:
448,176,98273,6,0,P|388:183|314:207,1,122.499996261597,6|2,0:0|0:1,0:0:0:0:
397,200,112483,6,0,L|484:203,2,74.3750014185906,2|0|2,0:0|0:0|0:0,0:0:0:0:
292,156,113031,1,0,0:0:0:0:
268,316,113214,2,0,P|228:327|186:330,1,74.3750014185906,10|0,0:1|0:0,0:0:0:0:
78,279,113598,2,0,L|24:276,2,49.5833342790604,2|0|0,0:0|0:0|0:0,0:0:0:0:
186,227,113983,6,0,P|200:178|198:144,1,74.3750014185906,2|0,0:0|0:0,0:0:0:0:
98,87,114358,2,0,L|37:94,2,49.5833342790604,2|0|0,0:0|0:0|0:0,0:0:0:0:
211,28,114733,2,0,L|299:35,1,74.3750014185906,10|0,0:1|0:0,0:0:0:0:
394,69,115108,2,0,P|428:54|463:47,2,49.5833342790604,2|0|0,0:0|0:0|0:0,0:0:0:0:
292,229,115483,22,0,L|299:315,2,74.3750014185906,2|0|2,0:0|0:0|0:0,0:0:0:0:
282,121,116049,1,0,0:0:0:0:
385,260,116237,2,0,P|428:267|478:260,1,74.3750014185906,10|0,0:1|0:0,0:0:0:0:
199,183,116615,2,0,P|159:197|126:222,1,74.3750014185906,2|0,0:0|0:0,0:0:0:0:
310,356,116992,5,2,0:0:0:0:
300,214,117181,1,0,0:0:0:0:
193,299,117371,1,2,0:0:0:0:
370,282,117561,1,0,0:0:0:0:
236,113,117751,6,0,P|247:58|252:43,1,49.5833342790604,10|0,0:1|0:0,0:0:0:0:
152,160,118004,2,0,P|157:94|180:5,1,148.750002837181,10|0,0:1|0:0,0:0:0:0:
120,245,118510,6,0,L|28:254,1,74.3750014185906,6|0,0:0|0:0,0:0:0:0:
230,200,118887,2,0,P|247:242|251:287,1,74.3750014185906,2|0,0:0|0:0,0:0:0:0:
110,90,119264,1,10,0:1:0:0:
135,234,119453,1,0,0:0:0:0:
225,96,119642,2,0,L|229:40,2,49.5833342790604,2|0|0,0:0|0:0|0:0,0:0:0:0:
314,151,120019,22,0,B|349:142|349:142|396:140,1,74.3750014185906,2|0,0:0|0:0,0:0:0:0:
479,229,120394,2,0,L|535:234,2,49.5833342790604,2|0|0,0:0|0:0|0:0,0:0:0:0:
299,249,120769,2,0,P|282:307|280:338,1,74.3750014185906,10|0,0:1|0:0,0:0:0:0:
208,211,121144,2,0,L|200:154,2,49.5833342790604,2|0|0,0:0|0:0|0:0,0:0:0:0:
91,291,121519,6,0,P|58:284|5:280,2,74.3750014185906,2|0|2,0:0|0:0|0:0,0:0:0:0:
165,364,122081,1,0,0:0:0:0:
44,189,122269,2,0,L|39:92,1,74.3750014185906,10|0,0:1|0:0,0:0:0:0:
153,22,122644,2,0,L|146:115,1,74.3750014185906,2|0,0:0|0:0,0:0:0:0:
163,263,123019,5,2,0:0:0:0:
63,194,123204,1,0,0:0:0:0:
188,179,123389,1,2,0:0:0:0:
36,277,123574,1,0,0:0:0:0:
252,297,123759,6,0,P|265:264|272:235,1,49.5833342790604,10|0,0:1|0:0,0:0:0:0:
308,364,124006,2,0,P|335:297|352:206,1,148.750002837181,10|0,0:1|0:0,0:0:0:0:
196,101,124500,22,0,L|114:96,2,74.3750014185906,6|0|0,0:0|0:0|0:0,0:0:0:0:
291,80,125056,1,0,0:0:0:0:
350,222,125241,1,10,0:1:0:0:
441,171,125426,1,0,0:0:0:0:
443,277,125611,2,0,L|447:335,2,49.5833342790604,2|0|0,0:0|0:0|0:0,0:0:0:0:
339,206,125981,6,0,P|299:201|242:201,1,74.3750014185906,2|0,0:0|0:0,0:0:0:0:
179,262,126342,2,0,L|173:313,2,49.5833342790604,2|0|0,0:0|0:0|0:0,0:0:0:0:
166,110,126703,1,10,0:1:0:0:
101,191,126888,1,0,0:0:0:0:
19,123,127073,2,0,L|14:70,2,49.5833342790604,2|0|0,0:0|0:0|0:0,0:0:0:0:
46,274,127443,6,0,L|40:356,2,74.3750014185906,2|0|2,0:0|0:0|0:0,0:0:0:0:
101,191,127978,1,0,0:0:0:0:
201,308,128157,2,0,P|252:323|284:324,1,74.3750014185906,10|0,0:1|0:0,0:0:0:0:
395,279,128514,2,0,L|459:272,2,49.5833342790604,2|0|0,0:0|0:0|0:0,0:0:0:0:
260,230,128871,5,2,0:0:0:0:
350,182,129047,1,0,0:0:0:0:
258,127,129223,2,0,P|225:123|185:123,2,49.5833342790604,2|0|0,0:0|0:0|0:0,0:0:0:0:
414,101,129576,2,0,L|485:93,2,49.5833342790604,10|0|0,0:1|0:0|0:0,0:0:0:0:
377,22,129929,2,0,L|439:13,2,49.5833342790604,2|0|0,0:0|0:0|0:0,0:0:0:0:
360,194,130282,22,0,P|400:209|452:212,1,74.3750014185906,2|0,0:0|0:0,0:0:0:0:
244,139,130630,2,0,P|228:179|226:226,1,74.3750014185906,2|0,0:0|0:0,0:0:0:0:
330,351,130979,1,10,0:1:0:0:
309,256,131145,1,0,0:0:0:0:
231,328,131312,2,0,L|226:381,2,49.5833342790604,2|0|0,0:0|0:0|0:0,0:0:0:0:
203,206,131645,5,2,0:0:0:0:
112,264,131809,1,0,0:0:0:0:
110,156,131974,2,0,L|114:103,2,49.5833342790604,2|0|0,0:0|0:0|0:0,0:0:0:0:
26,295,132304,5,10,0:1:0:0:
122,279,132469,1,0,0:0:0:0:
214,310,132634,2,0,L|216:368,2,49.5833342790604,2|0|0,0:0|0:0|0:0,0:0:0:0:
230,176,132963,6,0,P|264:161|315:152,1,74.3750014185906,2|0,0:0|0:0,0:0:0:0:
456,197,133270,2,0,L|374:188,1,74.3750014185906,2|0,0:0|0:0,0:0:0:0:
223,93,133578,21,10,0:1:0:0:
297,237,133725,1,0,0:0:0:0:
381,98,133873,1,0,0:0:0:0:
395,89,134169,5,8,0:0:0:0:
230,176,134317,1,2,0:0:0:0:
392,262,134466,1,0,0:0:0:0:
407,273,134763,5,2,0:0:0:0:
210,286,134906,1,2,0:0:0:0:
195,302,135337,22,0,B|156:315|156:315|90:311,1,87.5,12|2,0:0|0:0,0:0:0:0:
243,163,135603,2,0,P|307:170|364:193,1,87.5,8|2,0:0|0:0,0:0:0:0:
448,328,135870,1,8,0:0:0:0:
472,212,136003,1,2,0:0:0:0:
432,340,136137,2,0,L|312:348,1,87.5,8|2,0:0|0:0,0:0:0:0:
156,220,136403,5,8,0:0:0:0:
284,256,136537,1,2,0:0:0:0:
192,352,136670,2,0,B|148:348|148:348|84:312,1,87.5,8|2,0:0|0:0,0:0:0:0:
64,140,136937,21,8,0:0:0:0:
40,256,137070,1,2,0:0:0:0:
76,128,137203,1,8,0:0:0:0:
156,220,137337,1,2,0:0:0:0:
156,220,137403,1,0,0:0:0:0:
156,220,137470,22,0,P|212:208|272:208,1,87.5,8|2,0:0|0:0,0:0:0:0:
336,344,137737,2,0,B|324:304|324:304|332:248,1,87.5,8|2,0:0|0:0,0:0:0:0:
472,144,138003,2,0,L|360:152,1,87.5,8|2,0:0|0:0,0:0:0:0:
296,12,138270,2,0,P|340:32|392:80,1,87.5,8|2,0:0|0:0,0:0:0:0:
148,111,138537,5,8,0:0:0:0:
203,29,138670,1,2,0:0:0:0:
289,204,138803,2,0,B|247:207|247:207|198:198,1,87.5,8|2,0:0|0:0,0:0:0:0:
115,330,139070,1,8,0:0:0:0:
136,335,139137,1,0,0:0:0:0:
156,342,139203,1,2,0:0:0:0:
177,347,139270,1,0,0:0:0:0:
197,353,139337,2,0,L|259:359,3,43.75,8|0|2|0,0:0|0:0|0:0|0:0,0:0:0:0:
314,310,139603,22,0,B|356:297|356:297|429:303,1,87.5,8|2,0:0|0:0,0:0:0:0:
277,191,139870,2,0,P|272:148|298:72,1,87.5,8|2,0:0|0:0,0:0:0:0:
493,125,140137,1,8,0:0:0:0:
359,150,140270,1,2,0:0:0:0:
407,19,140403,2,0,B|448:4|448:4|507:10,1,87.5,8|2,0:0|0:0,0:0:0:0:
389,254,140670,21,8,0:0:0:0:
371,132,140803,1,2,0:0:0:0:
379,271,140937,2,0,P|330:292|266:289,1,87.5,8|2,0:0|0:0,0:0:0:0:
177,118,141203,5,8,0:0:0:0:
160,242,141337,1,2,0:0:0:0:
277,191,141470,1,8,0:0:0:0:
99,170,141603,1,2,0:0:0:0:
90,180,141670,1,0,0:0:0:0:
84,192,141737,54,0,B|69:229|69:229|63:307,1,87.5,8|2,0:0|0:0,0:0:0:0:
186,104,142003,2,0,P|143:71|78:61,1,87.5,8|2,0:0|0:0,0:0:0:0:
291,181,142270,2,0,B|335:186|335:186|399:175,1,87.5,8|2,0:0|0:0,0:0:0:0:
174,247,142537,2,0,L|166:347,1,87.5,8|2,0:0|0:0,0:0:0:0:
341,280,142803,5,8,0:0:0:0:
216,177,142937,1,2,0:0:0:0:
293,351,143070,2,0,P|335:363|389:360,1,87.5,8|2,0:0|0:0,0:0:0:0:
472,168,143337,1,8,0:0:0:0:
451,173,143403,1,0,0:0:0:0:
429,169,143470,1,2,0:0:0:0:
410,156,143537,1,0,0:0:0:0:
397,138,143603,2,0,B|359:109|359:109|269:98,1,131.25,8|0,0:0|0:0,0:0:0:0:
170,124,143870,5,4,0:0:0:0:
170,124,144137,2,0,L|174:189,3,37.1875007092953,8|0|0|0,0:0|0:0|0:0|0:0,0:0:0:0:
84,180,144403,2,0,L|99:237,3,37.1875007092953,8|0|0|0,0:0|0:0|0:0|0:0,0:0:0:0:
24,274,144670,2,0,L|48:318,3,37.1875007092953,8|0|0|0,0:0|0:0|0:0|0:0,0:0:0:0:
106,378,144937,21,8,0:0:0:0:
124,377,145003,1,0,0:0:0:0:
142,376,145070,1,0,0:0:0:0:
160,375,145137,1,0,0:0:0:0:
178,374,145203,2,0,L|187:308,3,37.1875007092953,8|0|0|0,0:0|0:0|0:0|0:0,0:0:0:0:
271,327,145470,2,0,L|267:276,3,37.1875007092953,8|0|0|0,0:0|0:0|0:0|0:0,0:0:0:0:
357,259,145737,2,0,L|336:197,3,37.1875007092953,8|0|0|0,0:0|0:0|0:0|0:0,0:0:0:0:
255,181,146003,37,8,0:0:0:0:
249,163,146070,1,0,0:0:0:0:
249,144,146137,1,0,0:0:0:0:
255,126,146203,1,0,0:0:0:0:
268,112,146270,2,0,L|326:101,3,37.1875007092953,8|0|0|0,0:0|0:0|0:0|0:0,0:0:0:0:
398,125,146537,2,0,L|443:132,3,37.1875007092953,8|0|0|0,0:0|0:0|0:0|0:0,0:0:0:0:
378,38,146803,2,0,L|425:30,3,37.1875007092953,8|0|0|0,0:0|0:0|0:0|0:0,0:0:0:0:
288,18,147070,21,8,0:0:0:0:
269,22,147137,1,0,0:0:0:0:
251,26,147203,1,0,0:0:0:0:
232,30,147270,1,0,0:0:0:0:
213,34,147337,2,0,L|168:29,3,37.1875007092953,8|0|0|0,0:0|0:0|0:0|0:0,0:0:0:0:
156,111,147603,2,0,L|105:112,3,37.1875007092953,8|0|0|0,0:0|0:0|0:0|0:0,0:0:0:0:
125,200,147870,2,0,L|70:205,3,37.1875007092953,8|0|0|0,0:0|0:0|0:0|0:0,0:0:0:0:
219,184,148137,37,8,0:0:0:0:
227,200,148203,1,0,0:0:0:0:
232,217,148270,1,0,0:0:0:0:
233,235,148337,1,0,0:0:0:0:
233,253,148403,2,0,L|299:262,3,37.1875007092953,8|0|0|0,0:0|0:0|0:0|0:0,0:0:0:0:
148,292,148670,2,0,L|99:296,3,37.1875007092953,8|0|0|0,0:0|0:0|0:0|0:0,0:0:0:0:
228,342,148937,2,0,L|295:352,3,37.1875007092953,8|0|0|0,0:0|0:0|0:0|0:0,0:0:0:0:
344,304,149203,21,8,0:0:0:0:
361,298,149270,1,0,0:0:0:0:
379,297,149337,1,0,0:0:0:0:
396,300,149403,1,0,0:0:0:0:
413,307,149470,2,0,L|418:249,3,37.1875007092953,8|0|0|0,0:0|0:0|0:0|0:0,0:0:0:0:
350,208,149737,2,0,L|344:157,3,37.1875007092953,8|0|0|0,0:0|0:0|0:0|0:0,0:0:0:0:
418,118,150003,2,0,L|420:67,3,37.1875007092953,8|0|0|0,0:0|0:0|0:0|0:0,0:0:0:0:
328,59,150270,37,8,0:0:0:0:
312,69,150337,1,0,0:0:0:0:
294,74,150403,1,0,0:0:0:0:
275,76,150470,1,0,0:0:0:0:
256,72,150537,2,0,L|248:24,3,37.1875007092953,8|0|0|0,0:0|0:0|0:0|0:0,0:0:0:0:
237,157,150803,2,0,L|248:215,3,37.1875007092953,8|0|0|0,0:0|0:0|0:0|0:0,0:0:0:0:
166,97,151070,2,0,L|158:49,3,37.1875007092953,8|0|0|0,0:0|0:0|0:0|0:0,0:0:0:0:
152,195,151337,21,8,0:0:0:0:
151,212,151403,1,0,0:0:0:0:
154,230,151470,1,0,0:0:0:0:
164,247,151537,1,0,0:0:0:0:
176,261,151603,1,8,0:0:0:0:
183,278,151670,1,0,0:0:0:0:
185,297,151737,1,0,0:0:0:0:
180,314,151803,1,0,0:0:0:0:
172,331,151870,2,0,B|230:311|230:311|345:322,1,148.750002837181,8|10,0:0|0:1,0:0:0:0:
317,321,152403,6,0,B|364:340|364:340|426:337,1,94.500002307129,8|2,0:0|0:0,0:0:0:0:
328,188,152670,2,0,L|224:199,1,94.500002307129,8|2,0:0|0:0,0:0:0:0:
60,149,152937,1,8,0:0:0:0:
51,265,153070,1,2,0:0:0:0:
69,133,153203,2,0,B|109:107|109:107|183:97,1,94.500002307129,8|2,0:0|0:0,0:0:0:0:
301,265,153470,5,8,0:0:0:0:
213,176,153603,1,2,0:0:0:0:
336,142,153737,2,0,P|356:95|348:25,1,94.500002307129,8|2,0:0|0:0,0:0:0:0:
225,253,154003,21,8,0:0:0:0:
263,119,154137,1,2,0:0:0:0:
360,216,154270,1,8,0:0:0:0:
200,177,154403,1,2,0:0:0:0:
189,177,154470,1,0,0:0:0:0:
177,178,154537,22,0,B|132:184|132:184|68:214,1,94.500002307129,8|2,0:0|0:0,0:0:0:0:
157,373,154792,2,0,L|163:235,1,94.500002307129,8|2,0:0|0:0,0:0:0:0:
129,60,155047,2,0,P|86:47|32:42,2,94.500002307129,8|2|8,0:0|0:0|0:0,0:0:0:0:
263,119,155430,1,2,0:0:0:0:
275,114,155494,1,0,0:0:0:0:
288,107,155558,5,8,0:0:0:0:
312,217,155680,1,2,0:0:0:0:
394,140,155802,2,0,B|441:129|441:129|493:128,1,94.500002307129,8|2,0:0|0:0,0:0:0:0:
400,310,156047,2,0,L|335:303,3,47.2500011535645,8|0|2|0,0:0|0:0|0:0|0:0,0:0:0:0:
272,335,156292,2,0,L|203:344,3,47.2500011535645,8|0|2|0,0:0|0:0|0:0|0:0,0:0:0:0:
145,297,156537,22,0,P|128:242|145:180,1,94.500002307129,8|2,0:0|0:0,0:0:0:0:
285,102,156778,2,0,B|237:113|237:113|161:103,1,94.500002307129,8|2,0:0|0:0,0:0:0:0:
28,71,157020,1,8,0:0:0:0:
18,166,157141,1,2,0:0:0:0:
10,261,157262,2,0,L|21:366,1,94.500002307129,8|2,0:0|0:0,0:0:0:0:
212,231,157504,21,8,0:0:0:0:
305,282,157624,1,2,0:0:0:0:
216,335,157744,2,0,B|168:338|168:338|112:326,1,94.500002307129,8|2,0:0|0:0,0:0:0:0:
214,131,157984,5,8,0:0:0:0:
306,178,158104,1,2,0:0:0:0:
401,153,158224,2,0,P|462:157|507:178,1,94.500002307129,8|2,0:0|0:0,0:0:0:0:
438,340,158464,22,0,L|431:223,1,94.500002307129,8|2,0:0|0:0,0:0:0:0:
224,247,158699,2,0,B|269:267|269:267|333:265,1,94.500002307129,8|2,0:0|0:0,0:0:0:0:
197,121,158934,2,0,P|151:125|83:162,1,94.500002307129,8|2,0:0|0:0,0:0:0:0:
314,162,159169,2,0,B|325:117|325:117|316:42,1,94.500002307129,8|2,0:0|0:0,0:0:0:0:
133,228,159405,21,8,0:0:0:0:
45,215,159522,1,2,0:0:0:0:
16,129,159640,2,0,L|12:23,1,94.500002307129,8|2,0:0|0:0,0:0:0:0:
75,302,159875,2,0,L|67:358,3,47.2500011535645,8|0|2|0,0:0|0:0|0:0|0:0,0:0:0:0:
144,212,160111,2,0,P|176:199|208:193,3,47.2500011535645,8|0|2|0,0:0|0:0|0:0|0:0,0:0:0:0:
180,320,160346,6,0,B|225:339|225:339|292:334,1,94.500002307129,12|2,0:0|0:0,0:0:0:0:
394,218,160576,2,0,P|457:224|510:247,1,94.500002307129,8|2,0:0|0:0,0:0:0:0:
302,243,160807,1,8,0:0:0:0:
289,161,160922,1,2,0:0:0:0:
274,79,161038,2,0,B|231:61|231:61|156:51,1,94.500002307129,8|2,0:0|0:0,0:0:0:0:
108,230,161269,21,8,0:0:0:0:
188,195,161382,1,2,0:0:0:0:
113,139,161495,2,0,B|65:142|65:142|0:166,1,94.500002307129,8|2,0:0|0:0,0:0:0:0:
180,323,161721,21,8,0:0:0:0:
254,272,161835,1,2,0:0:0:0:
343,260,161948,2,0,L|446:270,1,94.500002307129,8|2,0:0|0:0,0:0:0:0:
377,42,162174,6,0,B|331:52|331:52|277:87,1,94.500002307129,8|2,0:0|0:0,0:0:0:0:
224,254,162386,2,0,P|232:200|220:146,1,94.500002307129,8|2,0:0|0:0,0:0:0:0:
96,56,162599,2,0,B|143:67|143:67|211:68,1,94.500002307129,8|2,0:0|0:0,0:0:0:0:
362,56,162812,1,8,0:0:0:0:
292,106,162918,1,2,0:0:0:0:
225,161,163025,22,0,B|98:174,1,94.500002307129,8|2,0:0|0:0,0:0:0:0:
343,260,163235,2,0,L|461:267,1,94.500002307129,8|2,0:0|0:0,0:0:0:0:
213,266,163446,2,0,L|205:341,3,47.2500011535645,8|0|2|0,0:0|0:0|0:0|0:0,0:0:0:0:
124,346,163656,2,0,L|117:277,3,47.2500011535645,8|0|2|0,0:0|0:0|0:0|0:0,0:0:0:0:
69,224,163867,22,0,B|26:202|26:202|-40:189,1,94.500002307129,8|2,0:0|0:0,0:0:0:0:
114,91,164076,2,0,L|235:80,1,94.500002307129,8|2,0:0|0:0,0:0:0:0:
412,93,164286,1,8,0:0:0:0:
337,133,164391,1,2,0:0:0:0:
298,211,164496,2,0,P|305:276|335:321,1,94.500002307129,8|2,0:0|0:0,0:0:0:0:
262,96,164706,5,8,0:0:0:0:
192,150,164806,1,2,0:0:0:0:
176,237,164906,2,0,L|183:350,1,94.500002307129,8|2,0:0|0:0,0:0:0:0:
175,62,165106,21,8,0:0:0:0:
91,81,165206,1,2,0:0:0:0:
6,110,165306,2,0,B|-6:151|-6:151|-11:226,1,94.500002307129,8|2,0:0|0:0,0:0:0:0:
185,219,165506,22,0,P|236:218|294:240,1,94.500002307129,8|2,0:0|0:0,0:0:0:0:
156,317,165695,2,0,L|56:329,1,94.500002307129,8|2,0:0|0:0,0:0:0:0:
223,132,165884,2,0,P|271:124|343:134,1,94.500002307129,8|2,0:0|0:0,0:0:0:0:
92,236,166073,2,0,B|45:230|45:230|-7:204,1,94.500002307129,8|2,0:0|0:0,0:0:0:0:
278,248,166263,6,0,P|328:267|407:262,1,100.62500191927,8|2,0:0|0:0,0:0:0:0:
250,44,166452,2,0,P|175:55|126:83,1,100.62500191927,8|2,0:0|0:0,0:0:0:0:
156,317,166641,1,8,0:0:0:0:
352,144,167020,5,6,0:0:0:0:
144,173,167314,1,0,0:0:0:0:
429,186,167902,5,6,0:0:0:0:
73,235,168224,1,2,0:0:0:0:
229,21,168869,5,6,0:0:0:0:
271,96,169440,1,2,0:0:0:0:
174,181,170011,1,2,0:0:0:0:
237,242,170623,1,2,0:0:0:0:
156,336,171312,1,2,0:0:0:0:
336,312,171807,5,6,0:0:0:0:
