osu file format v14

[General]
AudioFilename: mountainkinglive.mp3
AudioLeadIn: 0
PreviewTime: 54148
Countdown: 0
SampleSet: Soft
StackLeniency: 0.7
Mode: 0
LetterboxInBreaks: 1
WidescreenStoryboard: 1

[Editor]
Bookmarks: 97085,120864,185372
DistanceSpacing: 1.3
BeatDivisor: 4
GridSize: 4
TimelineZoom: 1.30272

[Metadata]
Title:Hall of the Mountain King
TitleUnicode:Hall of the Mountain King
Artist:Apocalyptica
ArtistUnicode:Apocalyptica
Creator:pishifat
Version:V
Source:
Tags:live speed increase cello thrash symphonic orchestral classical cult edvard grieg life burns tour even better
BeatmapID:753732
BeatmapSetID:340399

[Difficulty]
HPDrainRate:6
CircleSize:4
OverallDifficulty:7.6
ApproachRate:8.8
SliderMultiplier:1.55
SliderTickRate:1

[Events]
//Background and Video events
0,0,"jpg.jpg",0,0
//Break Periods
2,100556,111854
2,144070,151508
//Storyboard Layer 0 (Background)
//Storyboard Layer 1 (Fail)
//Storyboard Layer 2 (Pass)
//Storyboard Layer 3 (Foreground)
//Storyboard Sound Samples

[TimingPoints]
25407,1764.70588235294,4,2,1,50,1,0
25407,-76.9230769230769,4,2,1,50,0,0
26289,1739.13043478261,4,2,1,50,1,0
27158,1621.62162162162,4,2,1,50,1,0
27158,-76.9230769230769,4,2,1,50,0,0
27968,1538.46153846154,4,2,1,50,1,0
28737,1509.43396226415,4,2,1,50,1,0
30246,1371.42857142857,4,2,1,50,1,0
31617,1445.78313253012,4,2,1,50,1,0
33062,1363.63636363636,4,2,1,50,1,0
34425,1387.28323699422,4,2,1,50,1,0
35812,1297.2972972973,4,2,1,50,1,0
37109,1206.03015075377,4,2,1,50,1,0
37109,-76.9230769230769,4,2,1,50,0,0
37712,1153.84615384615,4,2,1,50,1,0
38288,1132.07547169811,4,2,1,50,1,0
38288,-76.9230769230769,4,2,1,50,0,0
39420,1016.94915254237,4,2,1,50,1,0
40436,916.030534351145,4,2,1,50,1,0
41352,845.070422535211,4,2,1,50,1,0
41352,-76.9230769230769,4,2,1,50,0,0
43042,764.331210191083,4,2,1,50,1,0
43042,-90.9090909090909,4,2,1,50,0,0
44570,779.220779220779,4,2,1,50,1,0
44570,-76.9230769230769,4,2,1,50,0,0
44959,710.059171597633,4,2,1,50,1,0
45314,701.754385964912,4,2,1,50,1,0
45314,-76.9230769230769,4,2,1,50,0,0
45664,677.966101694915,4,2,1,50,1,0
46002,677.966101694915,4,2,1,50,1,0
47357,652.173913043478,4,2,1,50,1,0
48009,634.920634920635,4,2,1,50,1,0
48643,652.173913043478,4,2,1,50,1,0
49295,634.920634920635,4,2,1,50,1,0
49929,600,4,2,1,50,1,0
49929,-83.3333333333333,4,2,1,50,0,0
51129,574.162679425837,4,2,1,50,1,0
51416,-76.9230769230769,4,2,1,60,0,0
51703,550.45871559633,4,2,1,60,1,0
51978,535.714285714286,4,2,1,60,1,0
51978,-86.9565217391304,4,2,1,60,0,0
52245,535.714285714286,4,2,1,60,1,0
52512,515.021459227468,4,2,1,60,1,0
52512,-79.6812749003984,4,2,1,60,0,0
52769,515.021459227468,4,2,1,60,1,0
53026,-89.2857142857143,4,2,1,60,0,0
53284,493.827160493827,4,2,1,60,1,0
53530,-90.9090909090909,4,2,1,60,0,0
54271,444.444444444444,4,2,1,60,1,0
54271,-125,4,2,1,60,0,0
55604,428.571428571429,4,2,1,60,1,0
56032,413.793103448276,4,2,1,60,1,0
56032,-125,4,2,1,60,0,0
56445,-125,4,2,1,60,0,0
56652,-100,4,2,1,60,0,0
56859,-125,4,2,1,60,0,0
57480,-100,4,2,1,60,0,0
57687,394.736842105263,4,2,1,60,1,0
57687,-120.481927710843,4,2,1,60,0,0
59265,382.165605095541,4,2,1,60,1,0
59265,-117.647058823529,4,2,1,60,0,0
61940,370.37037037037,4,2,1,60,1,0
62310,359.281437125748,4,2,1,60,1,0
62310,-117.647058823529,4,2,1,60,0,0
62848,-95.238095238095,4,2,1,60,0,0
63028,-117.647058823529,4,2,1,60,0,0
63747,-117.647058823529,4,2,1,60,0,0
64824,337.078651685393,4,2,1,60,1,0
64824,-117.647058823529,4,2,1,60,0,0
65161,337.078651685393,4,2,1,60,1,0
65161,-117.647058823529,4,2,1,60,0,0
66509,329.67032967033,4,2,1,60,1,0
66509,-111.111111111111,4,2,1,60,0,0
67498,315.789473684211,4,2,1,60,1,0
67498,-90.9090909090909,4,2,1,60,0,0
67813,315.789473684211,4,2,1,60,1,0
67813,-111.111111111111,4,2,1,60,0,0
68286,-90.9090909090909,4,2,1,60,0,0
68444,-111.111111111111,4,2,1,60,0,0
68918,-100,4,2,1,60,0,0
69076,309.278350515464,4,2,1,60,1,0
69076,-111.111111111111,4,2,1,60,0,0
70158,-100,4,2,1,60,0,0
70313,303.030303030303,4,2,1,60,1,0
70313,-111.111111111111,4,2,1,60,0,0
70767,-100,4,2,1,60,0,0
70919,-111.111111111111,4,2,1,60,0,0
71525,291.26213592233,4,2,1,60,1,0
71525,-111.111111111111,4,2,1,60,0,0
72544,-90.9090909090909,4,2,1,60,0,0
72690,-111.111111111111,4,2,1,60,0,0
73126,-100,4,2,1,60,0,0
73272,-111.111111111111,4,2,1,60,0,0
73855,284.36018957346,4,2,1,60,1,0
73855,-111.111111111111,4,2,1,60,0,0
74992,281.69014084507,4,2,1,60,1,0
74992,-111.111111111111,4,2,1,60,0,0
75414,-100,4,2,1,60,0,0
75555,-111.111111111111,4,2,1,60,0,0
76118,276.497695852535,4,2,1,52,1,0
76118,-125,4,2,1,52,0,0
76670,271.493212669683,4,2,1,52,1,0
76670,-125,4,2,1,52,0,0
77212,271.493212669683,4,2,1,52,1,0
77212,-125,4,2,1,52,0,0
78297,260.869565217391,4,2,1,52,1,0
78297,-125,4,2,1,52,0,0
84557,-133.333333333333,4,2,1,55,0,0
88731,-125,4,2,1,58,0,0
89775,-117.647058823529,4,2,1,60,0,0
90818,-111.111111111111,4,2,1,62,0,0
91862,-105.263157894737,4,2,1,65,0,0
92905,-117.647058823529,4,2,1,50,0,0
97079,288.461538461538,4,2,1,60,1,0
97079,-125,4,2,1,60,0,0
97367,302.267002518892,4,2,1,60,1,0
98273,510.63829787234,4,2,1,60,1,0
98273,-105.263157894737,4,2,1,60,0,0
98783,591.133004926108,4,2,1,60,1,0
100556,394.736842105263,4,2,1,60,1,0
102134,372.670807453416,4,2,1,60,1,0
103624,370.37037037037,4,2,1,60,1,0
105105,368.098159509202,4,2,1,60,1,0
106577,370.37037037037,4,2,1,60,1,0
109539,368.098159509202,4,2,1,60,1,0
112483,365.853658536585,4,2,1,52,1,0
112483,-117.647058823529,4,2,1,52,0,0
113214,384.615384615385,4,2,1,52,1,0
113214,-117.647058823529,4,2,1,52,0,0
113598,-117.647058823529,4,2,1,52,0,0
113983,375,4,2,1,52,1,0
113983,-117.647058823529,4,2,1,52,0,0
115483,377.358490566038,4,2,1,52,1,0
115483,-117.647058823529,4,2,1,52,0,0
116992,379.746835443038,4,2,1,52,1,0
116992,-117.647058823529,4,2,1,52,0,0
118510,377.358490566038,4,2,1,52,1,0
118510,-117.647058823529,4,2,1,52,0,0
120019,375,4,2,1,52,1,0
120019,-117.647058823529,4,2,1,52,0,0
123019,370.37037037037,4,2,1,52,1,0
123019,-117.647058823529,4,2,1,52,0,0
124500,-117.647058823529,4,2,1,57,0,0
125981,361.44578313253,4,2,1,57,1,0
125981,-117.647058823529,4,2,1,57,0,0
126703,370.37037037037,4,2,1,57,1,0
126703,-117.647058823529,4,2,1,57,0,0
127443,357.142857142857,4,2,1,57,1,0
127443,-117.647058823529,4,2,1,57,0,0
128871,352.941176470588,4,2,1,57,1,0
128871,-117.647058823529,4,2,1,57,0,0
130282,348.837209302326,4,2,1,57,1,0
130282,-117.647058823529,4,2,1,57,0,0
130979,333.333333333333,4,2,1,57,1,0
130979,-117.647058823529,4,2,1,57,0,0
131312,-117.647058823529,4,2,1,57,0,0
131645,329.67032967033,4,2,1,57,1,0
131645,-117.647058823529,4,2,1,57,0,0
132963,307.692307692308,4,2,1,57,1,0
132963,-117.647058823529,4,2,1,57,0,0
133578,295.566502463054,4,2,1,57,1,0
133578,-117.647058823529,4,2,1,57,0,0
134169,297.029702970297,4,2,1,57,1,0
134763,287.081339712919,4,2,1,57,1,0
135337,266.666666666667,4,2,1,70,1,1
135337,-105.263157894737,4,2,1,70,0,1
143870,-105.263157894737,4,2,1,70,0,0
144137,-117.647058823529,4,2,1,45,0,0
152403,-97.0873786407767,4,2,1,70,0,1
154537,255.31914893617,4,2,1,70,1,1
154537,-97.0873786407767,4,2,1,70,0,1
155558,244.897959183673,4,2,1,70,1,1
155558,-97.0873786407767,4,2,1,70,0,1
156537,241.935483870968,4,2,1,70,1,1
156537,-97.0873786407767,4,2,1,70,0,1
157504,240,4,2,1,70,1,1
157504,-97.0873786407767,4,2,1,70,0,1
158464,235.294117647059,4,2,1,70,1,1
158464,-97.0873786407767,4,2,1,70,0,1
160111,-97.0873786407767,4,2,1,70,0,0
160346,230.769230769231,4,2,1,77,1,1
160346,-97.0873786407767,4,2,1,77,0,1
161269,226.415094339623,4,2,1,77,1,1
161269,-97.0873786407767,4,2,1,77,0,1
162174,212.765957446809,4,2,1,77,1,1
162174,-97.0873786407767,4,2,1,77,0,1
163025,210.526315789474,4,2,1,77,1,1
163867,209.79020979021,4,2,1,77,1,1
163867,-97.0873786407767,4,2,1,77,0,1
164706,200,4,2,1,77,1,1
164706,-97.0873786407767,4,2,1,77,0,1
165506,189.274447949527,4,2,1,77,1,1
165506,-97.0873786407767,4,2,1,77,0,1
166263,-97.0873786407767,4,2,1,77,0,1
166641,-97.0873786407767,4,2,1,77,0,0
167020,294.117647058824,4,2,1,60,1,0
167902,322.58064516129,4,2,1,60,1,0
168869,588.235294117647,4,2,1,60,1,0
169163,555.555555555556,4,2,1,60,1,0
169440,571.428571428571,4,2,1,60,1,0
170011,612.244897959184,4,2,1,60,1,0
170623,689.655172413793,4,2,1,60,1,0
171312,495.867768595041,4,2,1,60,1,0

[Colours]
Combo1 : 230,179,60
Combo2 : 165,97,97
Combo3 : 175,167,154
Combo4 : 227,165,96
Combo5 : 172,170,136
SliderBorder : 170,150,150
SliderTrackOverride : 33,20,20

[HitObjects]
54,164,25407,6,0,P|116:173|161:196,1,100.749995388031,0|0,0:0|0:0,0:0:0:0:
210,290,27158,2,0,L|322:283,1,100.749995388031,0|0,0:0|0:0,0:0:0:0:
404,159,28737,1,0,0:0:0:0:
312,177,29491,1,0,0:0:0:0:
410,143,30246,1,0,0:0:0:0:
226,97,31617,5,0,0:0:0:0:
293,172,32339,1,0,0:0:0:0:
206,91,33062,1,0,0:0:0:0:
295,286,34425,5,0,0:0:0:0:
300,191,35118,1,0,0:0:0:0:
279,297,35812,1,0,0:0:0:0:
378,346,37109,6,0,P|428:350|477:337,1,100.749995388031,2|0,0:3|0:0,0:0:0:0:
295,286,38288,2,0,L|178:290,1,100.749995388031,0|0,0:0|0:0,0:0:0:0:
128,147,39420,1,0,0:0:0:0:
220,171,39928,1,0,0:0:0:0:
117,132,40436,1,0,0:0:0:0:
205,62,40894,1,0,0:0:0:0:
135,244,41352,22,0,P|87:264|28:262,1,100.749995388031
220,171,42197,2,0,P|246:227|243:272,1,100.749995388031,0|0,0:0|0:0,0:0:0:0:
117,132,43042,2,0,L|301:117,1,170.500005203247,0|2,0:0|0:1,0:0:0:0:
286,118,44570,6,0,P|268:85|276:13,1,100.749995388031,2|0,0:3|0:0,0:0:0:0:
388,150,45314,2,0,L|488:141,1,100.749995388031,0|0,0:0|0:0,0:0:0:0:
311,215,46002,1,0,0:0:0:0:
299,309,46340,1,0,0:0:0:0:
328,203,46679,1,0,0:0:0:0:
206,240,47357,5,0,0:0:0:0:
212,334,47683,1,0,0:0:0:0:
220,224,48009,1,0,0:0:0:0:
94,285,48643,5,0,0:0:0:0:
117,376,48969,1,0,0:0:0:0:
104,266,49295,1,0,0:0:0:0:
289,340,49929,22,0,L|398:351,1,92.9999971618653,2|0,0:3|0:0,0:0:0:0:
456,232,50529,2,0,L|351:245,1,92.9999971618653,0|0,0:0|0:0,0:0:0:0:
294,147,51129,1,0,0:0:0:0:
196,302,51416,6,0,B|150:320|150:320|75:312,1,100.749995388031,0|0,3:0|0:0,0:0:0:0:
279,134,51978,2,0,L|389:144,1,89.1250016999245,0|0,3:0|0:0,0:0:0:0:
132,230,52512,6,0,B|86:216|86:216|38:172,1,97.2625005936432,0|0,3:0|0:0,0:0:0:0:
270,39,53026,2,0,L|375:50,1,86.8000010595703,0|0,3:0|0:0,0:0:0:0:
133,137,53530,6,0,B|115:98|115:98|117:53,2,85.2500026016236,0|0|0,3:0|3:0|3:0,0:0:0:0:
327,244,54271,22,0,P|397:237|469:268,1,124,4|2,0:0|0:0,0:0:0:0:
462,361,54937,1,2,0:0:0:0:
379,155,55159,1,8,0:0:0:0:
488,121,55382,1,2,0:0:0:0:
387,138,55604,1,2,0:0:0:0:
307,63,55818,2,0,P|285:59|243:57,1,38.75,2|0,0:0|0:0,0:0:0:0:
229,81,56032,6,0,B|236:111|236:111|231:168,1,62,2|2,0:0|0:0,0:0:0:0:
158,300,56445,1,2,0:0:0:0:
259,243,56652,2,0,L|325:237,1,38.75,2|0,0:0|0:0,0:0:0:0:
339,264,56859,2,0,P|370:273|423:273,2,62,8|2|2,0:0|0:0|0:0,0:0:0:0:
241,150,57480,1,2,0:0:0:0:
241,150,57583,1,0,0:0:0:0:
241,150,57687,6,0,B|192:172|192:172|98:163,1,128.650001864891,2|2,0:0|0:0,0:0:0:0:
13,128,58279,1,2,0:0:0:0:
111,294,58476,2,0,P|186:277|202:276,1,64.3250009324455,8|2,0:0|0:0,0:0:0:0:
271,369,58871,1,0,0:0:0:0:
343,307,59068,1,2,0:0:0:0:
237,176,59265,6,0,L|234:90,1,65.8750012564659,2|2,0:0|0:0,0:0:0:0:
337,49,59647,2,0,P|326:86|321:123,1,65.8750012564659,2|2,0:0|0:0,0:0:0:0:
444,245,60029,2,0,P|386:202|323:219,1,131.750002512932,8|2,0:0|0:1,0:0:0:0:
331,212,60793,22,0,B|283:224|283:224|197:216,1,131.750002512932,2|2,0:0|0:0,0:0:0:0:
111,171,61366,1,2,0:0:0:0:
128,353,61557,1,8,0:0:0:0:
16,327,61749,1,2,0:0:0:0:
116,369,61940,1,2,0:0:0:0:
218,319,62125,2,0,P|263:313|274:313,1,38.75,2|0,0:0|0:0,0:0:0:0:
301,333,62310,6,0,B|332:344|332:344|371:348,1,65.8750012564659,2|2,0:0|0:0,0:0:0:0:
507,278,62669,1,2,0:0:0:0:
396,206,62848,2,0,P|374:209|349:215,1,40.6874987583161,2|0,0:0|0:0,0:0:0:0:
312,230,63028,2,0,L|235:223,1,65.8750012564659,8|2,0:0|0:0,0:0:0:0:
116,169,63387,1,2,0:0:0:0:
40,255,63567,1,2,0:0:0:0:
40,255,63657,1,0,0:0:0:0:
40,255,63747,6,0,P|32:161|19:100,1,131.750002512932,2|2,0:0|0:0,0:0:0:0:
110,75,64286,1,2,0:0:0:0:
246,224,64465,2,0,L|318:231,1,65.8750012564659,8|2,0:0|0:0,0:0:0:0:
367,120,64824,2,0,B|334:121|334:121|284:133,1,65.8750012564659,2|2,0:0|0:0,0:0:0:0:
137,230,65161,6,0,P|128:199|110:160,2,65.8750012564659,2|2|2,0:0|0:0|0:0,0:0:0:0:
100,333,65666,1,2,0:0:0:0:
251,242,65835,2,0,B|306:228|306:228|403:236,1,131.750002512932,8|2,0:0|0:1,0:0:0:0:
380,234,66509,22,0,P|423:202|519:213,1,139.499995742798,2|2,0:0|0:0,0:0:0:0:
459,286,67003,1,2,0:0:0:0:
334,147,67168,2,0,L|328:67,1,69.749997871399,8|2,0:0|0:0,0:0:0:0:
236,228,67498,1,2,0:0:0:0:
219,110,67655,2,0,P|197:105|170:103,1,42.6250013008118,2|0,0:0|0:0,0:0:0:0:
136,122,67813,6,0,L|50:129,1,69.749997871399,2|2,0:0|0:0,0:0:0:0:
167,321,68128,1,2,0:0:0:0:
236,228,68286,2,0,P|255:223|282:222,1,42.6250013008118,2|0,0:0|0:0,0:0:0:0:
319,242,68444,2,0,B|312:276|312:276|316:333,2,69.749997871399,8|2|2,0:0|0:0|0:0,0:0:0:0:
447,146,68918,1,2,0:0:0:0:
447,146,68997,1,0,0:0:0:0:
447,146,69076,6,0,P|394:134|288:122,1,139.499995742798,2|2,0:0|0:0,0:0:0:0:
207,143,69539,1,2,0:0:0:0:
127,32,69694,2,0,B|94:22|94:22|36:17,2,69.749997871399,10|2|2,0:0|0:0|0:0,0:0:0:0:
99,138,70158,1,2,0:0:0:0:
89,142,70235,1,0,0:0:0:0:
79,147,70313,6,0,P|59:213|60:235,1,69.749997871399,2|2,0:0|0:0,0:0:0:0:
123,338,70616,1,2,0:0:0:0:
185,259,70767,1,2,0:0:0:0:
185,259,70843,1,0,0:0:0:0:
185,259,70919,2,0,L|330:268,1,139.499995742798,8|2,0:0|0:1,0:0:0:0:
324,267,71525,22,0,B|374:256|374:256|391:243|391:243|420:236|458:249,1,139.499995742798,2|2,0:0|0:0,0:0:0:0:
422,335,71961,1,2,0:0:0:0:
334,177,72107,2,0,L|327:102,2,69.749997871399,8|2|2,0:0|0:0|0:0,0:0:0:0:
313,284,72544,2,0,L|254:290,1,42.6250013008118,2|0,0:0|0:0,0:0:0:0:
227,273,72690,6,0,B|195:258|195:258|148:249,1,69.749997871399,2|2,0:0|0:0,0:0:0:0:
14,286,72981,1,2,0:0:0:0:
63,208,73126,2,0,L|68:157,1,38.75,2|0,0:0|0:0,0:0:0:0:
48,127,73272,2,0,P|33:85|36:38,2,69.749997871399,8|2|2,0:0|0:0|0:0,0:0:0:0:
175,166,73709,1,2,0:0:0:0:
175,166,73782,1,0,0:0:0:0:
175,166,73855,6,0,P|232:156|320:151,1,139.499995742798,2|2,0:0|0:0,0:0:0:0:
410,184,74281,1,2,0:0:0:0:
314,59,74423,2,0,L|221:49,2,69.749997871399,8|2|2,0:0|0:0|0:0,0:0:0:0:
444,67,74850,1,2,0:0:0:0:
444,67,74921,1,0,0:0:0:0:
444,67,74992,6,0,B|477:55|477:55|534:49,2,69.749997871399,2|2|2,0:0|0:0|0:0,0:0:0:0:
418,192,75414,1,2,0:0:0:0:
418,192,75484,1,0,0:0:0:0:
418,192,75555,2,0,L|425:351,1,139.499995742798,8|2,0:0|0:1,0:0:0:0:
424,331,76118,22,0,P|392:321|291:329,1,124,2|2,0:0|0:0,0:0:0:0:
228,384,76532,1,2,0:0:0:0:
311,230,76670,2,0,B|314:196|314:196|304:145,1,62,8|2,0:0|0:0,0:0:0:0:
262,66,76941,1,2,0:0:0:0:
298,240,77212,6,0,B|282:208|282:208|248:165,1,62,2|2,0:0|0:0,0:0:0:0:
173,122,77483,1,2,0:0:0:0:
285,253,77754,6,0,B|256:232|256:232|207:213,1,62,8|0,0:0|0:0,0:0:0:0:
117,213,78025,1,2,0:0:0:0:
271,266,78297,6,0,B|197:272|197:272|128:304,1,124,2|2,0:0|0:0,0:0:0:0:
94,373,78688,1,2,0:0:0:0:
129,200,78818,2,0,L|134:131,2,62,8|2|2,0:0|0:0|0:0,0:0:0:0:
39,236,79210,1,2,0:0:0:0:
86,60,79340,22,0,P|122:51|164:48,1,62,2|2,0:0|0:0,0:0:0:0:
241,133,79601,2,0,L|323:139,1,62,2|2,0:0|0:0,0:0:0:0:
453,61,79862,2,0,P|430:103|417:196,1,124,8|2,0:0|0:1,0:0:0:0:
416,177,80383,6,0,B|440:219|440:219|449:299,1,124,2|2,0:0|0:0,0:0:0:0:
419,384,80775,1,2,0:0:0:0:
296,281,80905,2,0,L|205:274,1,62,8|2,0:0|0:0,0:0:0:0:
109,310,81166,1,2,0:0:0:0:
306,266,81427,6,0,L|215:259,1,62,2|2,0:0|0:0,0:0:0:0:
119,295,81688,1,2,0:0:0:0:
314,253,81949,6,0,L|223:246,1,62,8|2,0:0|0:0,0:0:0:0:
127,282,82210,1,2,0:0:0:0:
326,240,82470,22,0,P|357:201|341:110,1,124,2|2,0:0|0:0,0:0:0:0:
269,77,82862,1,2,0:0:0:0:
177,217,82992,2,0,L|169:308,2,62,8|2|2,0:0|0:0|0:0,0:0:0:0:
143,121,83383,1,2,0:0:0:0:
56,239,83514,6,0,P|25:221|-6:189,1,62,2|2,0:0|0:0,0:0:0:0:
69,339,83775,2,0,P|31:337|-13:315,1,62,2|2,0:0|0:0,0:0:0:0:
177,217,84036,5,8,0:0:0:0:
189,323,84166,1,2,0:0:0:0:
248,172,84297,5,8,0:0:0:0:
260,280,84427,1,2,0:0:0:0:
320,136,84557,22,0,P|383:125|449:124,1,116.250004434586,6|2,0:0|0:0,0:0:0:0:
435,123,84949,1,0,0:0:0:0:
311,34,85079,2,0,L|233:26,1,58.1250022172929,2|0,0:0|0:0,0:0:0:0:
126,89,85340,2,0,L|188:81,1,58.1250022172929,2|0,0:0|0:0,0:0:0:0:
272,198,85601,6,0,P|205:166|149:181,1,116.250004434586,2|2,0:0|0:0,0:0:0:0:
105,255,85992,1,0,0:0:0:0:
273,294,86123,2,0,L|331:287,2,58.1250022172929,2|0|2,0:0|0:0|0:0,0:0:0:0:
172,342,86514,1,0,0:0:0:0:
165,172,86644,6,0,B|157:100|157:100|131:43,2,116.250004434586,2|2|2,0:0|0:0|0:0,0:0:0:0:
117,264,87296,1,0,0:0:0:0:
35,176,87427,2,0,P|40:118|48:96,1,58.1250022172929,2|0,0:0|0:0,0:0:0:0:
217,255,87688,6,0,P|276:257|357:268,1,116.250004434586,2|2,0:0|0:0,0:0:0:0:
427,300,88079,1,0,0:0:0:0:
358,170,88210,2,0,L|289:181,2,58.1250022172929,2|0|2,0:0|0:0|0:0,0:0:0:0:
457,179,88601,1,0,0:0:0:0:
318,68,88731,22,0,B|270:66|270:66|248:76|248:76|176:71,1,124,2|2,0:0|0:0,0:0:0:0:
102,29,89123,1,0,0:0:0:0:
170,155,89253,2,0,P|181:199|183:222,1,62,2|0,0:0|0:0,0:0:0:0:
78,271,89514,2,0,L|87:196,1,62,2|0,0:0|0:0,0:0:0:0:
159,358,89775,6,0,P|238:362|287:329,2,131.750002512932,2|2|2,0:0|0:0|0:0,0:0:0:0:
90,285,90427,1,0,0:0:0:0:
253,235,90557,2,0,L|338:229,1,65.8750012564659,2|0,0:0|0:0,0:0:0:0:
435,293,90818,6,0,B|418:242|418:242|424:154,1,139.499995742798,2|2,0:0|0:0,0:0:0:0:
479,64,91210,1,0,0:0:0:0:
324,144,91340,2,0,P|326:179|340:224,2,69.749997871399,2|0|2,0:0|0:0|0:0,0:0:0:0:
347,46,91731,1,0,0:0:0:0:
182,78,91862,6,0,P|159:153|151:244,1,147.249996068001,2|2,0:0|0:0,0:0:0:0:
168,341,92253,1,0,0:0:0:0:
72,272,92383,2,0,B|36:264|36:264|-13:267,1,73.6249980340005,2|0,0:0|0:0,0:0:0:0:
182,351,92644,2,0,L|286:344,1,73.6249980340005,2|0,0:0|0:0,0:0:0:0:
463,308,92905,22,0,P|455:272|433:233,1,65.8750012564659,6|0,0:0|0:0,0:0:0:0:
427,230,93101,1,0,0:0:0:0:
416,216,93166,2,0,L|410:162,3,32.937500628233,2|0|0|0,0:0|0:0|0:0|0:0,0:0:0:0:
336,177,93427,2,0,L|338:130,3,32.937500628233,2|0|0|0,0:0|0:0|0:0|0:0,0:0:0:0:
260,132,93688,2,0,L|267:80,3,32.937500628233,2|0|0|0,0:0|0:0|0:0|0:0,0:0:0:0:
261,216,93949,6,0,P|225:223|190:223,1,65.8750012564659,2|0,0:0|0:0,0:0:0:0:
179,220,94144,1,0,0:0:0:0:
162,216,94210,2,0,L|153:164,3,32.937500628233,2|0|0|0,0:0|0:0|0:0|0:0,0:0:0:0:
90,253,94470,2,0,L|77:217,3,32.937500628233,2|0|0|0,0:0|0:0|0:0|0:0,0:0:0:0:
31,312,94731,1,2,0:0:0:0:
46,89,94992,6,0,P|92:74|137:71,1,65.8750012564659,6|0,0:0|0:0,0:0:0:0:
124,78,95188,1,0,0:0:0:0:
138,85,95253,2,0,L|186:88,3,32.937500628233,2|0|0|0,0:0|0:0|0:0|0:0,0:0:0:0:
235,42,95514,2,0,L|284:38,3,32.937500628233,2|0|0|0,0:0|0:0|0:0|0:0,0:0:0:0:
327,94,95775,2,0,L|382:100,3,32.937500628233,2|0|0|0,0:0|0:0|0:0|0:0,0:0:0:0:
250,131,96036,6,0,P|237:193|238:223,1,65.8750012564659,2|0,0:0|0:0,0:0:0:0:
242,210,96231,1,0,0:0:0:0:
247,225,96296,2,0,L|306:233,3,32.937500628233,2|0|0|0,0:0|0:0|0:0|0:0,0:0:0:0:
182,271,96557,2,0,L|137:276,3,32.937500628233,2|0|0|0,0:0|0:0|0:0|0:0,0:0:0:0:
252,305,96818,2,0,P|288:308|332:316,1,65.8750012564659,2|0,0:0|0:0,0:0:0:0:
424,372,97079,22,0,P|428:324|456:244,1,124,6|2,0:0|0:1,0:0:0:0:
252,305,98273,6,0,P|239:223|199:165,1,147.249996068001,6|2,0:0|0:1,0:0:0:0:
390,233,112483,6,0,P|293:205|248:202,1,131.750002512932,2|2,0:0|0:0,0:0:0:0:
159,227,113031,1,0,0:0:0:0:
267,87,113214,2,0,L|273:5,1,65.8750012564659,10|0,0:1|0:0,0:0:0:0:
332,162,113598,1,2,0:0:0:0:
48,178,113983,6,0,L|38:108,1,65.8750012564659,2|0,0:0|0:0,0:0:0:0:
0,259,114358,1,2,0:0:0:0:
286,288,114733,2,0,L|292:211,1,65.8750012564659,10|0,0:1|0:0,0:0:0:0:
344,367,115108,1,2,0:0:0:0:
64,327,115483,22,0,P|128:289|197:306,1,131.750002512932,2|2,0:0|0:0,0:0:0:0:
241,379,116049,1,0,0:0:0:0:
166,201,116237,2,0,P|125:188|83:184,1,65.8750012564659,10|0,0:1|0:0,0:0:0:0:
255,235,116615,2,0,P|291:226|324:213,1,65.8750012564659,2|0,0:0|0:0,0:0:0:0:
264,64,116992,6,0,L|189:53,2,65.8750012564659,2|0|2,0:0|0:0|0:0,0:0:0:0:
378,53,117561,1,0,0:0:0:0:
461,233,117751,5,10,0:1:0:0:
461,233,118004,2,0,P|466:160|483:82,1,131.750002512932,10|0,0:1|0:0,0:0:0:0:
376,186,118510,6,0,L|234:190,1,131.750002512932,6|2,0:0|0:0,0:0:0:0:
137,158,119076,1,0,0:0:0:0:
219,299,119264,2,0,P|254:315|296:324,1,65.8750012564659,10|0,0:1|0:0,0:0:0:0:
142,352,119642,1,2,0:0:0:0:
319,99,120019,22,0,P|365:85|412:82,1,65.8750012564659,2|0,0:0|0:0,0:0:0:0:
257,28,120394,1,2,0:0:0:0:
85,112,120769,2,0,P|71:50|73:20,1,65.8750012564659,10|0,0:1|0:0,0:0:0:0:
3,166,121144,1,2,0:0:0:0:
335,223,121519,6,0,B|383:207|383:207|481:200,1,131.750002512932,2|2,0:0|0:0,0:0:0:0:
463,201,122081,1,0,0:0:0:0:
330,111,122269,2,0,L|254:104,1,65.8750012564659,10|0,0:1|0:0,0:0:0:0:
404,51,122644,2,0,P|342:30|314:28,1,65.8750012564659,2|0,0:0|0:0,0:0:0:0:
187,141,123019,6,0,P|200:185|206:219,2,65.8750012564659,2|0|2,0:0|0:0|0:0,0:0:0:0:
108,82,123574,1,0,0:0:0:0:
62,270,123759,5,10,0:1:0:0:
62,270,124006,2,0,P|133:263|190:325,1,131.750002512932,10|0,0:1|0:0,0:0:0:0:
104,343,124500,22,0,B|93:287|93:287|110:177,1,131.750002512932,6|2,0:0|0:0,0:0:0:0:
187,141,125056,1,0,0:0:0:0:
312,237,125241,2,0,P|348:242|407:240,1,65.8750012564659,10|0,0:1|0:0,0:0:0:0:
239,297,125611,1,2,0:0:0:0:
110,63,125981,6,0,P|59:66|19:74,1,65.8750012564659,2|0,0:0|0:0,0:0:0:0:
198,8,126342,1,2,0:0:0:0:
67,278,126703,2,0,P|31:273|-18:255,1,65.8750012564659,10|0,0:1|0:0,0:0:0:0:
112,369,127073,1,2,0:0:0:0:
374,311,127443,6,0,L|380:159,1,131.750002512932,2|2,0:0|0:0,0:0:0:0:
406,68,127978,1,0,0:0:0:0:
273,157,128157,2,0,P|281:192|286:250,1,65.8750012564659,10|0,0:1|0:0,0:0:0:0:
307,68,128514,1,2,0:0:0:0:
73,122,128871,6,0,P|56:162|48:204,1,65.8750012564659,2|0,0:0|0:0,0:0:0:0:
24,33,129223,1,2,0:0:0:0:
195,216,129576,2,0,P|198:263|183:366,1,131.750002512932,10|2,0:1|0:0,0:0:0:0:
188,346,130282,22,0,B|240:330|240:330|325:336,1,131.750002512932,2|2,0:0|0:0,0:0:0:0:
421,362,130805,1,0,0:0:0:0:
360,211,130979,2,0,P|322:215|279:227,1,65.8750012564659,10|0,0:1|0:0,0:0:0:0:
443,164,131312,1,2,0:0:0:0:
237,68,131645,6,0,L|159:59,1,65.8750012564659,2|0,0:0|0:0,0:0:0:0:
321,30,131974,1,2,0:0:0:0:
184,251,132304,2,0,P|173:305|170:335,1,65.8750012564659,10|0,0:1|0:0,0:0:0:0:
108,195,132634,1,2,0:0:0:0:
422,130,132963,6,0,L|264:140,1,131.750002512932,2|2,0:0|0:0,0:0:0:0:
172,124,133424,1,0,0:0:0:0:
297,237,133578,2,0,P|331:227|387:222,1,65.8750012564659,10|0,0:1|0:0,0:0:0:0:
472,254,133873,1,0,0:0:0:0:
263,325,134169,5,8,0:0:0:0:
201,230,134317,1,2,0:0:0:0:
153,329,134466,1,0,0:0:0:0:
138,337,134763,21,2,0:0:0:0:
185,134,134906,1,2,0:0:0:0:
170,146,135337,54,0,B|134:155|134:155|69:148,1,73.6249980340005,12|2,0:0|0:0,0:0:0:0:
263,72,135603,2,0,B|297:86|297:86|334:113,1,73.6249980340005,8|2,0:0|0:0,0:0:0:0:
368,279,135870,1,8,0:0:0:0:
276,290,136003,1,2,0:0:0:0:
312,200,136137,2,0,P|344:188|390:184,1,73.6249980340005,8|2,0:0|0:0,0:0:0:0:
329,359,136403,5,8,0:0:0:0:
269,304,136537,1,2,0:0:0:0:
189,282,136670,2,0,L|110:288,1,73.6249980340005,8|2,0:0|0:0,0:0:0:0:
12,174,136937,1,8,0:0:0:0:
84,184,137070,1,2,0:0:0:0:
157,195,137203,2,0,B|192:193|192:193|250:173,1,73.6249980340005,8|2,0:0|0:0,0:0:0:0:
322,15,137470,22,0,P|407:10|473:62,2,147.249996068001,8|8|8,0:0|0:0|0:0,0:0:0:0:
264,91,138137,1,2,0:0:0:0:
388,158,138270,2,0,L|463:153,1,73.6249980340005,8|2,0:0|0:0,0:0:0:0:
290,191,138537,22,0,P|278:277|280:290,1,73.6249980340005,8|2,0:0|0:0,0:0:0:0:
377,374,138803,2,0,B|346:353|346:353|296:339,1,73.6249980340005,8|2,0:0|0:0,0:0:0:0:
173,357,139070,2,0,P|92:343|25:321,1,147.249996068001,8|8,0:0|0:0,0:0:0:0:
30,323,139603,6,0,B|45:289|45:289|53:236,1,73.6249980340005,8|2,0:0|0:0,0:0:0:0:
8,94,139870,2,0,L|16:185,1,73.6249980340005,8|2,0:0|0:0,0:0:0:0:
226,147,140137,1,8,0:0:0:0:
199,59,140270,1,2,0:0:0:0:
135,127,140403,2,0,P|120:164|121:228,1,73.6249980340005,8|2,0:0|0:0,0:0:0:0:
275,260,140670,21,8,0:0:0:0:
342,213,140803,1,2,0:0:0:0:
423,222,140937,2,0,L|508:215,1,73.6249980340005,8|2,0:0|0:0,0:0:0:0:
270,179,141203,21,8,0:0:0:0:
261,253,141337,1,2,0:0:0:0:
246,326,141470,2,0,B|208:335|208:335|156:329,1,73.6249980340005,8|2,0:0|0:0,0:0:0:0:
0,160,141737,6,0,P|87:166|151:192,1,147.249996068001,8|8,0:0|0:0,0:0:0:0:
52,254,142137,1,2,0:0:0:0:
87,78,142270,2,0,B|139:55|139:55|236:52,1,147.249996068001,8|8,0:0|0:0,0:0:0:0:
340,86,142670,1,2,0:0:0:0:
252,192,142803,22,0,P|236:245|237:281,1,73.6249980340005,8|2,0:0|0:0,0:0:0:0:
347,347,143070,2,0,L|338:254,1,73.6249980340005,8|2,0:0|0:0,0:0:0:0:
204,367,143337,2,0,P|145:374|70:320,1,147.249996068001,8|8,0:0|0:0,0:0:0:0:
74,327,143870,5,4,0:0:0:0:
417,90,152137,37,10,0:1:0:0:
417,90,152403,38,0,B|375:94|375:94|322:114,1,79.824999330082,8|2,0:0|0:0,0:0:0:0:
278,218,152670,2,0,L|186:211,1,79.824999330082,8|2,0:0|0:0,0:0:0:0:
57,77,152937,1,8,0:0:0:0:
131,99,153070,1,2,0:0:0:0:
74,154,153203,2,0,P|65:199|70:268,1,79.824999330082,8|2,0:0|0:0,0:0:0:0:
202,354,153470,5,8,0:0:0:0:
167,281,153603,1,2,0:0:0:0:
194,208,153737,2,0,B|233:195|233:195|280:191,1,79.824999330082,8|2,0:0|0:0,0:0:0:0:
433,294,154003,1,8,0:0:0:0:
423,223,154137,1,2,0:0:0:0:
410,152,154270,2,0,B|390:118|390:118|358:92,1,79.824999330082,8|2,0:0|0:0,0:0:0:0:
337,242,154537,22,0,B|397:253|397:253|431:241|431:241|504:256,2,159.649998660164,8|8|8,0:0|0:0|0:0,0:0:0:0:
262,171,155175,1,2,0:0:0:0:
410,152,155302,2,0,P|427:99|423:58,1,79.824999330082,8|2,0:0|0:0,0:0:0:0:
261,54,155558,22,0,L|149:62,2,79.824999330082,8|2|8,0:0|0:0|0:0,0:0:0:0:
347,11,155925,1,2,0:0:0:0:
295,162,156047,2,0,P|212:145|119:142,1,159.649998660164,8|8,0:0|0:0,0:0:0:0:
137,141,156537,6,0,B|150:179|150:179|155:232,1,79.824999330082,8|2,0:0|0:0,0:0:0:0:
40,272,156778,2,0,P|56:212|70:192,1,79.824999330082,8|2,0:0|0:0,0:0:0:0:
256,365,157020,1,8,0:0:0:0:
182,344,157141,1,2,0:0:0:0:
237,290,157262,2,0,L|326:281,1,79.824999330082,8|2,0:0|0:0,0:0:0:0:
512,357,157504,21,8,0:0:0:0:
437,338,157624,1,2,0:0:0:0:
406,268,157744,2,0,B|397:227|397:227|396:161,1,79.824999330082,8|2,0:0|0:0,0:0:0:0:
512,74,157984,1,8,0:0:0:0:
441,81,158104,1,2,0:0:0:0:
368,88,158224,2,0,P|328:81|292:65,1,79.824999330082,8|2,0:0|0:0,0:0:0:0:
158,199,158464,22,0,P|221:214|305:162,2,159.649998660164,8|8|8,0:0|0:0|0:0,0:0:0:0:
221,127,159052,1,2,0:0:0:0:
264,249,159169,2,0,L|270:338,1,79.824999330082,8|2,0:0|0:0,0:0:0:0:
101,278,159405,6,0,B|65:265|65:265|8:258,1,79.824999330082,8|2,0:0|0:0,0:0:0:0:
180,372,159640,2,0,L|185:282,1,79.824999330082,8|2,0:0|0:0,0:0:0:0:
153,132,159875,2,0,P|85:139|-2:178,1,159.649998660164,8|8,0:0|0:0,0:0:0:0:
305,57,160346,22,0,B|344:68|344:68|410:63,1,79.824999330082,12|2,0:0|0:0,0:0:0:0:
512,157,160576,2,0,P|475:143|405:140,1,79.824999330082,8|2,0:0|0:0,0:0:0:0:
276,222,160807,1,8,0:0:0:0:
323,228,160922,1,2,0:0:0:0:
370,235,161038,2,0,B|387:271|387:271|397:329,1,79.824999330082,8|2,0:0|0:0,0:0:0:0:
182,310,161269,21,8,0:0:0:0:
177,270,161382,1,2,0:0:0:0:
174,230,161495,2,0,P|182:189|209:146,1,79.824999330082,8|2,0:0|0:0,0:0:0:0:
90,279,161721,5,8,0:0:0:0:
58,283,161835,1,2,0:0:0:0:
26,288,161948,2,0,B|9:249|9:249|5:194,1,79.824999330082,8|2,0:0|0:0,0:0:0:0:
139,103,162174,22,0,L|313:111,1,159.649998660164,8|8,0:0|0:0,0:0:0:0:
396,160,162493,1,2,0:0:0:0:
396,160,162599,2,0,P|461:144|491:126,1,79.824999330082,8|2,0:0|0:0,0:0:0:0:
312,210,162812,2,0,P|307:288|318:314,1,79.824999330082,8|2,0:0|0:0,0:0:0:0:
298,110,163025,22,0,L|215:107,2,77.5,8|2|8,0:0|0:0|0:0,0:0:0:0:
373,56,163340,1,2,0:0:0:0:
287,22,163446,2,0,P|213:29|117:46,1,155,8|8,0:0|0:0,0:0:0:0:
46,237,163867,6,0,B|87:251|87:251|148:246,1,79.824999330082,8|2,0:0|0:0,0:0:0:0:
210,170,164076,2,0,P|245:170|300:196,1,79.824999330082,8|2,0:0|0:0,0:0:0:0:
300,327,164286,1,8,0:0:0:0:
252,320,164391,1,2,0:0:0:0:
204,312,164496,2,0,B|176:344|176:344|161:387,1,79.824999330082,8|2,0:0|0:0,0:0:0:0:
385,301,164706,21,8,0:0:0:0:
382,261,164806,1,2,0:0:0:0:
379,221,164906,2,0,P|419:204|463:198,1,79.824999330082,8|2,0:0|0:0,0:0:0:0:
282,233,165106,21,8,0:0:0:0:
250,229,165206,1,2,0:0:0:0:
218,225,165306,2,0,P|180:231|132:252,1,79.824999330082,8|2,0:0|0:0,0:0:0:0:
44,366,165506,6,0,B|41:300|41:300|55:270|55:270|52:195,1,159.649998660164,8|8,0:0|0:0,0:0:0:0:
11,135,165789,1,2,0:0:0:0:
11,135,165884,2,0,P|57:178|160:156,1,159.649998660164,8|8,0:0|0:0,0:0:0:0:
187,81,166168,1,2,0:0:0:0:
187,81,166263,22,0,L|281:75,1,79.824999330082,8|2,0:0|0:0,0:0:0:0:
333,171,166452,2,0,L|229:167,1,79.824999330082,8|2,0:0|0:0,0:0:0:0:
95,102,166641,1,8,0:0:0:0:
165,278,167020,5,6,0:0:0:0:
343,208,167314,1,0,0:0:0:0:
210,123,167902,21,6,0:0:0:0:
304,360,168224,1,2,0:0:0:0:
68,121,168869,5,6,0:0:0:0:
182,167,169440,1,2,0:0:0:0:
88,241,170011,1,2,0:0:0:0:
197,286,170623,1,2,0:0:0:0:
108,359,171312,1,2,0:0:0:0:
172,42,171807,37,6,0:0:0:0:
