osu file format v13

[General]
AudioFilename: mouuuu.mp3
AudioLeadIn: 0
PreviewTime: 7197
Countdown: 0
SampleSet: Soft
StackLeniency: 0.3
Mode: 0
LetterboxInBreaks: 0
WidescreenStoryboard: 0

[Editor]
Bookmarks: 107993
DistanceSpacing: 1.1
BeatDivisor: 8
GridSize: 4
TimelineZoom: 1.5

[Metadata]
Title:Hall of the Mountain King
TitleUnicode:Hall of the Mountain King
Artist:Apocalyptica
ArtistUnicode:Apocalyptica
Creator:pishifat
Version:Normal
Source:
Tags:cello thrash symphonic orchestral classical cult Edvard Grieg best
BeatmapID:519769
BeatmapSetID:219813

[Difficulty]
HPDrainRate:3.5
CircleSize:3.3
OverallDifficulty:3.5
ApproachRate:5
SliderMultiplier:0.9
SliderTickRate:1

[Events]
//Background and Video events
0,0,"sffsxdg1.jpg",0,0
//Break Periods
//Storyboard Layer 0 (Background)
//Storyboard Layer 1 (Fail)
//Storyboard Layer 2 (Pass)
//Storyboard Layer 3 (Foreground)
//Storyboard Sound Samples
//Background Colour Transformations
3,100,163,162,255

[TimingPoints]
7198,967.741935483871,4,2,2,18,1,0
7198,-66.6666666666667,4,2,2,18,0,0
8165,1027.39726027397,4,2,2,18,1,0
8165,-66.6666666666667,4,2,2,18,0,8
8678,944.88188976378,4,2,2,18,1,8
9150,1025.64102564103,4,2,2,18,1,0
9150,-66.6666666666667,4,2,2,18,0,8
10175,960,4,2,2,18,1,0
11135,1034.48275862069,4,2,2,18,1,0
11135,-66.6666666666667,4,2,2,18,0,0
12169,1000,4,2,2,18,1,0
12169,-66.6666666666667,4,2,2,18,0,8
13169,-66.6666666666667,4,2,2,18,0,8
14169,983.606557377049,4,2,2,18,1,0
14169,-66.6666666666667,4,2,2,18,0,8
15152,992.555831265509,4,2,2,18,1,0
15152,-66.6666666666667,4,2,2,18,0,0
16144,-66.6666666666667,4,2,2,18,0,8
16640,1025.64102564103,4,2,2,18,1,8
17152,991.735537190083,4,2,2,18,1,0
17152,-66.6666666666667,4,2,2,18,0,8
18143,1034.48275862069,4,2,2,18,1,0
18143,-66.6666666666667,4,2,2,18,0,8
19177,1000,4,2,2,18,1,0
19177,-66.6666666666667,4,2,2,18,0,0
19677,952.380952380952,4,2,2,18,1,8
20153,1016.94915254237,4,2,2,18,1,0
20153,-66.6666666666667,4,2,2,18,0,8
20661,1132.07547169811,4,2,2,18,1,8
21227,1057.26872246696,4,2,2,18,1,0
21227,-66.6666666666667,4,2,2,18,0,8
23341,1000.00553719008,4,2,2,18,1,0
23341,-66.6666666666667,4,2,2,18,0,0
23841,952.380952380952,4,2,2,18,1,8
24317,952.380952380952,4,2,2,18,1,0
24317,-66.6666666666667,4,2,2,18,0,8
24793,975.609756097561,4,2,2,18,1,8
25280,1000,4,2,2,18,1,0
25280,-66.6666666666667,4,2,2,18,0,8
26280,1008.40336134454,4,2,2,18,1,0
27288,1030.92783505155,4,2,2,18,1,0
28318,975.609756097561,4,2,2,18,1,0
29293,1023.89078498294,4,2,2,18,1,0
30316,995.024875621891,4,2,2,18,1,0
31311,1034.48275862069,4,2,2,18,1,0
31311,-66.6666666666667,4,2,2,18,0,0
31828,923.076923076923,4,2,2,18,1,8
32289,1000,4,2,2,18,1,0
32289,-66.6666666666667,4,2,2,18,0,8
32789,952.380952380952,4,2,2,18,1,8
33265,837.988826815642,4,2,2,18,1,0
33265,-66.6666666666667,4,2,2,18,0,8
33683,645.161290322581,4,3,1,33,1,8
33683,-57.1428571428571,4,3,1,33,0,8
34005,600,4,3,1,33,1,8
34305,-60.6060606060606,4,3,1,33,0,8
34605,550.45871559633,4,3,1,33,1,0
34880,-66.6666666666667,4,3,1,33,0,0
35155,517.241379310345,4,3,1,33,1,8
35155,-66.6666666666667,4,3,1,33,0,8
35930,-66.6666666666667,4,3,1,33,0,8
36189,487.80487804878,4,3,1,33,1,8
36676,467.653936087295,4,3,1,33,1,0
36676,-86.9565217391304,4,3,1,33,0,0
37143,441.176470588235,4,3,1,33,1,8
37143,-86.9565217391304,4,3,1,33,0,8
38245,512.820512820513,4,3,1,33,1,8
38245,-86.9565217391304,4,3,1,33,0,8
38501,441.176470588235,4,3,1,33,1,0
38501,-86.9565217391304,4,3,1,33,0,0
39162,500,4,3,1,33,1,8
39162,-86.9565217391304,4,3,1,33,0,8
39412,441.176470588235,4,3,1,33,1,8
39412,-86.9565217391304,4,3,1,33,0,8
40073,504.201680672269,4,3,1,33,1,8
40073,-86.9565217391304,4,3,1,33,0,8
40325,441.176470588235,4,3,1,33,1,0
40325,-86.9565217391304,4,3,1,33,0,0
40766,461.538461538462,4,3,1,33,1,8
40766,-86.9565217391304,4,3,1,33,0,8
42150,468.75,4,3,1,33,1,0
42150,-86.9565217391304,4,3,1,33,0,0
43087,428.571428571429,4,3,1,33,1,8
43087,-86.9565217391304,4,3,1,33,0,8
43515,500,4,3,1,33,1,8
44015,447.761194029851,4,3,1,33,1,0
44015,-86.9565217391304,4,3,1,33,0,0
45582,476.190476190476,4,3,1,33,1,8
45582,-86.9565217391304,4,3,1,33,0,8
45820,428.571428571429,4,3,1,33,1,0
45820,-86.9565217391304,4,3,1,33,0,0
46248,400,4,3,1,33,1,8
46248,-86.9565217391304,4,3,1,33,0,8
46448,500,4,3,1,33,1,8
46448,-86.9565217391304,4,3,1,33,0,8
46698,428.571428571429,4,3,1,33,1,8
46698,-86.9565217391304,4,3,1,33,0,8
47340,458.015267175573,4,3,1,33,1,8
47340,-86.9565217391304,4,3,1,33,0,8
47569,424.028268551237,4,3,1,33,1,0
47569,-86.9565217391304,4,3,1,33,0,0
50113,394.736842105263,4,3,1,33,1,8
50113,-86.9565217391304,4,3,1,33,0,8
50507,454.545454545455,4,3,1,33,1,8
50961,408.163265306122,4,3,1,33,1,0
50961,-95.2380952380952,4,3,1,33,0,0
52389,451.127819548872,4,3,1,33,1,8
52389,-95.2380952380952,4,3,1,33,0,8
52614,389.61038961039,4,3,1,33,1,0
52614,-95.2380952380952,4,3,1,33,0,0
53977,437.956204379562,4,3,1,33,1,8
53977,-95.2380952380952,4,3,1,33,0,8
54195,387.096774193548,4,3,1,33,1,0
54195,-95.2380952380952,4,3,1,33,0,0
55549,434.782608695652,4,3,1,33,1,8
55549,-95.2380952380952,4,3,1,33,0,8
55766,361.44578313253,4,3,1,33,1,0
55766,-95.2380952380952,4,3,1,33,0,0
56308,434.782608695652,4,3,1,33,1,8
56525,348.837209302326,4,3,1,33,1,8
56525,-95.2380952380952,4,3,1,33,0,8
56873,392.156862745098,4,3,1,33,1,8
57265,377.358490566038,4,3,1,33,1,0
57265,-95.2380952380952,4,3,1,33,0,8
58019,363.636363636364,4,3,1,33,1,8
58019,-105.263157894737,4,3,1,33,0,8
58382,-96.1538461538461,4,3,1,33,0,8
58564,444.444444444444,4,3,1,33,1,8
58564,-105.263157894737,4,3,1,33,0,8
58786,344.827586206897,4,3,1,33,1,0
58786,-105.263157894737,4,3,1,33,0,0
59130,-100,4,3,1,33,0,0
59303,400,4,3,1,33,1,8
59303,-105.263157894737,4,3,1,33,0,8
59503,329.67032967033,4,3,1,33,1,8
59503,-105.263157894737,4,3,1,33,0,8
59997,387.096774193548,4,3,1,33,1,8
59997,-105.263157894737,4,3,1,33,0,8
60190,357.142857142857,4,3,1,33,1,0
60190,-105.263157894737,4,3,1,33,0,0
60547,342.465753424658,4,3,1,33,1,8
61231,-105.263157894737,4,3,1,33,0,8
61403,382.165605095541,4,3,1,33,1,8
61594,335.195530726257,4,3,1,33,1,0
61929,-105.263157894737,4,3,1,33,0,0
62096,355.029585798817,4,3,1,33,1,8
62273,312.5,4,3,1,33,1,8
62273,-105.263157894737,4,3,1,33,0,8
62585,361.44578313253,4,3,1,33,1,8
62585,-105.263157894737,4,3,1,33,0,8
62946,363.636363636364,4,3,1,33,1,0
62946,-105.263157894737,4,3,1,33,0,0
63127,342.857142857143,4,3,1,33,1,8
63298,327.868852459016,4,3,1,33,1,8
63298,-105.263157894737,4,3,1,33,0,8
63953,319.148936170213,4,3,1,33,1,8
64272,319.148936170213,4,3,1,33,1,0
64272,-105.263157894737,4,3,1,33,0,0
65229,352.941176470588,4,3,1,33,1,8
65581,323.450134770889,4,3,1,33,1,0
65581,-105.263157894737,4,3,1,33,0,0
67521,329.67032967033,4,3,1,33,1,8
67521,-105.263157894737,4,3,1,33,0,8
68180,315.789473684211,4,3,1,33,1,0
68180,-105.263157894737,4,3,1,33,0,0
69443,312.5,4,3,1,33,1,0
69443,-105.263157894737,4,3,1,33,0,0
70380,338.983050847458,4,3,1,33,1,8
70718,314.13612565445,4,3,1,33,1,0
70718,-105.263157894737,4,3,1,33,0,0
73231,306.122448979592,4,3,1,33,1,0
73231,-105.263157894737,4,3,1,33,0,0
74455,309.278350515464,4,3,1,33,1,0
74455,-105.263157894737,4,3,1,33,0,0
79403,307.692307692308,4,3,1,37,1,0
79403,-105.263157894737,4,3,1,37,0,0
80633,-105.263157894737,4,3,1,42,0,0
81864,310.880829015544,4,3,1,46,1,0
81864,-105.263157894737,4,3,1,46,0,0
82952,324.324324324324,4,3,1,46,1,8
83114,312.5,4,3,1,40,1,0
84363,304.568527918782,4,3,1,40,1,0
85581,312.5,4,3,1,40,1,0
86831,304.568527918782,4,3,1,40,1,0
88049,356.083086053412,4,3,1,40,1,0
88049,-105.263157894737,4,3,1,40,0,0
88405,326.086956521739,4,3,1,40,1,8
88405,-105.263157894737,4,3,1,40,0,8
89057,315.789473684211,4,3,1,40,1,8
89057,-105.263157894737,4,3,1,40,0,8
89372,315.789473684211,4,3,1,40,1,0
89372,-105.263157894737,4,3,1,40,0,0
90319,326.086956521739,4,3,1,40,1,8
90319,-105.263157894737,4,3,1,40,0,8
90645,317.460317460317,4,3,1,40,1,0
90645,-105.263157894737,4,3,1,40,0,0
90962,-105.263157894737,4,3,1,40,0,0
91279,-105.263157894737,4,3,1,40,0,0
91597,-105.263157894737,4,3,1,40,0,0
91914,-105.263157894737,4,3,1,40,0,0
92549,333.333333333333,4,3,1,40,1,8
92549,-105.263157894737,4,3,1,40,0,8
93215,314.13612565445,4,3,1,40,1,0
93215,-105.263157894737,4,3,1,40,0,0
94157,338.983050847458,4,3,1,40,1,8
94157,-105.263157894737,4,3,1,40,0,8
94495,310.880829015544,4,3,1,40,1,0
94495,-105.263157894737,4,3,1,40,0,0
95427,337.078651685393,4,3,1,40,1,8
95427,-105.263157894737,4,3,1,40,0,8
95764,320.855614973262,4,3,1,40,1,0
95764,-105.263157894737,4,3,1,40,0,0
96084,-105.263157894737,4,3,1,40,0,0
96405,-105.263157894737,4,3,1,40,0,0
96726,-105.263157894737,4,3,1,40,0,0
98330,333.333333333333,4,3,1,40,1,0
98330,-105.263157894737,4,3,1,40,0,0
98663,319.148936170213,4,3,1,40,1,8
98663,-105.263157894737,4,3,1,40,0,8
99620,319.148936170213,4,3,1,40,1,0
99620,-105.263157894737,4,3,1,40,0,0
100896,312.5,4,3,1,40,1,0
100896,-105.263157894737,4,3,1,40,0,0
101521,-105.263157894737,4,3,1,40,0,0
102146,301.507537688442,4,3,1,40,1,0
102146,-105.263157894737,4,3,1,40,0,0
103352,299.25187032419,4,3,1,40,1,0
103352,-105.263157894737,4,3,1,40,0,0
105746,292.682926829268,4,3,1,40,1,0
105746,-105.263157894737,4,3,1,40,0,0
106038,-105.263157894737,4,3,1,40,0,0
106624,-105.263157894737,4,3,1,40,0,0
106916,272.727272727273,4,3,1,33,1,0
106916,-105.263157894737,4,3,1,33,0,0
107461,304.568527918782,4,3,1,33,1,8
107461,-105.263157894737,4,3,1,33,0,8
108070,280.373831775701,4,3,1,45,1,1
108070,-105.263157894737,4,3,1,45,0,1
110312,284.36018957346,4,3,1,45,1,1
110312,-105.263157894737,4,3,1,45,0,1
112018,291.26213592233,4,3,1,45,1,9
112018,-105.263157894737,4,3,1,45,0,9
112309,-105.263157894737,4,3,1,45,0,9
112600,287.081339712919,4,3,1,45,1,1
112600,-105.263157894737,4,3,1,45,0,1
114322,297.029702970297,4,3,1,45,1,9
114322,-105.263157894737,4,3,1,45,0,9
114916,266.666666666667,4,3,1,45,1,1
114916,-105.263157894737,4,3,1,45,0,1
115982,299.25187032419,4,3,1,45,1,1
115982,-105.263157894737,4,3,1,45,0,1
116281,271.493212669683,4,3,1,45,1,9
116552,300,4,3,1,45,1,9
116552,-105.263157894737,4,3,1,45,0,9
117152,280.373831775701,4,3,1,45,1,1
117152,-105.263157894737,4,3,1,45,0,1
117712,-105.263157894737,4,3,1,45,0,1
117993,285.714285714286,4,3,1,45,1,9
117993,-105.263157894737,4,3,1,45,0,9
118278,279.06976744186,4,3,1,45,1,1
118278,-105.263157894737,4,3,1,45,0,1
118557,300,4,3,1,45,1,9
118557,-105.263157894737,4,3,1,45,0,9
118857,285.714285714286,4,3,1,45,1,9
118857,-105.263157894737,4,3,1,45,0,9
119428,281.69014084507,4,3,1,45,1,1
119428,-105.263157894737,4,3,1,45,0,1
121681,272.727272727273,4,3,1,45,1,1
121681,-105.263157894737,4,3,1,45,0,1
122499,245.901639344262,4,3,1,45,1,9
122499,-105.263157894737,4,3,1,45,0,9
122744,269.058295964126,4,3,1,45,1,1
122744,-105.263157894737,4,3,1,45,0,1
123820,265.486725663717,4,3,1,45,1,1
123820,-105.263157894737,4,3,1,45,0,1
125678,-105.263157894737,4,3,1,45,0,0
125943,254.237288135593,4,3,1,50,1,1
125943,-111.111111111111,4,3,1,50,0,1
127722,-111.111111111111,4,3,1,50,0,1
127976,269.058295964126,4,3,1,50,1,1
127976,-111.111111111111,4,3,1,50,0,1
129052,253.164556962025,4,3,1,50,1,1
129052,-111.111111111111,4,3,1,50,0,1
129558,285.714285714286,4,3,1,50,1,9
129558,-111.111111111111,4,3,1,50,0,9
130129,229.007633587786,4,3,1,50,1,1
130129,-111.111111111111,4,3,1,50,0,1
130358,260.869565217391,4,3,1,50,1,9
130358,-111.111111111111,4,3,1,50,0,9
131140,260.869565217391,4,3,1,50,1,1
131140,-111.111111111111,4,3,1,50,0,1
132966,236.220472440945,4,3,1,50,1,9
133202,256.410256410256,4,3,1,50,1,1
133202,-111.111111111111,4,3,1,50,0,1
133714,279.06976744186,4,3,1,50,1,9
133714,-111.111111111111,4,3,1,50,0,9
134272,266.666666666667,4,3,1,57,1,0
135338,257.510729613734,4,3,1,57,1,0
136368,263.504611330698,4,3,1,57,1,0
136368,-111.111111111111,4,3,1,57,0,0
138476,242.914979757085,4,3,1,70,1,0

[Colours]
Combo1 : 176,38,38
Combo2 : 133,140,128
Combo3 : 135,121,116
Combo4 : 156,117,58
Combo5 : 164,159,151
Combo6 : 136,74,60
Combo7 : 135,131,120

[HitObjects]
12,304,7198,6,0,P|50:311|90:312,1,67.5,2|0,0:0|0:0,0:0:0:0:
176,286,8165,2,0,P|203:275|243:263,1,67.5000025749208
339,279,9150,1,0,0:0:0:0:
438,273,9662,1,0,0:0:0:0:
506,200,10175,1,0,0:0:0:0:
337,122,11135,5,0,0:0:0:0:
243,156,11652,1,0,0:0:0:0:
143,149,12169,1,0,0:0:0:0:
25,281,13169,1,0,0:0:0:0:
113,329,13669,1,0,0:0:0:0:
212,325,14169,1,0,0:0:0:0:
212,325,15152,86,0,P|253:334|304:336,1,67.5000025749208,2|0,0:0|0:0,0:0:0:0:
379,332,16144,2,0,P|438:310|454:297,1,67.5000025749208
477,210,17152,2,0,L|408:217,1,67.5000025749208,0|0,0:0|0:0,0:0:0:0:
311,192,18143,1,0,0:0:0:0:
246,115,18660,1,0,0:0:0:0:
151,84,19177,6,0,P|116:87|77:97,1,67.5000025749208
39,185,20153,2,0,P|92:214|111:221,1,67.5000025749208
193,185,21227,1,0,0:0:0:0:
491,303,23341,86,0,P|462:340|432:368,1,67.5000025749208,2|0,0:0|0:0,0:0:0:0:
350,372,24317,2,0,P|298:365|252:365,1,67.5000025749208
185,376,25280,1,0,0:0:0:0:
129,292,25780,1,0,0:0:0:0:
46,237,26280,1,0,0:0:0:0:
38,43,27288,5,0,0:0:0:0:
138,33,27803,1,0,0:0:0:0:
233,64,28318,1,0,0:0:0:0:
307,246,29293,1,0,0:0:0:0:
398,203,29804,1,0,0:0:0:0:
446,117,30316,1,0,0:0:0:0:
446,117,31311,86,0,P|473:159|500:192,1,67.5000025749208,2|0,0:0|0:0,0:0:0:0:
480,266,32289,2,0,L|408:275,1,67.5000025749208
324,238,33265,1,0,0:0:0:0:
271,317,33683,54,0,B|230:322|230:322|192:319,1,78.7500007510185,4|0,0:0|0:0,0:0:0:0:
129,256,34305,2,0,B|162:235|162:235|191:204,1,74.2500007081032
196,128,34880,69,4,0:0:0:0:
140,65,35155,2,0,B|106:74|106:74|65:75,2,67.5000025749208,0|0|0,0:0|0:0|0:0,0:0:0:0:
221,48,35930,6,0,B|257:53|257:53|295:68,1,67.5000025749208,4|0,0:0|0:0,0:0:0:0:
350,111,36432,1,0,0:0:0:0:
376,186,36676,6,0,L|389:299,1,103.500001974106,4|2,0:0|0:0,0:0:0:0:
315,363,37584,1,4,0:0:0:0:
230,302,38025,2,0,L|157:295,1,51.7500009870529,2|0,0:0|0:0,0:0:0:0:
138,327,38501,1,4,0:0:0:0:
47,273,38942,2,0,L|41:204,1,51.7500009870529,2|0,0:0|0:0,0:0:0:0:
15,180,39412,1,4,0:0:0:0:
84,103,39853,2,0,L|92:31,1,51.7500009870529,2|0,0:0|0:0,0:0:0:0:
129,20,40325,54,0,B|181:33|181:33|237:63,1,103.500001974106,4|2,0:0|0:0,0:0:0:0:
293,134,41227,2,0,B|333:168|333:168|390:197,1,103.500001974106,4|2,0:0|0:0,0:0:0:0:
478,210,42150,1,4,0:0:0:0:
510,310,42618,1,2,0:0:0:0:
403,286,43087,2,0,B|316:271|316:271|294:263,1,103.500001974106,4|2,0:0|0:0,0:0:0:0:
217,334,44015,6,0,B|165:344|165:344|108:341,1,103.500001974106,4|2,0:0|0:0,0:0:0:0:
19,300,44910,1,4,0:0:0:0:
80,216,45358,2,0,L|148:223,1,51.7500009870529,2|0,0:0|0:0,0:0:0:0:
172,249,45820,1,4,0:0:0:0:
276,213,46248,2,0,L|337:210,1,51.7500009870529,2|0,0:0|0:0,0:0:0:0:
372,236,46698,1,4,0:0:0:0:
454,173,47126,2,0,L|463:120,1,51.7500009870529,2|0,0:0|0:0,0:0:0:0:
432,81,47569,6,0,B|385:97|385:97|317:105,1,103.500001974106,4|2,0:0|0:0,0:0:0:0:
229,85,48417,2,0,B|181:66|181:66|108:61,1,103.500001974106,4|2,0:0|0:0,0:0:0:0:
91,158,49265,1,4,0:0:0:0:
115,258,49689,1,2,0:0:0:0:
188,188,50113,2,0,B|263:185|263:185|297:188,1,103.500001974106,4|2,0:0|0:0,0:0:0:0:
332,94,50961,6,0,B|281:100|281:100|235:100,2,94.499997116089,4|2|4,0:0|0:0|0:0,0:0:0:0:
435,89,52185,2,0,L|438:147,1,47.2499985580445,2|0,0:0|0:0,0:0:0:0:
458,181,52614,1,4,0:0:0:0:
394,250,53003,2,0,L|345:257,1,47.2499985580445,2|0,0:0|0:0,0:0:0:0:
310,287,53393,1,4,0:0:0:0:
234,230,53782,2,0,L|166:222,1,47.2499985580445,2|0,0:0|0:0,0:0:0:0:
139,241,54195,54,0,B|131:289|131:289|114:345,2,94.499997116089,4|2|4,0:0|0:0|0:0,0:0:0:0:
142,143,55356,2,0,L|137:75,1,47.2499985580445,2|0,0:0|0:0,0:0:0:0:
158,50,55766,1,4,0:0:0:0:
254,72,56127,2,0,L|312:69,1,47.2499985580445,2|0,0:0|0:0,0:0:0:0:
349,86,56525,2,0,B|422:92|422:92|451:91,1,94.499997116089,4|2,0:0|0:0,0:0:0:0:
395,178,57265,6,0,B|348:180|348:180|282:195,1,94.499997116089,4|2,0:0|0:0,0:0:0:0:
228,255,58019,1,4,0:0:0:0:
152,195,58382,2,0,L|88:191,1,46.7999997143555,2|0,0:0|0:0,0:0:0:0:
59,210,58786,1,4,0:0:0:0:
81,306,59130,2,0,L|143:311,1,45,2|0,0:0|0:0,0:0:0:0:
169,336,59503,2,0,B|210:351|210:351|268:356,1,85.4999977169037,4|2,0:0|0:0,0:0:0:0:
294,329,59997,1,0,0:0:0:0:
335,296,60190,6,0,B|378:267|378:267|425:253,1,85.4999977169037,4|2,0:0|0:0,0:0:0:0:
365,174,60889,1,4,0:0:0:0:
271,163,61231,2,0,L|262:108,1,42.7499988584519,2|0,0:0|0:0,0:0:0:0:
288,80,61594,1,4,0:0:0:0:
205,32,61929,2,0,L|148:20,1,42.7499988584519,2|0,0:0|0:0,0:0:0:0:
113,36,62273,2,0,B|108:79|108:79|94:125,1,85.4999977169037,4|2,0:0|0:0,0:0:0:0:
111,213,62946,6,0,B|128:252|128:252|140:304,1,83,12|0,0:0|0:0,0:0:0:0:
210,353,63625,2,0,L|255:359,2,42.7499988584519,4|0|0,0:0|0:0|0:0,0:0:0:0:
246,265,64272,2,0,L|305:275,2,42.7499988584519,4|0|0,0:0|0:0|0:0,0:0:0:0:
286,180,64910,2,0,L|339:197,2,42.7499988584519,4|0|0,0:0|0:0|0:0,0:0:0:0:
353,103,65581,54,0,B|396:120|396:120|448:127,2,85.4999977169037,4|0|4,0:0|0:0|0:0,0:0:0:0:
263,72,66551,1,0,0:0:0:0:
182,120,66874,2,0,B|143:142|143:142|94:153,1,85.4999977169037,4|0,0:0|0:0,0:0:0:0:
26,101,67521,1,4,0:0:0:0:
53,295,68180,6,0,L|151:309,1,85.4999977169037,12|0,0:0|0:0,0:0:0:0:
224,271,68811,2,0,L|213:219,2,42.7499988584519,4|0|0,0:0|0:0|0:0,0:0:0:0:
318,261,69443,2,0,L|321:211,2,42.7499988584519,4|0|0,0:0|0:0|0:0,0:0:0:0:
406,291,70068,2,0,L|426:244,2,42.7499988584519,4|0|0,0:0|0:0|0:0,0:0:0:0:
349,375,70718,6,0,L|258:383,1,85.4999977169037,4|0,0:0|0:0,0:0:0:0:
200,313,71346,2,0,B|209:234|209:234|200:182,2,128.249996575356,4|4|4,0:0|0:0|0:0,0:0:0:0:
134,380,72602,1,4,0:0:0:0:
45,349,72916,1,4,0:0:0:0:
30,255,73231,6,0,L|21:150,1,85.4999977169037,12|0,0:0|0:0,0:0:0:0:
116,181,73843,2,0,B|158:188|158:188|218:187,1,85.4999977169037,4|0,0:0|0:0,0:0:0:0:
271,126,74455,1,4,0:0:0:0:
190,77,74764,1,0,0:0:0:0:
253,7,75073,2,0,B|294:6|294:6|348:15,1,85.4999977169037,4|0,0:0|0:0,0:0:0:0:
416,65,75692,54,0,B|421:110|421:110|440:164,1,85.4999977169037,4|0,0:0|0:0,0:0:0:0:
425,241,76310,1,4,0:0:0:0:
332,222,76619,1,0,0:0:0:0:
266,290,76929,2,0,B|295:323|295:323|337:353,2,85.4999977169037,4|0|4,0:0|0:0|0:0,0:0:0:0:
238,199,77857,1,0,0:0:0:0:
147,222,78166,6,0,L|43:229,1,85.4999977169037,12|0,0:0|0:0,0:0:0:0:
23,141,78784,2,0,B|62:126|62:126|108:95,1,85.4999977169037,4|0,0:0|0:0,0:0:0:0:
162,31,79403,1,4,0:0:0:0:
231,93,79710,1,0,0:0:0:0:
314,49,80018,2,0,B|355:63|355:63|402:89,1,85.4999977169037,4|0,0:0|0:0,0:0:0:0:
420,172,80633,6,0,L|326:186,1,85.4999977169037,4|0,0:0|0:0,0:0:0:0:
289,267,81249,2,0,B|332:272|332:272|382:291,1,85.4999977169037,12|0,0:0|0:0,0:0:0:0:
339,374,81864,1,4,0:0:0:0:
245,383,82174,1,0,0:0:0:0:
167,329,82485,1,4,0:0:0:0:
139,239,82796,1,0,0:0:0:0:
178,149,83114,6,0,L|231:161,2,45,12|0|8,0:2|0:0|0:0,0:0:0:0:
236,69,83739,2,0,L|293:63,2,45,8|0|8,0:2|0:0|0:0,0:0:0:0:
135,56,84364,2,0,L|92:29,2,45,8|0|8,0:2|0:0|0:0,0:0:0:0:
85,142,84972,2,0,L|37:178,1,45,8|0,0:2|0:0,0:0:0:0:
2,186,85276,1,8,0:0:0:0:
8,282,85581,54,0,L|-10:334,2,45,8|0|8,0:2|0:0|0:0,0:0:0:0:
98,322,86206,2,0,L|92:383,2,45,8|0|8,0:2|0:0|0:0,0:0:0:0:
119,222,86831,2,0,L|124:163,2,45,8|0|8,0:2|0:0|0:0,0:0:0:0:
207,266,87440,2,0,L|242:229,2,45,8|0|8,0:2|0:0|0:0,0:0:0:0:
208,358,88049,5,12,0:2:0:0:
302,375,88405,1,0,0:0:0:0:
349,293,88731,2,0,B|386:268|386:268|428:255,1,85.4999977169037,4|0,0:0|0:0,0:0:0:0:
371,178,89372,2,0,B|330:170|330:170|288:150,1,85.4999977169037,4|0,0:0|0:0,0:0:0:0:
226,82,90003,2,0,B|182:87|182:87|134:106,1,85.4999977169037,4|0,0:0|0:0,0:0:0:0:
146,198,90645,6,0,B|187:209|187:209|233:237,2,85.4999977169037,4|0|4,0:0|0:0|0:0,0:0:0:0:
51,202,91597,1,0,0:0:0:0:
64,294,91914,2,0,B|108:298|108:298|163:286,1,85.4999977169037,4|0,0:0|0:0,0:0:0:0:
224,231,92549,1,4,0:0:0:0:
421,258,93215,5,4,0:0:0:0:
469,177,93529,1,0,0:0:0:0:
435,89,93843,2,0,B|392:78|392:78|344:56,1,85.4999977169037,4|0,0:0|0:0,0:0:0:0:
259,49,94495,2,0,B|215:52|215:52|167:68,1,85.4999977169037,4|0,0:0|0:0,0:0:0:0:
226,144,95116,2,0,B|269:150|269:150|322:167,1,85.4999977169037,4|0,0:0|0:0,0:0:0:0:
248,240,95764,54,0,B|203:242|203:242|152:260,2,85.4999977169037,4|0|4,0:0|0:0|0:0,0:0:0:0:
340,256,96726,1,0,0:0:0:0:
401,184,97047,2,0,B|438:156|438:156|490:134,1,85.4999977169037,4|0,0:0|0:0,0:0:0:0:
496,49,97689,1,4,0:0:0:0:
325,108,98330,5,4,0:0:0:0:
229,84,98663,1,0,0:0:0:0:
151,30,98982,2,0,B|107:22|107:22|57:27,1,85.4999977169037,4|0,0:0|0:0,0:0:0:0:
25,110,99620,2,0,B|61:137|61:137|93:181,1,85.4999977169037,4|0,0:0|0:0,0:0:0:0:
110,260,100258,2,0,B|152:276|152:276|210:282,1,85.4999977169037,4|0,0:0|0:0,0:0:0:0:
285,258,100896,5,4,0:0:0:0:
250,170,101208,1,0,0:0:0:0:
341,183,101521,2,0,B|383:186|383:186|436:179,1,85.4999977169037,4|0,0:0|0:0,0:0:0:0:
466,91,102146,2,0,B|448:53|448:53|410:14,2,85.4999977169037,4|0|4,0:0|0:0|0:0,0:0:0:0:
465,282,103352,5,4,0:0:0:0:
377,317,103651,1,0,0:0:0:0:
294,271,103950,2,0,B|254:252|254:252|212:244,1,85.4999977169037,4|0,0:0|0:0,0:0:0:0:
119,233,104549,2,0,B|102:191|102:191|93:132,1,85.4999977169037,4|0,0:0|0:0,0:0:0:0:
187,130,105147,2,0,B|227:148|227:148|277:157,1,85.4999977169037,4|0,0:0|0:0,0:0:0:0:
361,179,105746,54,0,B|352:221|352:221|353:274,2,85.4999977169037,4|0|4,0:0|0:0|0:0,0:0:0:0:
395,91,106624,1,0,0:0:0:0:
341,12,106916,1,4,0:0:0:0:
172,12,107461,1,4,0:0:0:0:
256,164,108070,70,0,B|247:205|247:205|224:256,2,85.4999977169037,14|8|4,0:2|0:0|0:0,0:0:0:0:
228,82,108911,1,8,0:0:0:0:
146,107,109191,2,0,B|103:98|103:98|51:77,1,85.4999977169037,4|8,0:0|0:0,0:0:0:0:
0,138,109752,2,0,B|15:177|15:177|19:230,1,85.4999977169037,4|8,0:0|0:0,0:0:0:0:
17,307,110312,53,4,0:0:0:0:
80,366,110596,1,8,0:0:0:0:
160,337,110880,2,0,B|202:329|202:329|259:330,1,85.4999977169037,4|8,0:0|0:0,0:0:0:0:
329,340,111449,2,0,B|362:366|362:366|407:386,2,85.4999977169037,4|8|4,0:0|0:0|0:0,0:0:0:0:
231,196,112600,5,4,0:0:0:0:
146,204,112887,1,8,0:0:0:0:
97,133,113174,2,0,B|69:98|69:98|29:72,1,85.4999977169037,4|8,0:0|0:0,0:0:0:0:
94,15,113748,2,0,L|191:24,1,85.4999977169037,4|8,0:0|0:0,0:0:0:0:
247,73,114322,2,0,B|268:107|268:107|308:144,1,85.4999977169037,4|8,0:0|0:0,0:0:0:0:
385,123,114916,6,0,L|396:37,2,85.4999977169037,4|8|4,0:0|0:0|0:0,0:0:0:0:
409,206,115716,1,8,0:0:0:0:
383,288,115982,2,0,B|345:310|345:310|295:320,1,85.4999977169037,4|8,0:0|0:0,0:0:0:0:
220,293,116552,1,4,0:0:0:0:
300,108,117152,5,4,0:0:0:0:
216,121,117432,1,8,0:0:0:0:
132,112,117712,2,0,B|87:111|87:111|45:124,1,85.4999977169037,4|8,0:0|0:0,0:0:0:0:
64,209,118278,2,0,B|60:252|60:252|46:293,1,85.4999977169037,4|8,0:0|0:0,0:0:0:0:
110,354,118857,2,0,L|196:340,1,85.4999977169037,4|8,0:0|0:0,0:0:0:0:
280,352,119428,54,0,B|315:375|315:375|369:384,2,85.4999977169037,4|8|4,0:0|0:0|0:0,0:0:0:0:
247,272,120273,1,8,0:0:0:0:
325,237,120554,2,0,B|359:213|359:213|393:177,1,85.4999977169037,4|8,0:0|0:0,0:0:0:0:
406,96,121118,1,4,0:0:0:0:
255,188,121681,6,0,B|212:197|212:197|168:193,2,85.4999977169037,4|8|4,0:0|0:0|0:0,0:0:0:0:
300,117,122499,1,8,0:0:0:0:
249,50,122744,2,0,B|205:58|205:58|156:84,1,85.4999977169037,4|8,0:0|0:0,0:0:0:0:
110,139,123282,2,0,B|73:162|73:162|24:175,1,85.4999977169037,4|8,0:0|0:0,0:0:0:0:
64,253,123820,5,4,0:0:0:0:
141,289,124085,1,8,0:0:0:0:
226,283,124350,2,0,B|269:276|269:276|324:280,1,85.4999977169037,4|8,0:0|0:0,0:0:0:0:
389,311,124881,2,0,B|364:346|364:346|326:380,2,85.4999977169037,4|8|4,0:0|0:0|0:0,0:0:0:0:
420,144,125943,6,0,B|449:117|449:117|489:95,2,80.9999975280763,14|8|4,0:2|0:0|0:0,0:0:0:0:
359,197,126705,1,8,0:0:0:0:
278,208,126959,2,0,L|190:199,1,80.9999975280763,4|8,0:0|0:0,0:0:0:0:
118,180,127468,2,0,B|77:189|77:189|25:214,1,80.9999975280763,4|8,0:0|0:0,0:0:0:0:
0,136,127976,53,4,0:0:0:0:
65,87,128245,1,8,0:0:0:0:
145,88,128514,2,0,B|185:90|185:90|237:83,1,80.9999975280763,4|8,0:0|0:0,0:0:0:0:
306,103,129052,2,0,B|344:118|344:118|401:124,1,80.9999975280763,4|8,0:0|0:0,0:0:0:0:
460,89,129558,1,4,0:0:0:0:
445,290,130129,6,0,L|434:380,1,80.9999975280763,12|8,0:2|0:0,0:0:0:0:
359,341,130618,2,0,B|322:318|322:318|285:307,1,80.9999975280763,4|8,0:0|0:0,0:0:0:0:
235,243,131140,2,0,B|266:215|266:215|297:177,1,80.9999975280763,4|8,0:0|0:0,0:0:0:0:
306,103,131661,2,0,B|270:81|270:81|224:67,1,80.9999975280763,4|8,0:0|0:0,0:0:0:0:
154,91,132183,5,4,0:0:0:0:
93,144,132444,1,8,0:0:0:0:
93,225,132705,2,0,B|130:242|130:242|169:277,1,80.9999975280763,4|8,0:0|0:0,0:0:0:0:
203,339,133202,1,4,0:0:0:0:
282,326,133458,1,8,0:0:0:0:
358,357,133714,2,0,B|396:366|396:366|449:362,1,80.9999975280763,4|8,0:0|0:0,0:0:0:0:
489,293,134272,85,12,0:2:0:0:
496,208,134538,1,8,0:2:0:0:
326,222,135338,5,12,0:2:0:0:
316,137,135595,1,8,0:2:0:0:
157,213,136368,86,0,B|135:248|135:248|119:299,1,80.9999975280763,12|10,0:2|0:0,0:0:0:0:
42,278,136895,2,0,B|54:238|54:238|57:185,1,80.9999975280763,8|10,0:2|0:0,0:0:0:0:
37,118,137422,2,0,B|28:75|28:75|32:34,1,80.9999975280763,8|10,0:2|0:0,0:0:0:0:
111,22,137949,2,0,L|200:33,1,80.9999975280763,8|10,0:2|0:0,0:0:0:0:
267,63,138476,21,12,0:2:0:0:
338,21,138718,1,14,0:2:0:0:
