osu file format v14

[General]
AudioFilename: mountainkinglive.mp3
AudioLeadIn: 0
PreviewTime: 54148
Countdown: 0
SampleSet: Soft
StackLeniency: 0.7
Mode: 0
LetterboxInBreaks: 1
WidescreenStoryboard: 1

[Editor]
Bookmarks: 97084,120863,185371
DistanceSpacing: 1.3
BeatDivisor: 4
GridSize: 4
TimelineZoom: 1.30272

[Metadata]
Title:Hall of the Mountain King
TitleUnicode:Hall of the Mountain King
Artist:Apocalyptica
ArtistUnicode:Apocalyptica
Creator:pishifat
Version:III
Source:
Tags:live speed increase cello thrash symphonic orchestral classical cult edvard grieg life burns tour even better
BeatmapID:753730
BeatmapSetID:340399

[Difficulty]
HPDrainRate:5
CircleSize:3.5
OverallDifficulty:5
ApproachRate:6
SliderMultiplier:0.9
SliderTickRate:1

[Events]
//Background and Video events
0,0,"jpg.jpg",0,0
//Break Periods
2,100556,111433
2,144070,151087
//Storyboard Layer 0 (Background)
//Storyboard Layer 1 (Fail)
//Storyboard Layer 2 (Pass)
//Storyboard Layer 3 (Foreground)
//Storyboard Sound Samples

[TimingPoints]
25407,1764.70588235294,4,2,1,50,1,0
25407,-50,4,2,1,50,0,0
26289,1739.13043478261,4,2,1,50,1,0
27158,1621.62162162162,4,2,1,50,1,0
27158,-50,4,2,1,50,0,0
27968,1538.46153846154,4,2,1,50,1,0
28737,1509.43396226415,4,2,1,50,1,0
28737,-50,4,2,1,50,0,0
30246,1371.42857142857,4,2,1,50,1,0
31617,1445.78313253012,4,2,1,50,1,0
31617,-50,4,2,1,50,0,0
33062,1363.63636363636,4,2,1,50,1,0
34425,1387.28323699422,4,2,1,50,1,0
34425,-50,4,2,1,50,0,0
35812,1297.2972972973,4,2,1,50,1,0
37109,1206.03015075377,4,2,1,50,1,0
37109,-50,4,2,1,50,0,0
37712,1153.84615384615,4,2,1,50,1,0
38288,1132.07547169811,4,2,1,50,1,0
38288,-50,4,2,1,50,0,0
39420,1016.94915254237,4,2,1,50,1,0
39420,-50,4,2,1,50,0,0
40436,916.030534351145,4,2,1,50,1,0
40436,-50,4,2,1,50,0,0
41352,845.070422535211,4,2,1,50,1,0
41352,-52.6315789473684,4,2,1,50,0,0
43042,764.331210191083,4,2,1,50,1,0
43042,-58.8235294117647,4,2,1,50,0,0
44570,779.220779220779,4,2,1,50,1,0
44570,-58.8235294117647,4,2,1,50,0,0
44959,710.059171597633,4,2,1,50,1,0
45314,701.754385964912,4,2,1,50,1,0
45314,-58.8235294117647,4,2,1,50,0,0
45664,677.966101694915,4,2,1,50,1,0
46002,677.966101694915,4,2,1,50,1,0
46002,-59.8802395209581,4,2,1,50,0,0
47357,652.173913043478,4,2,1,50,1,0
47357,-66.6666666666667,4,2,1,50,0,0
48009,634.920634920635,4,2,1,50,1,0
48643,652.173913043478,4,2,1,50,1,0
48643,-66.6666666666667,4,2,1,50,0,0
49295,634.920634920635,4,2,1,50,1,0
49929,600,4,2,1,50,1,0
49929,-71.4285714285714,4,2,1,50,0,0
51129,574.162679425837,4,2,1,50,1,0
51416,-74.0740740740741,4,2,1,60,0,0
51703,550.45871559633,4,2,1,60,1,0
51978,535.714285714286,4,2,1,60,1,0
52245,535.714285714286,4,2,1,60,1,0
52512,515.021459227468,4,2,1,60,1,0
52512,-80,4,2,1,60,0,0
52769,515.021459227468,4,2,1,60,1,0
53284,493.827160493827,4,2,1,60,1,0
53530,-90.9090909090909,4,2,1,60,0,0
54271,444.444444444444,4,2,1,60,1,0
55604,428.571428571429,4,2,1,60,1,0
56032,413.793103448276,4,2,1,60,1,0
57687,394.736842105263,4,2,1,60,1,0
59265,382.165605095541,4,2,1,60,1,0
61940,370.37037037037,4,2,1,60,1,0
62310,359.281437125748,4,2,1,60,1,0
64824,337.078651685393,4,2,1,60,1,0
65161,337.078651685393,4,2,1,60,1,0
66509,329.67032967033,4,2,1,60,1,0
66509,-105.263157894737,4,2,1,60,0,0
67498,315.789473684211,4,2,1,60,1,0
67498,-105.263157894737,4,2,1,60,0,0
67813,315.789473684211,4,2,1,60,1,0
67813,-105.263157894737,4,2,1,60,0,0
69076,309.278350515464,4,2,1,60,1,0
69076,-105.263157894737,4,2,1,60,0,0
70313,303.030303030303,4,2,1,60,1,0
70313,-108.695652173913,4,2,1,60,0,0
71525,291.26213592233,4,2,1,60,1,0
71525,-109.89010989011,4,2,1,60,0,0
73855,284.36018957346,4,2,1,60,1,0
73855,-111.111111111111,4,2,1,60,0,0
74992,281.69014084507,4,2,1,60,1,0
74992,-111.111111111111,4,2,1,60,0,0
76118,276.497695852535,4,2,1,52,1,0
76118,-114.942528735632,4,2,1,52,0,0
76670,271.493212669683,4,2,1,52,1,0
76670,-114.942528735632,4,2,1,52,0,0
77212,271.493212669683,4,2,1,52,1,0
77212,-114.942528735632,4,2,1,52,0,0
78297,260.869565217391,4,2,1,52,1,0
78297,-117.647058823529,4,2,1,52,0,0
84557,-117.647058823529,4,2,1,55,0,0
88731,-117.647058823529,4,2,1,58,0,0
89775,-117.647058823529,4,2,1,60,0,0
90818,-117.647058823529,4,2,1,62,0,0
91862,-117.647058823529,4,2,1,65,0,0
92905,-117.647058823529,4,2,1,50,0,0
97079,288.461538461538,4,2,1,60,1,0
97079,-108.695652173913,4,2,1,60,0,0
97367,302.267002518892,4,2,1,60,1,0
98273,510.63829787234,4,2,1,60,1,0
98273,-83.3333333333333,4,2,1,60,0,0
98783,591.133004926108,4,2,1,60,1,0
100556,394.736842105263,4,2,1,60,1,0
102134,372.670807453416,4,2,1,60,1,0
103624,370.37037037037,4,2,1,60,1,0
105105,368.098159509202,4,2,1,60,1,0
106577,370.37037037037,4,2,1,60,1,0
109539,368.098159509202,4,2,1,60,1,0
112483,365.853658536585,4,2,1,52,1,0
113214,384.615384615385,4,2,1,52,1,0
113983,375,4,2,1,52,1,0
115483,377.358490566038,4,2,1,52,1,0
116992,379.746835443038,4,2,1,52,1,0
118510,377.358490566038,4,2,1,52,1,0
120019,375,4,2,1,52,1,0
123019,370.37037037037,4,2,1,52,1,0
125981,361.44578313253,4,2,1,57,1,0
126703,370.37037037037,4,2,1,57,1,0
127443,357.142857142857,4,2,1,57,1,0
128871,352.941176470588,4,2,1,57,1,0
130282,348.837209302326,4,2,1,57,1,0
130979,333.333333333333,4,2,1,57,1,0
131645,329.67032967033,4,2,1,57,1,0
131645,-105.263157894737,4,2,1,57,0,0
132963,307.692307692308,4,2,1,57,1,0
132963,-108.695652173913,4,2,1,57,0,0
133578,295.566502463054,4,2,1,57,1,0
134169,297.029702970297,4,2,1,57,1,0
134169,-111.111111111111,4,2,1,57,0,0
134763,287.081339712919,4,2,1,57,1,0
134763,-113.636363636364,4,2,1,57,0,0
135337,266.666666666667,4,2,1,70,1,1
135337,-117.647058823529,4,2,1,70,0,1
143870,-117.647058823529,4,2,1,70,0,0
144137,-117.647058823529,4,2,1,45,0,0
152403,-117.647058823529,4,2,1,70,0,1
154537,255.31914893617,4,2,1,70,1,1
154537,-125,4,2,1,70,0,1
155558,244.897959183673,4,2,1,70,1,1
155558,-133.333333333333,4,2,1,70,0,1
156537,241.935483870968,4,2,1,70,1,1
156537,-138.888888888889,4,2,1,70,0,1
157504,240,4,2,1,70,1,1
157504,-142.857142857143,4,2,1,70,0,1
158464,235.294117647059,4,2,1,70,1,1
158464,-149.253731343284,4,2,1,70,0,1
160111,-149.253731343284,4,2,1,70,0,0
160346,230.769230769231,4,2,1,77,1,1
160346,-153.846153846154,4,2,1,77,0,1
161269,226.415094339623,4,2,1,77,1,1
161269,-166.666666666667,4,2,1,77,0,1
162174,212.765957446809,4,2,1,77,1,1
162174,-181.818181818182,4,2,1,77,0,1
163025,210.526315789474,4,2,1,77,1,1
163025,-181.818181818182,4,2,1,77,0,1
163867,209.79020979021,4,2,1,77,1,1
163867,-181.818181818182,4,2,1,77,0,1
164706,200,4,2,1,77,1,1
164706,-200,4,2,1,77,0,1
165506,189.274447949527,4,2,1,77,1,1
165506,-200,4,2,1,77,0,1
166641,-200,4,2,1,77,0,0
167020,294.117647058824,4,2,1,60,1,0
167020,-133.333333333333,4,2,1,60,0,0
167902,322.58064516129,4,2,1,60,1,0
167902,-116.279069767442,4,2,1,60,0,0
168869,588.235294117647,4,2,1,60,1,0
168869,-76.9230769230769,4,2,1,60,0,0
169163,555.555555555556,4,2,1,60,1,0
169440,571.428571428571,4,2,1,60,1,0
170011,612.244897959184,4,2,1,60,1,0
170011,-76.9230769230769,4,2,1,60,0,0
170623,689.655172413793,4,2,1,60,1,0
171312,495.867768595041,4,2,1,60,1,0

[Colours]
Combo1 : 230,179,60
Combo2 : 165,97,97
Combo3 : 175,167,154
Combo4 : 227,165,96
Combo5 : 172,170,136
SliderBorder : 170,150,150
SliderTrackOverride : 33,20,20

[HitObjects]
86,137,25407,6,0,P|130:129|181:133,1,90,0|0,0:0|0:0,0:0:0:0:
257,208,27158,2,0,L|354:212,1,90,0|0,0:0|0:0,0:0:0:0:
427,137,28738,2,0,P|421:89|401:39,2,90,0|0|0,0:0|0:0|0:0,0:0:0:0:
335,303,31617,6,0,L|242:311,2,90,0|0|0,0:0|0:0|0:0,0:0:0:0:
268,139,34425,2,0,L|145:127,2,90,0|0|0,0:0|0:0|0:0,0:0:0:0:
131,245,37109,6,0,P|105:306|101:355,1,90,2|0,0:3|0:0,0:0:0:0:
13,266,38288,2,0,L|10:171,1,90,0|0,0:0|0:0,0:0:0:0:
102,119,39420,2,0,P|146:136|201:137,2,90,0|0|0,0:0|0:0|0:0,0:0:0:0:
74,22,40894,1,0,0:0:0:0:
172,42,41352,6,0,L|297:35,1,85.4999977169037,0|0,0:0|0:0,0:0:0:0:
362,48,42197,2,0,P|381:85|391:140,1,85.4999977169037,0|0,0:0|0:0,0:0:0:0:
352,222,43042,2,0,P|303:182|196:206,1,153.000002918243,0|2,0:0|0:1,0:0:0:0:
140,346,44570,22,0,L|55:351,1,76.5000014591217,2|0,0:3|0:0,0:0:0:0:
26,260,45314,2,0,L|119:252,1,76.5000014591217,0|0,0:0|0:0,0:0:0:0:
198,268,46002,2,0,P|258:280|306:279,2,75.1499976492692,0|0|0,0:0|0:0|0:0,0:0:0:0:
106,123,47357,6,0,L|13:112,2,67.5000025749208,0|0|0,0:0|0:0|0:0,0:0:0:0:
289,78,48643,2,0,L|373:73,2,67.5000025749208,0|0|0,0:0|0:0|0:0,0:0:0:0:
231,199,49929,6,0,B|290:226|290:226|368:219,2,125.999996154785,2|0|0,0:3|0:0|0:0,0:0:0:0:
160,144,51416,6,0,P|139:190|132:263,1,119,0|0,3:0|0:0,0:0:0:0:
222,355,52512,2,0,L|338:347,1,112.5,0|0,3:0|0:0,0:0:0:0:
407,259,53530,2,0,P|386:251|346:245,2,49.5000015106202,0|0|0,3:0|3:0|3:0,0:0:0:0:
460,283,54271,22,0,L|465:173,1,90,4|2,0:0|0:0,0:0:0:0:
440,97,55159,2,0,B|399:81|399:81|339:76,1,90,8|2,0:0|0:0,0:0:0:0:
305,89,55818,1,2,0:0:0:0:
256,106,56032,6,0,L|153:110,1,90,2|2,0:0|0:0,0:0:0:0:
142,205,56859,2,0,L|249:200,1,90,8|2,0:0|0:0,0:0:0:0:
277,221,57480,1,2,0:0:0:0:
310,260,57687,6,0,P|353:274|406:274,2,90,2|2|8,0:0|0:0|0:0,0:0:0:0:
321,161,58871,2,0,P|369:146|380:145,1,45,2|2,0:0|0:0,0:0:0:0:
412,159,59265,6,0,B|455:163|455:163|510:149,1,90,2|2,0:0|0:0,0:0:0:0:
450,66,60029,1,8,0:0:0:0:
352,46,60411,1,2,0:1:0:0:
285,118,60793,22,0,P|229:134|180:126,1,90,2|2,0:0|0:0,0:0:0:0:
112,81,61557,2,0,L|106:22,2,45,8|2|2,0:0|0:0|0:0,0:0:0:0:
103,130,62125,1,2,0:0:0:0:
96,180,62310,6,0,B|92:225|92:225|103:279,1,90,2|2,0:0|0:0,0:0:0:0:
192,307,63028,2,0,P|248:295|293:298,1,90,8|2,0:0|0:0,0:0:0:0:
326,315,63567,1,2,0:0:0:0:
363,347,63747,6,0,L|468:351,1,90,2|2,0:0|0:0,0:0:0:0:
420,256,64465,2,0,B|416:212|416:212|429:151,1,90,8|2,0:0|0:0,0:0:0:0:
440,120,64992,1,2,0:0:0:0:
462,75,65161,6,0,L|365:67,1,90,2|2,0:0|0:0,0:0:0:0:
296,130,65835,1,8,0:0:0:0:
202,96,66172,1,2,0:1:0:0:
134,172,66509,22,0,L|39:178,1,85.4999977169037,2|2,0:0|0:0,0:0:0:0:
88,268,67168,2,0,L|190:260,1,85.4999977169037,8|2,0:0|0:0,0:0:0:0:
220,273,67655,1,2,0:0:0:0:
260,301,67813,6,0,B|300:315|300:315|344:313,1,85.4999977169037,2|2,0:0|0:0,0:0:0:0:
388,223,68444,2,0,L|331:217,2,42.7499988584519,8|2|2,0:0|0:0|0:0,0:0:0:0:
436,233,68918,1,2,0:0:0:0:
481,218,69076,6,0,P|490:176|483:125,1,85.4999977169037,2|2,0:0|0:0,0:0:0:0:
400,76,69694,2,0,L|296:82,1,85.4999977169037,10|2,0:0|0:0,0:0:0:0:
275,106,70158,1,2,0:0:0:0:
245,143,70313,6,0,P|203:144|164:133,1,82.7999972204591,2|2,0:0|0:0,0:0:0:0:
94,61,70919,1,8,0:0:0:0:
65,154,71222,1,2,0:1:0:0:
45,249,71525,22,0,L|53:341,1,81.9000027493287,2|2,0:0|0:0,0:0:0:0:
148,309,72107,2,0,L|152:254,2,40.9500013746644,8|2|2,0:0|0:0|0:0,0:0:0:0:
168,352,72544,1,2,0:0:0:0:
208,379,72690,6,0,B|250:387|250:387|305:382,1,81.9000027493287,2|2,0:0|0:0,0:0:0:0:
358,312,73272,2,0,L|362:211,1,81.9000027493287,8|2,0:0|0:0,0:0:0:0:
379,187,73709,1,2,0:0:0:0:
413,154,73855,6,0,B|454:156|454:156|507:142,2,80.9999975280763,2|2|8,0:0|0:0|0:0,0:0:0:0:
294,106,74708,2,0,P|254:110|237:117,1,40.4999987640381,2|2,0:0|0:0,0:0:0:0:
214,138,74992,6,0,L|126:134,1,80.9999975280763,2|2,0:0|0:0,0:0:0:0:
41,184,75555,1,8,0:0:0:0:
127,232,75837,1,2,0:1:0:0:
166,322,76118,22,0,P|227:337|255:335,1,78.3000006571198,2|2,0:0|0:0,0:0:0:0:
308,264,76670,2,0,L|304:210,2,39.1500003285599,8|2|2,0:0|0:0|0:0,0:0:0:0:
382,333,77212,2,0,L|388:388,2,39.1500003285599,2|2|2,0:0|0:0|0:0,0:0:0:0:
472,302,77754,2,0,L|523:309,2,39.1500003285599,8|0|2,0:0|0:0|0:0,0:0:0:0:
401,239,78297,6,0,B|404:200|404:200|420:151,1,76.5000014591217,2|2,0:0|0:0,0:0:0:0:
467,82,78818,2,0,L|382:78,1,76.5000014591217,8|2,0:0|0:0,0:0:0:0:
344,58,79210,1,2,0:0:0:0:
301,32,79340,6,0,P|256:24|208:26,1,76.5000014591217,2|2,0:0|0:0,0:0:0:0:
139,75,79862,1,8,0:0:0:0:
226,122,80123,1,2,0:1:0:0:
141,173,80383,6,0,L|144:267,1,76.5000014591217,2|2,0:0|0:0,0:0:0:0:
114,344,80905,2,0,L|106:396,2,38.2500007295609,8|2|2,0:0|0:0|0:0,0:0:0:0:
213,332,81427,2,0,L|220:381,2,38.2500007295609,2|2|2,0:0|0:0|0:0,0:0:0:0:
306,296,81949,2,0,L|329:346,2,38.2500007295609,8|2|2,0:0|0:0|0:0,0:0:0:0:
251,212,82470,22,0,P|246:173|257:126,1,76.5000014591217,2|2,0:0|0:0,0:0:0:0:
323,65,82992,2,0,B|373:54|373:54|441:63,1,114.750002188683,8|2,0:0|0:0,0:0:0:0:
466,101,83514,2,0,L|471:183,1,76.5000014591217,2|2,0:0|0:0,0:0:0:0:
476,277,84036,1,8,0:0:0:0:
385,235,84297,1,8,0:0:0:0:
325,314,84557,6,0,P|251:340|210:325,1,114.750002188683,6|0,0:0|0:0,0:0:0:0:
185,293,85079,2,0,L|94:288,1,76.5000014591217,2|2,0:0|0:0,0:0:0:0:
65,198,85601,2,0,B|119:180|119:180|188:175,1,114.750002188683,2|0,0:0|0:0,0:0:0:0:
224,190,86123,1,2,0:0:0:0:
312,145,86383,1,2,0:0:0:0:
306,244,86644,6,0,B|353:259|353:259|430:249,1,114.750002188683,2|0,0:0|0:0,0:0:0:0:
465,266,87166,2,0,P|487:314|491:355,1,76.5000014591217,2|2,0:0|0:0,0:0:0:0:
396,369,87688,6,0,L|276:355,1,114.750002188683,2|0,0:0|0:0,0:0:0:0:
236,335,88210,2,0,L|145:340,1,76.5000014591217,2|2,0:0|0:0,0:0:0:0:
64,309,88731,22,0,P|43:267|51:197,1,114.750002188683,2|0,0:0|0:0,0:0:0:0:
87,169,89253,2,0,B|123:181|123:181|176:179,1,76.5000014591217,2|2,0:0|0:0,0:0:0:0:
237,114,89775,6,0,P|342:95|360:102,1,114.750002188683,2|0,0:0|0:0,0:0:0:0:
363,142,90296,2,0,L|369:234,1,76.5000014591217,2|2,0:0|0:0,0:0:0:0:
429,296,90818,6,0,B|453:256|453:256|459:182,1,114.750002188683,2|0,0:0|0:0,0:0:0:0:
466,138,91340,1,2,0:0:0:0:
411,55,91601,1,2,0:0:0:0:
363,142,91862,6,0,P|320:151|238:150,1,114.750002188683,2|0,0:0|0:0,0:0:0:0:
203,131,92383,2,0,B|163:124|163:124|118:128,1,76.5000014591217,2|2,0:0|0:0,0:0:0:0:
52,193,92905,22,0,L|44:275,1,76.5000014591217,6|2,0:0|0:0,0:0:0:0:
134,311,93427,2,0,L|141:234,1,76.5000014591217,2|2,0:0|0:0,0:0:0:0:
233,264,93949,2,0,L|225:346,2,76.5000014591217,2|2|2,0:0|0:0|0:0,0:0:0:0:
215,166,94731,1,2,0:0:0:0:
283,94,94992,6,0,P|318:84|369:82,1,76.5000014591217,6|2,0:0|0:0,0:0:0:0:
337,179,95514,2,0,P|381:183|419:197,1,76.5000014591217,2|2,0:0|0:0,0:0:0:0:
352,273,96036,2,0,P|403:295|429:317,2,76.5000014591217,2|2|2,0:0|0:0|0:0,0:0:0:0:
257,304,96818,1,2,0:0:0:0:
184,239,97079,6,0,L|178:147,1,82.7999972204591,6|2,0:0|0:1,0:0:0:0:
397,37,98273,6,0,L|388:149,1,107.999996704102,6|2,0:0|0:1,0:0:0:0:
24,90,112483,22,0,P|73:107|123:108,1,90,2|2,0:0|0:0,0:0:0:0:
207,77,113214,2,0,L|203:22,2,45,10|0|2,0:1|0:0|0:0,0:0:0:0:
251,159,113983,2,0,L|310:163,2,45,2|0|2,0:0|0:0|0:0,0:0:0:0:
171,219,114733,2,0,L|113:223,2,45,10|0|2,0:1|0:0|0:0,0:0:0:0:
262,257,115483,6,0,P|275:301|280:352,1,90,2|2,0:0|0:0,0:0:0:0:
374,314,116237,2,0,L|378:208,1,90,10|2,0:1|0:0,0:0:0:0:
400,179,116803,1,0,0:0:0:0:
430,139,116992,2,0,B|473:131|473:131|529:134,1,90,2|2,0:0|0:0,0:0:0:0:
484,39,117751,6,0,L|398:34,1,60,10|10,0:1|0:1,0:0:0:0:
313,111,118510,6,0,L|212:121,1,90,6|2,0:0|0:0,0:0:0:0:
125,100,119264,2,0,L|62:87,2,45,10|0|2,0:1|0:0|0:0,0:0:0:0:
151,197,120019,2,0,L|88:204,2,45,2|0|2,0:0|0:0|0:0,0:0:0:0:
212,275,120769,2,0,L|170:307,2,45,10|0|2,0:1|0:0|0:0,0:0:0:0:
254,184,121519,22,0,P|315:172|351:176,1,90,2|2,0:0|0:0,0:0:0:0:
434,212,122269,2,0,L|443:303,1,90,10|2,0:1|0:0,0:0:0:0:
422,346,122831,1,0,0:0:0:0:
379,373,123019,2,0,B|337:358|337:358|287:354,1,90,2|2,0:0|0:0,0:0:0:0:
194,376,123759,6,0,P|182:342|178:306,1,60,10|10,0:1|0:1,0:0:0:0:
291,247,124500,6,0,P|336:246|377:231,1,90,6|2,0:0|0:0,0:0:0:0:
409,135,125241,2,0,L|414:71,2,45,10|0|2,0:1|0:0|0:0,0:0:0:0:
315,92,125981,2,0,L|313:26,2,45,2|0|2,0:0|0:0|0:0,0:0:0:0:
214,106,126703,2,0,L|203:45,2,45,10|0|2,0:1|0:0|0:0,0:0:0:0:
180,203,127443,6,0,B|135:200|135:200|81:216,1,90,2|2,0:0|0:0,0:0:0:0:
39,298,128157,2,0,P|32:322|29:348,2,45,10|0|2,0:1|0:0|0:0,0:0:0:0:
139,302,128871,2,0,L|238:309,1,90,2|2,0:0|0:0,0:0:0:0:
321,270,129576,1,10,0:1:0:0:
321,270,130282,22,0,P|364:253|417:249,1,90,2|2,0:0|0:0,0:0:0:0:
477,171,130979,2,0,L|479:121,2,45,10|0|2,0:1|0:0|0:0,0:0:0:0:
385,136,131645,2,0,L|379:84,2,42.7499988584519,2|0|2,0:0|0:0|0:0,0:0:0:0:
286,133,132304,2,0,L|269:83,2,42.7499988584519,10|0|2,0:1|0:0|0:0,0:0:0:0:
246,218,132963,6,0,P|197:228|150:225,1,82.7999972204591,2|2,0:0|0:0,0:0:0:0:
74,178,133578,2,0,L|68:121,2,45,10|0|0,0:1|0:0|0:0,0:0:0:0:
80,284,134169,2,0,L|75:331,1,40.4999987640381,8|2,0:0|0:0,0:0:0:0:
69,370,134466,1,0,0:0:0:0:
167,350,134763,1,2,0:0:0:0:
167,350,135337,38,0,P|221:365|252:365,1,76.5000014591217,12|8,0:0|0:0,0:0:0:0:
327,315,135870,2,0,L|379:310,2,38.2500007295609,8|2|8,0:0|0:0|0:0,0:0:0:0:
279,227,136403,2,0,L|325:212,2,38.2500007295609,8|2|8,0:0|0:0|0:0,0:0:0:0:
208,155,136937,2,0,L|244:131,2,38.2500007295609,8|2|8,0:0|0:0|0:0,0:0:0:0:
128,214,137470,6,0,P|87:214|40:197,1,76.5000014591217,8|8,0:0|0:0,0:0:0:0:
17,168,137870,1,2,0:0:0:0:
9,118,138003,2,0,L|6:35,1,76.5000014591217,8|8,0:0|0:0,0:0:0:0:
95,86,138537,22,0,B|134:92|134:92|183:90,1,76.5000014591217,8|8,0:0|0:0,0:0:0:0:
262,50,139070,1,8,0:0:0:0:
360,63,139337,1,8,0:0:0:0:
424,138,139603,22,0,P|439:213|439:227,1,76.5000014591217,8|8,0:0|0:0,0:0:0:0:
435,312,140137,2,0,L|481:307,2,38.2500007295609,8|2|8,0:0|0:0|0:0,0:0:0:0:
354,252,140670,2,0,L|346:211,2,38.2500007295609,8|2|8,0:0|0:0|0:0,0:0:0:0:
262,290,141203,2,0,L|240:247,2,38.2500007295609,8|2|8,0:0|0:0|0:0,0:0:0:0:
211,376,141737,6,0,L|127:370,1,76.5000014591217,8|8,0:0|0:0,0:0:0:0:
87,354,142137,1,2,0:0:0:0:
56,314,142270,2,0,P|57:281|72:233,1,76.5000014591217,8|8,0:0|0:0,0:0:0:0:
142,171,142803,22,0,L|135:78,1,76.5000014591217,8|8,0:0|0:0,0:0:0:0:
97,2,143337,1,8,0:0:0:0:
194,17,143603,1,8,0:0:0:0:
292,31,143870,5,4,0:0:0:0:
255,18,152137,37,10,0:1:0:0:
255,117,152403,38,0,P|218:127|168:130,1,76.5000014591217,8|8,0:0|0:0,0:0:0:0:
83,103,152937,2,0,L|39:97,2,38.2500007295609,8|2|8,0:0|0:0|0:0,0:0:0:0:
98,201,153470,2,0,L|56:206,2,38.2500007295609,8|2|8,0:0|0:0|0:0,0:0:0:0:
136,292,154003,2,0,L|88:315,2,38.2500007295609,8|2|8,0:0|0:0|0:0,0:0:0:0:
195,214,154537,6,0,P|234:207|275:209,1,72,8|8,0:0|0:0,0:0:0:0:
307,228,154919,1,2,0:0:0:0:
338,262,155047,2,0,L|426:266,1,72,8|8,0:0|0:0,0:0:0:0:
486,209,155558,22,0,B|496:175|496:175|499:133,1,67.5000025749208,8|8,0:0|0:0,0:0:0:0:
468,55,156047,1,8,0:0:0:0:
408,128,156292,1,8,0:0:0:0:
372,43,156537,22,0,P|341:44|301:52,1,64.8000015820313,8|8,0:0|0:0,0:0:0:0:
236,112,157020,2,0,L|234:154,2,32.4000007910156,8|2|8,0:0|0:0|0:0,0:0:0:0:
149,145,157504,2,0,L|156:190,2,31.4999990386963,8|2|8,0:0|0:0|0:0,0:0:0:0:
75,200,157984,2,0,L|88:242,2,31.4999990386963,8|2|8,0:0|0:0|0:0,0:0:0:0:
4,264,158464,6,0,L|0:328,1,60.2999971476747,8|8,0:0|0:0,0:0:0:0:
90,348,158934,2,0,P|119:339|158:334,1,60.2999971476747,8|8,0:0|0:0,0:0:0:0:
239,360,159405,2,0,L|308:366,1,60.2999971476747,8|8,0:0|0:0,0:0:0:0:
391,347,159875,1,8,0:0:0:0:
330,274,160111,1,8,0:0:0:0:
380,192,160346,22,0,L|444:186,1,58.4999973220826,12|8,0:0|0:0,0:0:0:0:
494,111,160807,2,0,L|500:80,2,29.2499986610413,8|2|8,0:0|0:0|0:0,0:0:0:0:
410,82,161269,2,0,L|408:45,2,26.9999991760254,8|2|8,0:0|0:0|0:0,0:0:0:0:
324,95,161721,2,0,L|314:62,2,26.9999991760254,8|2|8,0:0|0:0|0:0,0:0:0:0:
284,175,162174,22,0,P|248:187|228:189,1,49.5000015106202,8|8,0:0|0:0,0:0:0:0:
153,157,162599,2,0,L|96:155,1,49.5000015106202,8|8,0:0|0:0,0:0:0:0:
30,208,163025,2,0,P|22:245|21:262,1,49.5000015106202,8|8,0:0|0:0,0:0:0:0:
68,332,163446,1,8,0:0:0:0:
153,308,163656,1,8,0:0:0:0:
230,353,163867,6,0,L|286:355,1,49.5000015106202,8|8,0:0|0:0,0:0:0:0:
364,315,164286,2,0,L|392:309,2,24.7500007553101,8|2|8,0:0|0:0|0:0,0:0:0:0:
288,261,164706,2,0,L|257:257,2,22.5,8|2|8,0:0|0:0|0:0,0:0:0:0:
374,228,165106,2,0,L|399:222,2,22.5,8|2|8,0:0|0:0|0:0,0:0:0:0:
300,173,165506,22,0,L|296:122,1,45,8|8,0:0|0:0,0:0:0:0:
246,53,165884,2,0,P|210:45|196:44,1,45,8|8,0:0|0:0,0:0:0:0:
120,84,166263,1,8,0:0:0:0:
133,172,166452,1,8,0:0:0:0:
47,142,166641,1,8,0:0:0:0:
96,308,167020,6,0,L|172:312,1,67.5000025749208,6|2,0:0|0:0,0:0:0:0:
311,140,167902,22,0,L|395:133,1,77.4000011810303,6|2,0:0|0:0,0:0:0:0:
145,48,168869,6,0,P|125:105|117:164,1,113.7,6|0,0:0|0:0,0:0:0:0:
298,269,170011,2,0,L|291:141,1,116.999994644165,2|2,0:0|0:0,0:0:0:0:
139,350,171312,38,0,B|95:362|95:362|45:355,1,90,2|6,0:0|0:0,0:0:0:0:
