osu file format v14

[General]
AudioFilename: mountainkinglive.mp3
AudioLeadIn: 0
PreviewTime: 54148
Countdown: 0
SampleSet: Soft
StackLeniency: 0.7
Mode: 0
LetterboxInBreaks: 1
WidescreenStoryboard: 1

[Editor]
Bookmarks: 97084,120863,185371
DistanceSpacing: 1.3
BeatDivisor: 4
GridSize: 4
TimelineZoom: 1.30272

[Metadata]
Title:Hall of the Mountain King
TitleUnicode:Hall of the Mountain King
Artist:Apocalyptica
ArtistUnicode:Apocalyptica
Creator:pishifat
Version:II
Source:
Tags:live speed increase cello thrash symphonic orchestral classical cult edvard grieg life burns tour even better
BeatmapID:753733
BeatmapSetID:340399

[Difficulty]
HPDrainRate:3
CircleSize:3.2
OverallDifficulty:3
ApproachRate:4
SliderMultiplier:0.6
SliderTickRate:1

[Events]
//Background and Video events
0,0,"jpg.jpg",0,0
//Break Periods
2,100556,111163
2,144070,150817
//Storyboard Layer 0 (Background)
//Storyboard Layer 1 (Fail)
//Storyboard Layer 2 (Pass)
//Storyboard Layer 3 (Foreground)
//Storyboard Sound Samples

[TimingPoints]
25407,1764.70588235294,4,2,1,50,1,0
25407,-20,4,2,1,50,0,0
26289,1739.13043478261,4,2,1,50,1,0
27158,1621.62162162162,4,2,1,50,1,0
27158,-22,4,2,1,50,0,0
27968,1538.46153846154,4,2,1,50,1,0
28737,1509.43396226415,4,2,1,50,1,0
28737,-24,4,2,1,50,0,0
30246,1371.42857142857,4,2,1,50,1,0
31617,1445.78313253012,4,2,1,50,1,0
31617,-26,4,2,1,50,0,0
33062,1363.63636363636,4,2,1,50,1,0
34425,1387.28323699422,4,2,1,50,1,0
34425,-28,4,2,1,50,0,0
35812,1297.2972972973,4,2,1,50,1,0
37109,1206.03015075377,4,2,1,50,1,0
37109,-30,4,2,1,50,0,0
37712,1153.84615384615,4,2,1,50,1,0
38288,1132.07547169811,4,2,1,50,1,0
38288,-32,4,2,1,50,0,0
39420,1016.94915254237,4,2,1,50,1,0
39420,-32,4,2,1,50,0,0
40436,916.030534351145,4,2,1,50,1,0
40436,-34,4,2,1,50,0,0
41352,845.070422535211,4,2,1,50,1,0
41352,-36.6315789473684,4,2,1,50,0,0
43042,764.331210191083,4,2,1,50,1,0
43042,-38.8235294117647,4,2,1,50,0,0
44570,779.220779220779,4,2,1,50,1,0
44570,-40.8235294117647,4,2,1,50,0,0
44959,710.059171597633,4,2,1,50,1,0
45314,701.754385964912,4,2,1,50,1,0
45314,-42.8235294117647,4,2,1,50,0,0
45664,677.966101694915,4,2,1,50,1,0
46002,677.966101694915,4,2,1,50,1,0
46002,-44.8802395209581,4,2,1,50,0,0
47357,652.173913043478,4,2,1,50,1,0
47357,-46.6666666666667,4,2,1,50,0,0
48009,634.920634920635,4,2,1,50,1,0
48643,652.173913043478,4,2,1,50,1,0
48643,-48.6666666666667,4,2,1,50,0,0
49295,634.920634920635,4,2,1,50,1,0
49929,600,4,2,1,50,1,0
49929,-50.4285714285714,4,2,1,50,0,0
51129,574.162679425837,4,2,1,50,1,0
51416,-52.0740740740741,4,2,1,60,0,0
51703,550.45871559633,4,2,1,60,1,0
51978,535.714285714286,4,2,1,60,1,0
52245,535.714285714286,4,2,1,60,1,0
52512,515.021459227468,4,2,1,60,1,0
52512,-62,4,2,1,60,0,0
52769,515.021459227468,4,2,1,60,1,0
53284,493.827160493827,4,2,1,60,1,0
53530,-70.9090909090909,4,2,1,60,0,0
54271,444.444444444444,4,2,1,60,1,0
54271,-76.9230769230769,4,2,1,60,0,0
55604,428.571428571429,4,2,1,60,1,0
55604,-80,4,2,1,60,0,0
56032,413.793103448276,4,2,1,60,1,0
56032,-83.3333333333333,4,2,1,60,0,0
57687,394.736842105263,4,2,1,60,1,0
57687,-86.9565217391304,4,2,1,60,0,0
59265,382.165605095541,4,2,1,60,1,0
59265,-90.9090909090909,4,2,1,60,0,0
61940,370.37037037037,4,2,1,60,1,0
61940,-90.9090909090909,4,2,1,60,0,0
62310,359.281437125748,4,2,1,60,1,0
62310,-90.9090909090909,4,2,1,60,0,0
64824,337.078651685393,4,2,1,60,1,0
64824,-90.9090909090909,4,2,1,60,0,0
65161,337.078651685393,4,2,1,60,1,0
65161,-90.9090909090909,4,2,1,60,0,0
66509,329.67032967033,4,2,1,60,1,0
66509,-90.9090909090909,4,2,1,60,0,0
67498,315.789473684211,4,2,1,60,1,0
67498,-90.9090909090909,4,2,1,60,0,0
67813,315.789473684211,4,2,1,60,1,0
67813,-90.9090909090909,4,2,1,60,0,0
69076,309.278350515464,4,2,1,60,1,0
69076,-90.9090909090909,4,2,1,60,0,0
70313,303.030303030303,4,2,1,60,1,0
70313,-90.9090909090909,4,2,1,60,0,0
71525,291.26213592233,4,2,1,60,1,0
71525,-90.9090909090909,4,2,1,60,0,0
73855,284.36018957346,4,2,1,60,1,0
73855,-90.9090909090909,4,2,1,60,0,0
74992,281.69014084507,4,2,1,60,1,0
74992,-90.9090909090909,4,2,1,60,0,0
76118,276.497695852535,4,2,1,52,1,0
76118,-90.9090909090909,4,2,1,52,0,0
76670,271.493212669683,4,2,1,52,1,0
76670,-90.9090909090909,4,2,1,52,0,0
77212,271.493212669683,4,2,1,52,1,0
77212,-90.9090909090909,4,2,1,52,0,0
78297,260.869565217391,4,2,1,52,1,0
78297,-90.9090909090909,4,2,1,52,0,0
84557,-90.9090909090909,4,2,1,55,0,0
88731,-90.9090909090909,4,2,1,58,0,0
89775,-90.9090909090909,4,2,1,60,0,0
90818,-90.9090909090909,4,2,1,62,0,0
91862,-90.9090909090909,4,2,1,65,0,0
92905,-90.9090909090909,4,2,1,50,0,0
97079,288.461538461538,4,2,1,60,1,0
97079,-90.9090909090909,4,2,1,60,0,0
97367,302.267002518892,4,2,1,60,1,0
98273,510.63829787234,4,2,1,60,1,0
98273,-62.5,4,2,1,60,0,0
98783,591.133004926108,4,2,1,60,1,0
100556,394.736842105263,4,2,1,60,1,0
102134,372.670807453416,4,2,1,60,1,0
103624,370.37037037037,4,2,1,60,1,0
105105,368.098159509202,4,2,1,60,1,0
106577,370.37037037037,4,2,1,60,1,0
109539,368.098159509202,4,2,1,60,1,0
112483,365.853658536585,4,2,1,52,1,0
112483,-86.9565217391304,4,2,1,52,0,0
113214,384.615384615385,4,2,1,52,1,0
113214,-86.9565217391304,4,2,1,52,0,0
113983,375,4,2,1,52,1,0
113983,-86.9565217391304,4,2,1,52,0,0
115483,377.358490566038,4,2,1,52,1,0
115483,-86.9565217391304,4,2,1,52,0,0
116992,379.746835443038,4,2,1,52,1,0
116992,-86.9565217391304,4,2,1,52,0,0
118510,377.358490566038,4,2,1,52,1,0
118510,-86.9565217391304,4,2,1,52,0,0
120019,375,4,2,1,52,1,0
120019,-86.9565217391304,4,2,1,52,0,0
123019,370.37037037037,4,2,1,52,1,0
123019,-87.719298245614,4,2,1,52,0,0
124500,-87.719298245614,4,2,1,57,0,0
125981,361.44578313253,4,2,1,57,1,0
125981,-88.4955752212389,4,2,1,57,0,0
126703,370.37037037037,4,2,1,57,1,0
126703,-89.2857142857143,4,2,1,57,0,0
127443,357.142857142857,4,2,1,57,1,0
127443,-90.0900900900901,4,2,1,57,0,0
128871,352.941176470588,4,2,1,57,1,0
128871,-90.9090909090909,4,2,1,57,0,0
130282,348.837209302326,4,2,1,57,1,0
130282,-90.9090909090909,4,2,1,57,0,0
130979,333.333333333333,4,2,1,57,1,0
130979,-90.9090909090909,4,2,1,57,0,0
131645,329.67032967033,4,2,1,57,1,0
131645,-90.9090909090909,4,2,1,57,0,0
132963,307.692307692308,4,2,1,57,1,0
132963,-90.9090909090909,4,2,1,57,0,0
133578,295.566502463054,4,2,1,57,1,0
133578,-90.9090909090909,4,2,1,57,0,0
134169,297.029702970297,4,2,1,57,1,0
134169,-90.9090909090909,4,2,1,57,0,0
134763,287.081339712919,4,2,1,57,1,0
134763,-90.9090909090909,4,2,1,57,0,0
135337,266.666666666667,4,2,1,70,1,1
135337,-90.9090909090909,4,2,1,70,0,1
143870,-90.9090909090909,4,2,1,70,0,0
144137,-90.9090909090909,4,2,1,45,0,0
152403,-90.9090909090909,4,2,1,70,0,1
154537,255.31914893617,4,2,1,70,1,1
154537,-100,4,2,1,70,0,1
155558,244.897959183673,4,2,1,70,1,1
155558,-111.111111111111,4,2,1,70,0,1
156537,241.935483870968,4,2,1,70,1,1
156537,-113.636363636364,4,2,1,70,0,1
157504,240,4,2,1,70,1,1
157504,-117.647058823529,4,2,1,70,0,1
158464,235.294117647059,4,2,1,70,1,1
158464,-125,4,2,1,70,0,1
160111,-125,4,2,1,70,0,0
160346,230.769230769231,4,2,1,77,1,1
160346,-133.333333333333,4,2,1,77,0,1
161269,226.415094339623,4,2,1,77,1,1
161269,-142.857142857143,4,2,1,77,0,1
162174,212.765957446809,4,2,1,77,1,1
162174,-142.857142857143,4,2,1,77,0,1
163025,210.526315789474,4,2,1,77,1,1
163025,-142.857142857143,4,2,1,77,0,1
163867,209.79020979021,4,2,1,77,1,1
163867,-142.857142857143,4,2,1,77,0,1
164706,200,4,2,1,77,1,1
164706,-142.857142857143,4,2,1,77,0,1
165506,189.274447949527,4,2,1,77,1,1
165506,-142.857142857143,4,2,1,77,0,1
166263,-133.333333333333,4,2,1,77,0,1
166641,-142.857142857143,4,2,1,77,0,0
167020,294.117647058824,4,2,1,60,1,0
167020,-90.9090909090909,4,2,1,60,0,0
167902,322.58064516129,4,2,1,60,1,0
167902,-83.3333333333333,4,2,1,60,0,0
168869,588.235294117647,4,2,1,60,1,0
168869,-52.6315789473684,4,2,1,60,0,0
169163,555.555555555556,4,2,1,60,1,0
169440,571.428571428571,4,2,1,60,1,0
170011,612.244897959184,4,2,1,60,1,0
170011,-50,4,2,1,60,0,0
170623,689.655172413793,4,2,1,60,1,0
171312,495.867768595041,4,2,1,60,1,0
171312,-66.6666666666667,4,2,1,60,0,0

[Colours]
Combo1 : 230,179,60
Combo2 : 165,97,97
Combo3 : 175,167,154
Combo4 : 227,165,96
Combo5 : 172,170,136
SliderBorder : 170,150,150
SliderTrackOverride : 33,20,20

[HitObjects]
14,196,25407,6,0,P|70:232|165:209,1,150,0|0,0:0|0:0,0:0:0:0:
230,76,27158,2,0,P|298:44|394:84,1,136.363636363636
434,185,28737,2,0,L|426:321,2,125,0|0|0,0:0|0:0|0:0,0:0:0:0:
193,79,31617,6,0,L|52:69,2,115.384615384615,0|0|0,0:0|0:0|0:0,0:0:0:0:
389,208,34425,2,0,L|521:193,2,107.142857142857,0|0|0,0:0|0:0|0:0,0:0:0:0:
185,367,37109,6,0,P|163:315|168:257,1,100,2|0,0:3|0:0,0:0:0:0:
216,170,38288,2,0,L|91:164,1,93.75,0|0,0:0|0:0,0:0:0:0:
188,64,39420,2,0,L|318:71,2,93.75,0|0|0,0:0|0:0|0:0,0:0:0:0:
92,18,40894,1,0,0:0:0:0:
30,105,41352,6,0,P|19:151|20:213,1,81.8965485820779,0|0,0:0|0:0,0:0:0:0:
86,255,42197,2,0,L|183:252,1,81.8965485820779,0|0,0:0|0:0,0:0:0:0:
246,186,43042,2,0,P|310:155|414:181,1,154.545459011698,0|2,0:0|0:1,0:0:0:0:
337,331,44570,22,0,L|237:338,1,73.4870337199624,2|0,0:3|0:0,0:0:0:0:
178,300,45314,2,0,P|162:239|167:205,1,70.0549468903737,0|0,0:0|0:0,0:0:0:0:
227,157,46002,2,0,L|315:153,2,66.8445602522582,0|0|0,0:0|0:0|0:0,0:0:0:0:
73,74,47357,6,0,L|1:69,2,64.2857125340676,0|0|0,0:0|0:0|0:0,0:0:0:0:
224,37,48643,2,0,P|272:22|299:18,2,61.6438340058044,0|0|0,0:0|0:0|0:0,0:0:0:0:
117,161,49929,6,0,L|112:283,2,118.980173828952,2|0|0,0:3|0:0|0:0,0:0:0:0:
178,99,51416,6,0,B|236:92|236:92|308:119,1,113,0|0,3:0|0:0,0:0:0:0:
377,229,52512,2,0,L|482:218,1,96.7741935483871,0|0,3:0|0:0,0:0:0:0:
390,318,53530,2,0,B|345:323|345:323|296:343,1,84.6153879259701,0|0,3:0|3:0,0:0:0:0:
272,373,54271,22,0,L|108:362,1,155.999992858887,4|8,0:0|0:0,0:0:0:0:
46,290,55604,1,2,0:0:0:0:
121,229,56032,2,0,P|155:222|200:218,1,71.9999978027344,2|2,0:0|0:0,0:0:0:0:
259,142,56859,2,0,P|222:131|190:125,1,71.9999978027344,8|2,0:0|0:0,0:0:0:0:
111,72,57687,6,0,L|252:58,1,138.000002632141,2|8,0:0|0:0,0:0:0:0:
336,9,58871,1,2,0:0:0:0:
400,85,59265,2,0,P|415:142|416:162,2,66.0000020141602,2|2|8,0:0|0:0|0:0,0:0:0:0:
336,9,60411,1,2,0:1:0:0:
302,103,60793,6,0,L|298:238,1,132.00000402832,2|8,0:0|0:0,0:0:0:0:
278,339,61940,1,2,0:0:0:0:
199,273,62310,2,0,P|136:262|122:262,1,66.0000020141602,2|2,0:0|0:0,0:0:0:0:
39,290,63028,2,0,L|33:220,1,66.0000020141602,8|2,0:0|0:0,0:0:0:0:
106,157,63747,6,0,P|139:155|185:144,2,66.0000020141602,2|2|8,0:0|0:0|0:0,0:0:0:0:
12,130,64824,1,2,0:0:0:0:
85,63,65161,2,0,P|142:42|214:49,1,132.00000402832,2|8,0:0|0:0,0:0:0:0:
274,125,66172,1,2,0:1:0:0:
262,225,66509,22,0,B|326:242|326:242|396:232,1,132.00000402832,2|8,0:0|0:0,0:0:0:0:
473,179,67498,1,2,0:0:0:0:
480,277,67813,2,0,L|486:348,1,66.0000020141602,2|2,0:0|0:0,0:0:0:0:
387,327,68444,2,0,P|336:316|314:316,1,66.0000020141602,8|2,0:0|0:0,0:0:0:0:
230,358,69076,6,0,L|91:366,1,132.00000402832,2|10,0:0|0:0,0:0:0:0:
20,303,70003,1,2,0:0:0:0:
109,254,70313,2,0,L|179:258,2,66.0000020141602,2|2|8,0:0|0:0|0:0,0:0:0:0:
23,204,71222,1,2,0:1:0:0:
115,158,71525,6,0,P|187:141|246:141,1,132.00000402832,2|8,0:0|0:0,0:0:0:0:
340,165,72398,1,2,0:0:0:0:
385,253,72690,2,0,P|436:264|452:264,1,66.0000020141602,2|2,0:0|0:0,0:0:0:0:
502,180,73272,2,0,L|499:104,1,66.0000020141602,8|2,0:0|0:0,0:0:0:0:
435,34,73855,6,0,P|367:29|300:58,1,132.00000402832,2|8,0:0|0:0,0:0:0:0:
255,135,74708,1,2,0:0:0:0:
333,197,74992,2,0,L|403:193,2,66.0000020141602,2|2|8,0:0|0:0|0:0,0:0:0:0:
241,235,75837,1,2,0:1:0:0:
158,178,76118,22,0,P|119:169|84:168,1,66.0000020141602,2|2,0:0|0:0,0:0:0:0:
2,210,76670,1,8,0:0:0:0:
90,349,77212,1,2,0:0:0:0:
252,327,77754,1,8,0:0:0:0:
421,352,78297,6,0,P|443:317|448:228,1,132.00000402832,2|8,0:0|0:0,0:0:0:0:
397,143,79079,1,2,0:0:0:0:
434,51,79340,2,0,L|506:45,2,66.0000020141602,2|2|8,0:0|0:0|0:0,0:0:0:0:
335,62,80123,1,2,0:1:0:0:
298,153,80383,6,0,B|264:160|264:160|221:162,1,66.0000020141602,2|2,0:0|0:0,0:0:0:0:
140,125,80905,1,8,0:0:0:0:
109,287,81427,1,2,0:0:0:0:
268,245,81949,1,8,0:0:0:0:
411,325,82470,6,0,B|441:267|441:267|450:200,1,132.00000402832,2|8,0:0|0:0,0:0:0:0:
416,107,83253,1,2,0:0:0:0:
325,147,83514,2,0,L|256:150,1,66.0000020141602,2|2,0:0|0:0,0:0:0:0:
183,85,84036,1,8,0:0:0:0:
84,75,84297,1,8,0:0:0:0:
27,152,84557,22,0,P|30:251|52:287,1,132.00000402832,6|2,0:0|0:0,0:0:0:0:
143,293,85340,1,2,0:0:0:0:
227,241,85601,2,0,B|293:237|293:237|361:259,1,132.00000402832,2|2,0:0|0:0,0:0:0:0:
424,328,86383,1,2,0:0:0:0:
494,258,86644,6,0,P|505:173|438:80,1,198.000006042481,2|2,0:0|0:0,0:0:0:0:
356,130,87688,2,0,L|210:136,1,132.00000402832,2|2,0:0|0:0,0:0:0:0:
160,59,88470,1,2,0:0:0:0:
110,144,88731,6,0,B|98:208|98:208|112:273|112:273|96:344,1,198.000006042481,2|2,0:0|0:0,0:0:0:0:
191,322,89775,2,0,P|265:329|325:342,1,132.00000402832,2|2,0:0|0:0,0:0:0:0:
413,379,90557,1,2,0:0:0:0:
492,319,90818,6,0,P|502:246|465:186,1,132.00000402832,2|2,0:0|0:0,0:0:0:0:
377,182,91601,1,2,0:0:0:0:
291,231,91862,2,0,B|228:249|228:249|150:241,1,132.00000402832,2|2,0:0|0:0,0:0:0:0:
88,176,92644,1,2,0:0:0:0:
181,144,92905,22,0,L|184:74,1,66.0000020141602,6|2,0:0|0:0,0:0:0:0:
274,37,93427,2,0,L|271:115,1,66.0000020141602,2|2,0:0|0:0,0:0:0:0:
359,148,93949,2,0,L|363:70,2,66.0000020141602,2|2|2,0:0|0:0|0:0,0:0:0:0:
354,246,94731,1,2,0:0:0:0:
271,301,94992,6,0,L|194:306,1,66.0000020141602,6|2,0:0|0:0,0:0:0:0:
166,213,95514,2,0,L|245:209,1,66.0000020141602,2|2,0:0|0:0,0:0:0:0:
258,113,96036,2,0,L|177:117,2,66.0000020141602,2|2|2,0:0|0:0|0:0,0:0:0:0:
337,53,96818,1,2,0:0:0:0:
430,90,97079,6,0,P|439:121|440:154,1,66.0000020141602,6|2,0:0|0:1,0:0:0:0:
176,132,98273,6,0,P|164:182|160:226,1,96,6|2,0:0|0:1,0:0:0:0:
97,217,112483,22,0,P|137:215|169:211,1,69.0000013160706,2|2,0:0|0:0,0:0:0:0:
251,162,113214,1,10,0:1:0:0:
356,303,113983,1,2,0:0:0:0:
431,148,114733,1,10,0:1:0:0:
288,243,115483,6,0,B|218:247|218:247|154:227,1,138.000002632141,2|10,0:0|0:1,0:0:0:0:
103,143,116615,1,2,0:0:0:0:
182,89,116992,2,0,L|258:85,1,69.0000013160706,2|2,0:0|0:0,0:0:0:0:
336,39,117751,1,10,0:1:0:0:
350,232,118510,6,0,P|384:239|426:242,1,69.0000013160706,6|2,0:0|0:0,0:0:0:0:
501,193,119264,1,10,0:1:0:0:
441,356,120019,1,2,0:0:0:0:
280,292,120769,1,10,0:1:0:0:
123,364,121519,6,0,B|54:371|54:371|-14:342,1,138.000002632141,2|10,0:0|0:1,0:0:0:0:
7,248,122644,1,2,0:0:0:0:
99,277,123019,2,0,L|174:269,1,68.3999991650391,2|2,0:0|0:0,0:0:0:0:
238,205,123759,1,10,0:1:0:0:
354,357,124500,22,0,P|398:363|422:364,1,68.3999991650391,6|2,0:0|0:0,0:0:0:0:
501,309,125241,1,10,0:1:0:0:
346,230,125981,1,2,0:0:0:0:
484,143,126703,1,10,0:1:0:0:
332,60,127443,6,0,P|260:59|197:76,1,133.200003251953,2|10,0:0|0:1,0:0:0:0:
144,148,128514,1,2,0:0:0:0:
223,197,128871,2,0,L|292:192,2,66.0000020141602,2|2|10,0:0|0:0|0:1,0:0:0:0:
107,344,130282,6,0,P|139:351|186:356,1,66.0000020141602,2|2,0:0|0:0,0:0:0:0:
264,327,130979,1,10,0:1:0:0:
151,204,131645,1,2,0:0:0:0:
309,159,132304,1,10,0:1:0:0:
185,33,132963,6,0,P|150:33|110:40,1,66.0000020141602,2|2,0:0|0:0,0:0:0:0:
35,87,133578,1,10,0:1:0:0:
151,204,134169,1,8,0:0:0:0:
12,303,134763,1,2,0:0:0:0:
178,366,135337,6,0,B|243:373|243:373|320:358,1,132.00000402832,12|8,0:0|0:0,0:0:0:0:
374,286,136137,1,8,0:0:0:0:
282,249,136403,2,0,P|277:195|278:176,1,66.0000020141602,8|8,0:0|0:0,0:0:0:0:
303,87,136937,2,0,L|235:83,1,66.0000020141602,8|8,0:0|0:0,0:0:0:0:
151,32,137470,6,0,P|112:24|14:58,1,132.00000402832,8|8,0:0|0:0,0:0:0:0:
14,147,138270,1,8,0:0:0:0:
96,201,138537,2,0,L|177:196,1,66.0000020141602,8|8,0:0|0:0,0:0:0:0:
253,158,139070,1,8,0:0:0:0:
243,256,139337,1,8,0:0:0:0:
233,354,139603,22,0,P|305:358|372:338,1,132.00000402832,8|8,0:0|0:0,0:0:0:0:
424,265,140403,1,8,0:0:0:0:
353,195,140670,2,0,L|348:126,1,66.0000020141602,8|8,0:0|0:0,0:0:0:0:
253,158,141203,2,0,L|248:237,1,66.0000020141602,8|8,0:0|0:0,0:0:0:0:
155,258,141737,22,0,B|137:199|137:199|133:125,1,132.00000402832,8|8,0:0|0:0,0:0:0:0:
211,67,142537,1,8,0:0:0:0:
309,78,142803,2,0,L|388:72,2,66.0000020141602,8|8|8,0:0|0:0|0:0,0:0:0:0:
253,158,143603,1,8,0:0:0:0:
350,174,143870,21,4,0:0:0:0:
415,61,152137,21,10,0:1:0:0:
337,122,152403,6,0,L|195:132,1,132.00000402832,8|8,0:0|0:0,0:0:0:0:
112,96,153203,1,8,0:0:0:0:
56,177,153470,2,0,P|41:225|42:252,1,66.0000020141602,8|8,0:0|0:0,0:0:0:0:
87,327,154003,2,0,P|134:338|160:340,1,66.0000020141602,8|8,0:0|0:0,0:0:0:0:
238,293,154537,6,0,L|366:286,1,120,8|8,0:0|0:0,0:0:0:0:
431,218,155302,1,8,0:0:0:0:
411,125,155558,2,0,L|417:59,2,53.9999983520508,8|8|8,0:0|0:0|0:0,0:0:0:0:
340,187,156292,1,8,0:0:0:0:
259,136,156537,22,0,P|215:134|146:157,1,105.600003222656,8|8,0:0|0:0,0:0:0:0:
112,231,157262,1,8,0:0:0:0:
173,296,157504,2,0,L|232:300,1,51.0000009727478,8|8,0:0|0:0,0:0:0:0:
312,281,157984,2,0,P|339:284|372:296,1,51.0000009727478,8|8,0:0|0:0,0:0:0:0:
436,344,158464,22,0,L|442:243,1,96,8|8,0:0|0:0,0:0:0:0:
477,169,159169,1,8,0:0:0:0:
414,105,159405,2,0,L|409:51,2,48,8|8|8,0:0|0:0|0:0,0:0:0:0:
367,179,160111,1,8,0:0:0:0:
298,126,160346,6,0,P|249:117|199:117,1,90.0000034332277,12|8,0:0|0:0,0:0:0:0:
129,152,161038,1,8,0:0:0:0:
158,236,161269,2,0,L|209:241,1,41.9999987182618,8|8,0:0|0:0,0:0:0:0:
287,233,161721,1,8,0:0:0:0:
213,354,162174,22,0,L|123:360,1,83.9999974365235,8|8,0:0|0:0,0:0:0:0:
49,334,162812,1,8,0:0:0:0:
24,255,163025,2,0,L|23:214,2,41.9999987182618,8|8|8,0:0|0:0|0:0,0:0:0:0:
158,208,163867,22,0,B|172:169|172:169|173:122,1,83.9999974365235,8|8,0:0|0:0,0:0:0:0:
267,38,164706,2,0,L|317:44,1,41.9999987182618,8|8,0:0|0:0,0:0:0:0:
386,70,165106,1,8,0:0:0:0:
314,166,165506,6,0,P|308:209|308:250,1,83.9999974365235,8|8,0:0|0:0,0:0:0:0:
372,367,166263,2,0,L|420:373,2,45.0000017166138,8|8|8,0:0|0:0|0:0,0:0:0:0:
238,363,167020,6,0,L|161:369,1,66.0000020141602,6|2,0:0|0:0,0:0:0:0:
109,231,167902,6,0,L|194:224,1,71.9999978027344,6|2,0:0|0:0,0:0:0:0:
347,198,168869,6,0,P|331:247|323:321,1,111,6|0,0:0|0:0,0:0:0:0:
482,248,170011,2,0,L|472:125,1,120,2|2,0:0|0:0,0:0:0:0:
304,107,171312,6,0,B|261:122|261:122|216:121,1,90.0000034332277,2|6,0:0|0:0,0:0:0:0:
