osu file format v14

[General]
AudioFilename: mountainkinglive.mp3
AudioLeadIn: 0
PreviewTime: 54148
Countdown: 0
SampleSet: Soft
StackLeniency: 0.7
Mode: 0
LetterboxInBreaks: 1
WidescreenStoryboard: 1

[Editor]
Bookmarks: 97084,120863,185371
DistanceSpacing: 1.3
BeatDivisor: 4
GridSize: 4
TimelineZoom: 1.30272

[Metadata]
Title:Hall of the Mountain King
TitleUnicode:Hall of the Mountain King
Artist:Apocalyptica
ArtistUnicode:Apocalyptica
Creator:pishifat
Version:I
Source:
Tags:live speed increase cello thrash symphonic orchestral classical cult edvard grieg life burns tour even better
BeatmapID:754240
BeatmapSetID:340399

[Difficulty]
HPDrainRate:2
CircleSize:3
OverallDifficulty:2
ApproachRate:3
SliderMultiplier:0.600000005960464
SliderTickRate:1

[Events]
//Background and Video events
0,0,"jpg.jpg",0,0
//Break Periods
2,100556,111043
2,144070,150963
//Storyboard Layer 0 (Background)
//Storyboard Layer 1 (Fail)
//Storyboard Layer 2 (Pass)
//Storyboard Layer 3 (Foreground)
//Storyboard Sound Samples

[TimingPoints]
25407,1764.70588235294,4,2,1,50,1,0
25407,-20,4,2,1,50,0,0
26289,1739.13043478261,4,2,1,50,1,0
27158,1621.62162162162,4,2,1,50,1,0
27158,-22,4,2,1,50,0,0
27968,1538.46153846154,4,2,1,50,1,0
28737,1509.43396226415,4,2,1,50,1,0
28737,-24,4,2,1,50,0,0
30246,1371.42857142857,4,2,1,50,1,0
31617,1445.78313253012,4,2,1,50,1,0
31617,-26,4,2,1,50,0,0
33062,1363.63636363636,4,2,1,50,1,0
34425,1387.28323699422,4,2,1,50,1,0
34425,-28,4,2,1,50,0,0
35812,1297.2972972973,4,2,1,50,1,0
37109,1206.03015075377,4,2,1,50,1,0
37109,-30,4,2,1,50,0,0
37712,1153.84615384615,4,2,1,50,1,0
38288,1132.07547169811,4,2,1,50,1,0
38288,-32,4,2,1,50,0,0
39420,1016.94915254237,4,2,1,50,1,0
39420,-32,4,2,1,50,0,0
40436,916.030534351145,4,2,1,50,1,0
40436,-34,4,2,1,50,0,0
41352,845.070422535211,4,2,1,50,1,0
41352,-36.6315789473684,4,2,1,50,0,0
43042,764.331210191083,4,2,1,50,1,0
43042,-38.8235294117647,4,2,1,50,0,0
44570,779.220779220779,4,2,1,50,1,0
44570,-40.8235294117647,4,2,1,50,0,0
44959,710.059171597633,4,2,1,50,1,0
45314,701.754385964912,4,2,1,50,1,0
45314,-42.8235294117647,4,2,1,50,0,0
45664,677.966101694915,4,2,1,50,1,0
46002,677.966101694915,4,2,1,50,1,0
46002,-44.8802395209581,4,2,1,50,0,0
47357,652.173913043478,4,2,1,50,1,0
47357,-46.6666666666667,4,2,1,50,0,0
48009,634.920634920635,4,2,1,50,1,0
48643,652.173913043478,4,2,1,50,1,0
48643,-48.6666666666667,4,2,1,50,0,0
49295,634.920634920635,4,2,1,50,1,0
49929,600,4,2,1,50,1,0
49929,-50.4285714285714,4,2,1,50,0,0
51129,574.162679425837,4,2,1,50,1,0
51416,-52.0740740740741,4,2,1,60,0,0
51703,550.45871559633,4,2,1,60,1,0
51978,535.714285714286,4,2,1,60,1,0
52245,535.714285714286,4,2,1,60,1,0
52512,515.021459227468,4,2,1,60,1,0
52512,-57.1102227298686,4,2,1,60,0,0
52769,515.021459227468,4,2,1,60,1,0
53284,493.827160493827,4,2,1,60,1,0
53530,-70.9090909090909,4,2,1,60,0,0
54271,444.444444444444,4,2,1,60,1,0
54271,-76.9230769230769,4,2,1,60,0,0
55604,428.571428571429,4,2,1,60,1,0
55604,-80,4,2,1,60,0,0
56032,413.793103448276,4,2,1,60,1,0
56032,-83.3333333333333,4,2,1,60,0,0
57687,394.736842105263,4,2,1,60,1,0
57687,-86.9565217391304,4,2,1,60,0,0
59265,382.165605095541,4,2,1,60,1,0
59265,-90.9090909090909,4,2,1,60,0,0
61940,370.37037037037,4,2,1,60,1,0
61940,-90.9090909090909,4,2,1,60,0,0
62310,359.281437125748,4,2,1,60,1,0
62310,-90.9090909090909,4,2,1,60,0,0
64824,337.078651685393,4,2,1,60,1,0
64824,-90.9090909090909,4,2,1,60,0,0
65161,337.078651685393,4,2,1,60,1,0
65161,-90.9090909090909,4,2,1,60,0,0
66509,329.67032967033,4,2,1,60,1,0
66509,-90.9090909090909,4,2,1,60,0,0
67498,315.789473684211,4,2,1,60,1,0
67498,-90.9090909090909,4,2,1,60,0,0
67813,315.789473684211,4,2,1,60,1,0
67813,-90.9090909090909,4,2,1,60,0,0
69076,309.278350515464,4,2,1,60,1,0
69076,-90.9090909090909,4,2,1,60,0,0
70313,303.030303030303,4,2,1,60,1,0
70313,-90.9090909090909,4,2,1,60,0,0
71525,291.26213592233,4,2,1,60,1,0
71525,-90.9090909090909,4,2,1,60,0,0
73855,284.36018957346,4,2,1,60,1,0
73855,-90.9090909090909,4,2,1,60,0,0
74992,281.69014084507,4,2,1,60,1,0
74992,-90.9090909090909,4,2,1,60,0,0
76118,276.497695852535,4,2,1,52,1,0
76118,-90.9090909090909,4,2,1,52,0,0
76670,271.493212669683,4,2,1,52,1,0
76670,-90.9090909090909,4,2,1,52,0,0
77212,271.493212669683,4,2,1,52,1,0
77212,-90.9090909090909,4,2,1,52,0,0
78297,260.869565217391,4,2,1,52,1,0
78297,-90.9090909090909,4,2,1,52,0,0
84557,-90.9090909090909,4,2,1,55,0,0
88731,-90.9090909090909,4,2,1,58,0,0
89775,-90.9090909090909,4,2,1,60,0,0
90818,-90.9090909090909,4,2,1,62,0,0
91862,-90.9090909090909,4,2,1,65,0,0
92905,-90.9090909090909,4,2,1,50,0,0
97079,288.461538461538,4,2,1,60,1,0
97079,-83.3333333333333,4,2,1,60,0,0
97367,302.267002518892,4,2,1,60,1,0
98273,510.63829787234,4,2,1,60,1,0
98273,-62.5,4,2,1,60,0,0
98783,591.133004926108,4,2,1,60,1,0
100556,394.736842105263,4,2,1,60,1,0
102134,372.670807453416,4,2,1,60,1,0
103624,370.37037037037,4,2,1,60,1,0
105105,368.098159509202,4,2,1,60,1,0
106577,370.37037037037,4,2,1,60,1,0
109539,368.098159509202,4,2,1,60,1,0
112483,365.853658536585,4,2,1,52,1,0
112483,-86.9565217391304,4,2,1,52,0,0
113214,384.615384615385,4,2,1,52,1,0
113214,-86.9565217391304,4,2,1,52,0,0
113983,375,4,2,1,52,1,0
113983,-86.9565217391304,4,2,1,52,0,0
115483,377.358490566038,4,2,1,52,1,0
115483,-86.9565217391304,4,2,1,52,0,0
116992,379.746835443038,4,2,1,52,1,0
116992,-86.9565217391304,4,2,1,52,0,0
118510,377.358490566038,4,2,1,52,1,0
118510,-86.9565217391304,4,2,1,52,0,0
120019,375,4,2,1,52,1,0
120019,-86.9565217391304,4,2,1,52,0,0
123019,370.37037037037,4,2,1,52,1,0
123019,-87.719298245614,4,2,1,52,0,0
124500,-87.719298245614,4,2,1,57,0,0
125981,361.44578313253,4,2,1,57,1,0
125981,-88.4955752212389,4,2,1,57,0,0
126703,370.37037037037,4,2,1,57,1,0
126703,-89.2857142857143,4,2,1,57,0,0
127443,357.142857142857,4,2,1,57,1,0
127443,-90.0900900900901,4,2,1,57,0,0
128871,352.941176470588,4,2,1,57,1,0
128871,-90.9090909090909,4,2,1,57,0,0
130282,348.837209302326,4,2,1,57,1,0
130282,-90.9090909090909,4,2,1,57,0,0
130979,333.333333333333,4,2,1,57,1,0
130979,-90.9090909090909,4,2,1,57,0,0
131645,329.67032967033,4,2,1,57,1,0
131645,-90.9090909090909,4,2,1,57,0,0
132963,307.692307692308,4,2,1,57,1,0
132963,-90.9090909090909,4,2,1,57,0,0
133578,295.566502463054,4,2,1,57,1,0
133578,-90.9090909090909,4,2,1,57,0,0
134169,297.029702970297,4,2,1,57,1,0
134169,-90.9090909090909,4,2,1,57,0,0
134763,287.081339712919,4,2,1,57,1,0
134763,-90.9090909090909,4,2,1,57,0,0
135337,266.666666666667,4,2,1,70,1,1
135337,-90.9090909090909,4,2,1,70,0,1
143870,-90.9090909090909,4,2,1,70,0,0
144137,-90.9090909090909,4,2,1,45,0,0
152403,-90.9090909090909,4,2,1,70,0,1
154537,255.31914893617,4,2,1,70,1,1
154537,-100,4,2,1,70,0,1
155558,244.897959183673,4,2,1,70,1,1
155558,-111.111111111111,4,2,1,70,0,1
156537,241.935483870968,4,2,1,70,1,1
156537,-113.636363636364,4,2,1,70,0,1
157504,240,4,2,1,70,1,1
157504,-117.647058823529,4,2,1,70,0,1
158464,235.294117647059,4,2,1,70,1,1
158464,-125,4,2,1,70,0,1
160111,-125,4,2,1,70,0,0
160346,230.769230769231,4,2,1,77,1,1
160346,-133.333333333333,4,2,1,77,0,1
161269,226.415094339623,4,2,1,77,1,1
161269,-142.857142857143,4,2,1,77,0,1
162174,212.765957446809,4,2,1,77,1,1
162174,-142.857142857143,4,2,1,77,0,1
163025,210.526315789474,4,2,1,77,1,1
163025,-142.857142857143,4,2,1,77,0,1
163867,209.79020979021,4,2,1,77,1,1
163867,-142.857142857143,4,2,1,77,0,1
164706,200,4,2,1,77,1,1
164706,-142.857142857143,4,2,1,77,0,1
165506,189.274447949527,4,2,1,77,1,1
165506,-142.857142857143,4,2,1,77,0,1
166641,-142.857142857143,4,2,1,77,0,0
167020,294.117647058824,4,2,1,60,1,0
167020,-76.9230769230769,4,2,1,60,0,0
167902,322.58064516129,4,2,1,60,1,0
167902,-71.4285714285714,4,2,1,60,0,0
168869,588.235294117647,4,2,1,60,1,0
168869,-52.6315789473684,4,2,1,60,0,0
169163,555.555555555556,4,2,1,60,1,0
169440,571.428571428571,4,2,1,60,1,0
170011,612.244897959184,4,2,1,60,1,0
170011,-50,4,2,1,60,0,0
170623,689.655172413793,4,2,1,60,1,0
171312,495.867768595041,4,2,1,60,1,0
171312,-66.6666666666667,4,2,1,60,0,0

[Colours]
Combo1 : 230,179,60
Combo2 : 165,97,97
Combo3 : 175,167,154
Combo4 : 227,165,96
Combo5 : 172,170,136
SliderBorder : 170,150,150
SliderTrackOverride : 33,20,20

[HitObjects]
56,78,25407,6,0,P|165:66|355:57,1,298,0|0,0:0|0:0,0:0:0:0:
104,191,28737,2,0,P|82:244|88:348,2,125.000001241763,0|0|0,0:0|0:0|0:0,0:0:0:0:
397,298,31617,6,0,L|534:283,2,115.384616530858,0|0|0,0:0|0:0|0:0,0:0:0:0:
179,118,34425,2,0,P|142:105|31:95,2,107.142858207226,0|0|0,0:0|0:0|0:0,0:0:0:0:
435,208,37109,6,0,B|453:156|432:101|425:115|405:59|436:-7,1,195.5,2|0,0:3|0:0,0:0:0:0:
305,173,39420,2,0,L|110:188,1,187.500001862645,0|0,0:0|0:0,0:0:0:0:
299,278,41352,2,0,P|377:284|466:308,2,163.793098791294,0|0|0,0:0|0:0|0:0,0:0:0:0:
299,278,44570,6,0,L|290:118,1,140.5,2|0,0:3|0:0,0:0:0:0:
202,286,46002,2,0,P|159:296|61:257,1,133.689121832598,0|0,0:0|0:0,0:0:0:0:
242,201,47357,2,0,L|370:207,1,128.571426345378
267,108,48643,2,0,L|128:116,1,123.287669236362
35,244,49929,21,2,0:3:0:0:
401,230,51416,2,0,L|394:98,1,113,0|0,3:0|0:0,0:0:0:0:
288,64,52512,2,0,L|294:173,1,105.06000263875,0|0,3:0|0:0,0:0:0:0:
294,286,53530,1,0,3:0:0:0:
161,183,54271,6,0,B|85:184|85:184|6:213,1,155.999994408608,4|8,0:0|0:0,0:0:0:0:
209,277,56032,2,0,P|260:251|354:260,1,143.99999703598,2|8,0:0|0:0,0:0:0:0:
502,345,57687,2,0,L|512:201,2,138.000004003048,2|8|2,0:0|0:0|0:0,0:0:0:0:
419,371,59647,1,2,0:0:0:0:
342,333,60029,1,8,0:0:0:0:
394,169,60793,6,0,B|334:150|334:150|262:147,1,132.000005339623,2|8,0:0|0:0,0:0:0:0:
89,213,62310,2,0,P|60:171|66:90,1,132.000005339623,2|8,0:0|0:0,0:0:0:0:
189,217,63747,2,0,L|199:354,1,132.000005339623,2|8,0:0|0:0,0:0:0:0:
364,294,65161,1,2,0:0:0:0:
309,226,65498,1,2,0:0:0:0:
395,211,65835,1,8,0:0:0:0:
298,81,66509,6,0,L|152:78,1,132.000005339623,2|8,0:0|0:0,0:0:0:0:
110,200,67813,2,0,P|162:181|242:176,1,132.000005339623,2|8,0:0|0:0,0:0:0:0:
343,287,69076,2,0,P|414:314|475:304,2,132.000005339623,2|10|2,0:0|0:0|0:0,0:0:0:0:
324,116,70919,1,8,0:0:0:0:
222,262,71525,22,0,B|159:281|159:281|85:273,1,132.000005339623,2|8,0:0|0:0,0:0:0:0:
211,361,72690,2,0,L|346:368,1,132.000005339623,2|8,0:0|0:0,0:0:0:0:
472,255,73855,2,0,P|482:193|462:120,2,132.000005339623,2|8|2,0:0|0:0|0:0,0:0:0:0:
302,285,75555,1,8,0:0:0:0:
272,112,76118,6,0,B|209:91|209:91|130:96,1,132.000005339623,2|8,0:0|0:0,0:0:0:0:
33,226,77212,1,2,0:0:0:0:
198,268,77754,1,8,0:0:0:0:
371,311,78297,2,0,L|512:296,2,132.000005339623,2|8|2,0:0|0:0|0:0,0:0:0:0:
207,361,79862,1,8,0:0:0:0:
249,194,80383,6,0,P|315:172|390:185,1,132.000005339623,2|8,0:0|0:0,0:0:0:0:
503,64,81427,1,2,0:0:0:0:
335,24,81949,1,8,0:0:0:0:
185,107,82470,2,0,B|123:83|123:83|48:86,2,132.000005339623,2|8|2,0:0|0:0|0:0,0:0:0:0:
262,264,84036,2,0,L|257:340,1,66.0000026698113,8|8,0:0|0:0,0:0:0:0:
167,341,84557,6,0,L|176:197,1,132.000005339623,6|2,0:0|0:0,0:0:0:0:
271,66,85601,2,0,P|334:55|401:87,1,132.000005339623,2|2,0:0|0:0,0:0:0:0:
391,256,86644,2,0,B|326:271|326:271|252:263,1,132.000005339623,2|2,0:0|0:0,0:0:0:0:
126,157,87688,2,0,P|87:215|84:288,1,132.000005339623,2|2,0:0|0:0,0:0:0:0:
226,367,88731,22,0,L|368:361,1,132.000005339623,2|2,0:0|0:0,0:0:0:0:
460,223,89775,2,0,P|398:194|334:201,1,132.000005339623,2|2,0:0|0:0,0:0:0:0:
184,279,90818,2,0,B|161:218|161:218|167:146,1,132.000005339623,2|2,0:0|0:0,0:0:0:0:
260,7,91862,2,0,P|202:27|119:19,1,132.000005339623,2|2,0:0|0:0,0:0:0:0:
50,49,92644,1,2,0:0:0:0:
26,131,92905,6,0,L|30:210,2,66.0000026698113,6|2|2,0:0|0:0|0:0,0:0:0:0:
178,210,93949,2,0,L|172:288,1,66.0000026698113,2|2,0:0|0:0,0:0:0:0:
256,294,94470,2,0,L|261:219,1,66.0000026698113,2|2,0:0|0:0,0:0:0:0:
247,142,94992,6,0,P|261:107|280:73,2,66.0000026698113,6|2|2,0:0|0:0|0:0,0:0:0:0:
372,259,96036,2,0,L|443:266,1,66.0000026698113,2|2,0:0|0:0,0:0:0:0:
414,348,96557,2,0,L|344:341,1,66.0000026698113,2|2,0:0|0:0,0:0:0:0:
267,316,97079,6,0,B|230:318|230:318|196:326,1,71.9999985179901,6|2,0:0|0:1,0:0:0:0:
107,89,98273,22,0,L|0:84,1,96.0000009536742,6|2,0:0|0:1,0:0:0:0:
147,80,112483,6,0,P|213:54|281:62,1,138.000004003048,2|10,0:0|0:1,0:0:0:0:
336,235,113983,1,2,0:0:0:0:
461,107,114733,1,10,0:1:0:0:
288,153,115483,2,0,L|145:165,2,138.000004003048,2|10|2,0:0|0:1|0:0,0:0:0:0:
377,147,117371,1,2,0:0:0:0:
434,215,117751,1,10,0:1:0:0:
272,296,118510,6,0,B|203:302|203:302|132:278,1,138.000004003048,6|10,0:0|0:1,0:0:0:0:
34,131,120019,1,2,0:0:0:0:
211,106,120769,1,10,0:1:0:0:
69,216,121519,2,0,P|47:286|37:361,2,138.000004003048,2|10|2,0:0|0:1|0:0,0:0:0:0:
137,158,123389,1,2,0:0:0:0:
223,177,123759,1,10,0:1:0:0:
267,349,124500,6,0,B|330:369|330:369|403:357,1,136.799999689064,6|10,0:0|0:1,0:0:0:0:
507,212,125981,1,2,0:0:0:0:
340,247,126703,1,10,0:1:0:0:
390,74,127443,2,0,P|461:49|517:57,2,133.200004575176,2|10|2,0:0|0:1|0:0,0:0:0:0:
329,135,129223,1,2,0:0:0:0:
246,110,129576,1,10,0:1:0:0:
172,267,130282,22,0,L|26:274,1,132.000005339623,2|10,0:0|0:1,0:0:0:0:
183,175,131645,1,2,0:0:0:0:
240,336,132304,1,10,0:1:0:0:
356,196,132963,2,0,P|425:177|490:186,1,132.000005339623,2|10,0:0|0:1,0:0:0:0:
348,284,134169,1,8,0:0:0:0:
312,112,134763,1,2,0:0:0:0:
173,232,135337,54,0,L|35:240,1,132.000005339623,12|8,0:0|0:0,0:0:0:0:
184,334,136403,2,0,P|246:309|323:300,1,132.000005339623,8|8,0:0|0:0,0:0:0:0:
421,169,137470,2,0,B|363:144|363:144|283:135,2,132.000005339623,8|8|8,0:0|0:0|0:0,0:0:0:0:
481,329,139070,1,8,0:0:0:0:
331,245,139603,6,0,L|189:250,1,132.000005339623,8|8,0:0|0:0,0:0:0:0:
114,100,140670,2,0,P|178:77|248:86,1,132.000005339623,8|8,0:0|0:0,0:0:0:0:
386,173,141737,2,0,B|452:181|452:181|525:161,2,132.000005339623,8|8|8,0:0|0:0|0:0,0:0:0:0:
303,23,143337,1,8,0:0:0:0:
201,161,143870,5,4,0:0:0:0:
496,117,152403,38,0,P|358:95|354:95,1,132.000005339623,8|8,0:0|0:0,0:0:0:0:
222,188,153470,2,0,B|155:191|155:191|86:169,1,132.000005339623,8|8,0:0|0:0,0:0:0:0:
208,287,154537,2,0,P|274:302|327:331,2,120.000001192093,8|8|8,0:0|0:0|0:0,0:0:0:0:
72,323,156047,1,8,0:0:0:0:
109,188,156537,6,0,P|163:166|213:161,1,105.600004271698,8|8,0:0|0:0,0:0:0:0:
327,223,157504,2,0,B|338:174|338:174|334:113,1,102.000002958775,8|8,0:0|0:0,0:0:0:0:
238,38,158464,2,0,L|138:28,2,96.0000009536742,8|8|8,0:0|0:0|0:0,0:0:0:0:
359,11,159875,1,8,0:0:0:0:
436,101,160346,22,0,P|449:151|452:191,1,90.0000043272973,12|8,0:0|0:0,0:0:0:0:
363,256,161269,2,0,L|273:249,1,83.9999982709884,8|8,0:0|0:0,0:0:0:0:
175,302,162174,2,0,B|170:345|170:345|154:384,2,83.9999982709884,8|8|8,0:0|0:0|0:0,0:0:0:0:
180,192,163446,1,8,0:0:0:0:
82,241,163867,22,0,P|25:237|-4:227,1,83.9999982709884,8|8,0:0|0:0,0:0:0:0:
61,132,164706,2,0,L|65:43,1,83.9999982709884,8|8,0:0|0:0,0:0:0:0:
166,102,165506,2,0,B|209:98|209:98|255:86,1,83.9999982709884,8|8,0:0|0:0,0:0:0:0:
343,33,166263,1,8,0:0:0:0:
445,69,166641,1,8,0:0:0:0:
425,179,167020,22,0,L|434:261,1,77.9999972043038,6|2,0:0|0:0,0:0:0:0:
266,364,167902,6,0,L|257:278,1,83.9999982709884,6|2,0:0|0:0,0:0:0:0:
153,155,168869,6,0,P|96:162|26:193,1,111,6|0,0:0|0:0,0:0:0:0:
137,289,170011,2,0,L|260:280,1,120.000001192093,2|2,0:0|0:0,0:0:0:0:
358,153,171312,6,0,B|362:105|362:105|380:54,1,90.0000043272973,2|6,0:0|0:0,0:0:0:0:
