osu file format v13

[General]
AudioFilename: mouuuu.mp3
AudioLeadIn: 0
PreviewTime: 7197
Countdown: 0
SampleSet: None
StackLeniency: 0.3
Mode: 0
LetterboxInBreaks: 0
WidescreenStoryboard: 0

[Editor]
Bookmarks: 107993
DistanceSpacing: 1.2
BeatDivisor: 4
GridSize: 4
TimelineZoom: 1.5

[Metadata]
Title:Hall of the Mountain King
TitleUnicode:Hall of the Mountain King
Artist:Apocalyptica
ArtistUnicode:Apocalyptica
Creator:pishifat
Version:Easy
Source:
Tags:cello thrash symphonic orchestral classical cult Edvard Grieg best
BeatmapID:521490
BeatmapSetID:219813

[Difficulty]
HPDrainRate:2
CircleSize:2.8
OverallDifficulty:1.5
ApproachRate:3
SliderMultiplier:0.7
SliderTickRate:1

[Events]
//Background and Video events
0,0,"sffsxdg1.jpg",0,0
//Break Periods
//Storyboard Layer 0 (Background)
//Storyboard Layer 1 (Fail)
//Storyboard Layer 2 (Pass)
//Storyboard Layer 3 (Foreground)
//Storyboard Sound Samples

[TimingPoints]
7198,967.741935483871,4,2,2,18,1,0
7198,-50,4,2,2,18,0,0
8165,1027.39726027397,4,2,2,18,1,0
8165,-50,4,2,2,18,0,8
8678,944.88188976378,4,2,2,18,1,8
9150,1025.64102564103,4,2,2,18,1,0
9150,-50,4,2,2,18,0,8
10175,960,4,2,2,18,1,0
11135,1034.48275862069,4,2,2,18,1,0
11135,-50,4,2,2,18,0,0
12169,1000,4,2,2,18,1,0
13169,-50,4,2,2,18,0,8
14169,983.606557377049,4,2,2,18,1,0
15152,992.555831265509,4,2,2,18,1,0
15152,-50,4,2,2,18,0,0
16640,1025.64102564103,4,2,2,18,1,8
17152,991.735537190083,4,2,2,18,1,0
17152,-50,4,2,2,18,0,0
18143,1034.48275862069,4,2,2,18,1,0
18143,-50,4,2,2,18,0,8
19177,1000,4,2,2,18,1,0
19177,-50,4,2,2,18,0,0
19677,952.380952380952,4,2,2,18,1,8
20153,1016.94915254237,4,2,2,18,1,0
20153,-50,4,2,2,18,0,8
20661,1132.07547169811,4,2,2,18,1,8
21227,1057.26872246696,4,2,2,18,1,0
21227,-50,4,2,2,18,0,0
23341,1000.00553719008,4,2,2,18,1,0
23341,-50,4,2,2,18,0,0
23841,952.380952380952,4,2,2,18,1,8
24317,952.380952380952,4,2,2,18,1,0
24317,-50,4,2,2,18,0,8
24793,975.609756097561,4,2,2,18,1,8
25280,1000,4,2,2,18,1,0
25280,-50,4,2,2,18,0,8
26280,1008.40336134454,4,2,2,18,1,0
27288,1030.92783505155,4,2,2,18,1,0
27288,-50,4,2,2,18,0,0
28318,975.609756097561,4,2,2,18,1,0
29293,1023.89078498294,4,2,2,18,1,8
29293,-50,4,2,2,18,0,8
30316,995.024875621891,4,2,2,18,1,0
31311,1034.48275862069,4,2,2,18,1,0
31311,-50,4,2,2,18,0,0
31828,923.076923076923,4,2,2,18,1,8
32289,1000,4,2,2,18,1,0
32289,-50,4,2,2,18,0,8
32789,952.380952380952,4,2,2,18,1,8
33265,837.988826815642,4,2,2,18,1,0
33265,-50,4,2,2,18,0,8
33683,645.161290322581,4,3,1,33,1,8
33683,-57.1428571428571,4,3,1,33,0,8
34005,600,4,3,1,33,1,8
34605,550.45871559633,4,3,1,33,1,0
34880,-66.6666666666667,4,3,1,33,0,0
35155,517.241379310345,4,3,1,33,1,8
35930,-80,4,3,1,33,0,8
36189,487.80487804878,4,3,1,33,1,8
36676,467.653936087295,4,3,1,33,1,0
36676,-86.9565217391304,4,3,1,33,0,0
37143,441.176470588235,4,3,1,33,1,8
37143,-86.9565217391304,4,3,1,33,0,8
38245,512.820512820513,4,3,1,33,1,8
38245,-86.9565217391304,4,3,1,33,0,8
38501,441.176470588235,4,3,1,33,1,0
38501,-86.9565217391304,4,3,1,33,0,0
39162,500,4,3,1,33,1,8
39162,-86.9565217391304,4,3,1,33,0,8
39412,441.176470588235,4,3,1,33,1,8
39412,-86.9565217391304,4,3,1,33,0,8
40073,504.201680672269,4,3,1,33,1,8
40073,-86.9565217391304,4,3,1,33,0,8
40325,441.176470588235,4,3,1,33,1,0
40325,-86.9565217391304,4,3,1,33,0,0
40766,461.538461538462,4,3,1,33,1,8
40766,-86.9565217391304,4,3,1,33,0,8
42150,468.75,4,3,1,33,1,0
42150,-86.9565217391304,4,3,1,33,0,0
43087,428.571428571429,4,3,1,33,1,8
43087,-86.9565217391304,4,3,1,33,0,8
43515,500,4,3,1,33,1,8
44015,447.761194029851,4,3,1,33,1,0
44015,-86.9565217391304,4,3,1,33,0,0
45582,476.190476190476,4,3,1,33,1,8
45582,-86.9565217391304,4,3,1,33,0,8
45820,428.571428571429,4,3,1,33,1,0
45820,-86.9565217391304,4,3,1,33,0,0
46248,400,4,3,1,33,1,8
46248,-86.9565217391304,4,3,1,33,0,8
46448,500,4,3,1,33,1,8
46448,-86.9565217391304,4,3,1,33,0,8
46698,428.571428571429,4,3,1,33,1,8
46698,-86.9565217391304,4,3,1,33,0,8
47340,458.015267175573,4,3,1,33,1,8
47340,-86.9565217391304,4,3,1,33,0,8
47569,424.028268551237,4,3,1,33,1,0
47569,-86.9565217391304,4,3,1,33,0,0
50113,394.736842105263,4,3,1,33,1,8
50113,-86.9565217391304,4,3,1,33,0,8
50507,454.545454545455,4,3,1,33,1,8
50961,408.163265306122,4,3,1,33,1,0
50961,-95.2380952380952,4,3,1,33,0,0
52389,451.127819548872,4,3,1,33,1,8
52389,-95.2380952380952,4,3,1,33,0,8
52614,389.61038961039,4,3,1,33,1,0
52614,-95.2380952380952,4,3,1,33,0,0
53977,437.956204379562,4,3,1,33,1,8
53977,-95.2380952380952,4,3,1,33,0,8
54195,387.096774193548,4,3,1,33,1,0
54195,-95.2380952380952,4,3,1,33,0,0
55549,434.782608695652,4,3,1,33,1,8
55549,-95.2380952380952,4,3,1,33,0,8
55766,361.44578313253,4,3,1,33,1,0
55766,-100,4,3,1,33,0,0
56308,434.782608695652,4,3,1,33,1,8
56525,348.837209302326,4,3,1,33,1,8
56525,-95.2380952380952,4,3,1,33,0,8
56873,392.156862745098,4,3,1,33,1,8
57265,377.358490566038,4,3,1,33,1,0
57265,-95.2380952380952,4,3,1,33,0,8
58019,363.636363636364,4,3,1,33,1,8
58019,-105.263157894737,4,3,1,33,0,8
58382,-96.1538461538461,4,3,1,33,0,8
58564,444.444444444444,4,3,1,33,1,8
58564,-105.263157894737,4,3,1,33,0,8
58786,344.827586206897,4,3,1,33,1,0
58786,-105.263157894737,4,3,1,33,0,0
59130,-100,4,3,1,33,0,0
59303,400,4,3,1,33,1,8
59303,-105.263157894737,4,3,1,33,0,8
59503,329.67032967033,4,3,1,33,1,8
59503,-105.263157894737,4,3,1,33,0,8
59997,387.096774193548,4,3,1,33,1,8
59997,-105.263157894737,4,3,1,33,0,8
60190,357.142857142857,4,3,1,33,1,0
60190,-105.263157894737,4,3,1,33,0,0
60547,342.465753424658,4,3,1,33,1,8
60547,-105.263157894737,4,3,1,33,0,8
61403,382.165605095541,4,3,1,33,1,8
61594,335.195530726257,4,3,1,33,1,0
62096,355.029585798817,4,3,1,33,1,8
62273,312.5,4,3,1,33,1,8
62585,361.44578313253,4,3,1,33,1,8
62585,-105.263157894737,4,3,1,33,0,8
62946,363.636363636364,4,3,1,33,1,0
62946,-105.263157894737,4,3,1,33,0,0
63127,342.857142857143,4,3,1,33,1,8
63298,327.868852459016,4,3,1,33,1,8
63298,-105.263157894737,4,3,1,33,0,8
63953,319.148936170213,4,3,1,33,1,8
64272,319.148936170213,4,3,1,33,1,0
64272,-105.263157894737,4,3,1,33,0,0
65229,352.941176470588,4,3,1,33,1,8
65581,323.450134770889,4,3,1,33,1,0
65581,-105.263157894737,4,3,1,33,0,0
67521,329.67032967033,4,3,1,33,1,8
67521,-105.263157894737,4,3,1,33,0,8
68180,315.789473684211,4,3,1,33,1,0
68180,-105.263157894737,4,3,1,33,0,0
69443,312.5,4,3,1,33,1,0
69443,-105.263157894737,4,3,1,33,0,0
70380,338.983050847458,4,3,1,33,1,8
70718,314.13612565445,4,3,1,33,1,0
70718,-105.263157894737,4,3,1,33,0,0
73231,306.122448979592,4,3,1,33,1,0
73231,-105.263157894737,4,3,1,33,0,0
74455,309.278350515464,4,3,1,33,1,0
74455,-105.263157894737,4,3,1,33,0,0
79403,307.692307692308,4,3,1,37,1,0
79403,-105.263157894737,4,3,1,37,0,0
80633,-105.263157894737,4,3,1,42,0,0
81864,310.880829015544,4,3,1,46,1,0
81864,-105.263157894737,4,3,1,46,0,0
82952,324.324324324324,4,3,1,46,1,8
83114,312.5,4,3,1,40,1,0
83114,-111.111111111111,4,3,1,40,0,0
84363,304.568527918782,4,3,1,40,1,0
84363,-111.111111111111,4,3,1,40,0,0
85581,312.5,4,3,1,40,1,0
85581,-111.111111111111,4,3,1,40,0,0
86831,304.568527918782,4,3,1,40,1,0
86831,-111.111111111111,4,3,1,40,0,0
88049,356.083086053412,4,3,1,40,1,0
88049,-105.263157894737,4,3,1,40,0,0
88405,326.086956521739,4,3,1,40,1,8
88405,-105.263157894737,4,3,1,40,0,8
89057,315.789473684211,4,3,1,40,1,8
89057,-105.263157894737,4,3,1,40,0,8
89372,315.789473684211,4,3,1,40,1,0
89372,-105.263157894737,4,3,1,40,0,0
90319,326.086956521739,4,3,1,40,1,8
90319,-105.263157894737,4,3,1,40,0,8
90645,317.460317460317,4,3,1,40,1,0
90645,-105.263157894737,4,3,1,40,0,0
90962,-105.263157894737,4,3,1,40,0,0
91279,-105.263157894737,4,3,1,40,0,0
91597,-105.263157894737,4,3,1,40,0,0
91914,-105.263157894737,4,3,1,40,0,0
92549,333.333333333333,4,3,1,40,1,8
92549,-105.263157894737,4,3,1,40,0,8
93215,314.13612565445,4,3,1,40,1,0
93215,-105.263157894737,4,3,1,40,0,0
94157,338.983050847458,4,3,1,40,1,8
94157,-105.263157894737,4,3,1,40,0,8
94495,310.880829015544,4,3,1,40,1,0
94495,-105.263157894737,4,3,1,40,0,0
95427,337.078651685393,4,3,1,40,1,8
95427,-105.263157894737,4,3,1,40,0,8
95764,320.855614973262,4,3,1,40,1,0
95764,-105.263157894737,4,3,1,40,0,0
96084,-105.263157894737,4,3,1,40,0,0
96405,-105.263157894737,4,3,1,40,0,0
96726,-105.263157894737,4,3,1,40,0,0
98330,333.333333333333,4,3,1,40,1,0
98330,-105.263157894737,4,3,1,40,0,0
98663,319.148936170213,4,3,1,40,1,8
98663,-105.263157894737,4,3,1,40,0,8
99620,319.148936170213,4,3,1,40,1,0
99620,-105.263157894737,4,3,1,40,0,0
100896,312.5,4,3,1,40,1,0
100896,-105.263157894737,4,3,1,40,0,0
101521,-105.263157894737,4,3,1,40,0,0
102146,301.507537688442,4,3,1,40,1,0
102146,-105.263157894737,4,3,1,40,0,0
103352,299.25187032419,4,3,1,40,1,0
103352,-105.263157894737,4,3,1,40,0,0
105746,292.682926829268,4,3,1,40,1,0
105746,-105.263157894737,4,3,1,40,0,0
106038,-105.263157894737,4,3,1,40,0,0
106624,-105.263157894737,4,3,1,40,0,0
106916,272.727272727273,4,3,1,33,1,0
106916,-105.263157894737,4,3,1,33,0,0
107461,304.568527918782,4,3,1,33,1,8
107461,-105.263157894737,4,3,1,33,0,8
108070,280.373831775701,4,3,1,45,1,1
108070,-105.263157894737,4,3,1,45,0,1
110312,284.36018957346,4,3,1,45,1,1
110312,-105.263157894737,4,3,1,45,0,1
112018,291.26213592233,4,3,1,45,1,9
112018,-105.263157894737,4,3,1,45,0,9
112309,-105.263157894737,4,3,1,45,0,9
112600,287.081339712919,4,3,1,45,1,1
112600,-105.263157894737,4,3,1,45,0,1
114322,297.029702970297,4,3,1,45,1,9
114322,-105.263157894737,4,3,1,45,0,9
114916,266.666666666667,4,3,1,45,1,1
114916,-105.263157894737,4,3,1,45,0,1
115982,299.25187032419,4,3,1,45,1,1
115982,-105.263157894737,4,3,1,45,0,1
116281,271.493212669683,4,3,1,45,1,9
116552,300,4,3,1,45,1,9
116552,-105.263157894737,4,3,1,45,0,9
117152,280.373831775701,4,3,1,45,1,1
117152,-105.263157894737,4,3,1,45,0,1
117712,-105.263157894737,4,3,1,45,0,1
117993,285.714285714286,4,3,1,45,1,9
117993,-105.263157894737,4,3,1,45,0,9
118278,279.06976744186,4,3,1,45,1,1
118278,-105.263157894737,4,3,1,45,0,1
118557,300,4,3,1,45,1,9
118557,-105.263157894737,4,3,1,45,0,9
118857,285.714285714286,4,3,1,45,1,9
118857,-105.263157894737,4,3,1,45,0,9
119428,281.69014084507,4,3,1,45,1,1
119428,-105.263157894737,4,3,1,45,0,1
121681,272.727272727273,4,3,1,45,1,1
121681,-105.263157894737,4,3,1,45,0,1
122499,245.901639344262,4,3,1,45,1,9
122499,-105.263157894737,4,3,1,45,0,9
122744,269.058295964126,4,3,1,45,1,1
122744,-105.263157894737,4,3,1,45,0,1
123820,265.486725663717,4,3,1,45,1,1
123820,-105.263157894737,4,3,1,45,0,1
125678,-105.263157894737,4,3,1,45,0,0
125943,254.237288135593,4,3,1,50,1,1
125943,-111.111111111111,4,3,1,50,0,1
127722,-111.111111111111,4,3,1,50,0,1
127976,269.058295964126,4,3,1,50,1,1
127976,-111.111111111111,4,3,1,50,0,1
129052,253.164556962025,4,3,1,50,1,1
129052,-111.111111111111,4,3,1,50,0,1
129558,285.714285714286,4,3,1,50,1,9
129558,-111.111111111111,4,3,1,50,0,9
130129,229.007633587786,4,3,1,50,1,1
130129,-111.111111111111,4,3,1,50,0,1
130358,260.869565217391,4,3,1,50,1,9
130358,-111.111111111111,4,3,1,50,0,9
131140,260.869565217391,4,3,1,50,1,1
131140,-111.111111111111,4,3,1,50,0,1
132966,236.220472440945,4,3,1,50,1,9
133202,256.410256410256,4,3,1,50,1,1
133202,-111.111111111111,4,3,1,50,0,1
133714,279.06976744186,4,3,1,50,1,9
133714,-111.111111111111,4,3,1,50,0,9
134272,266.666666666667,4,3,1,57,1,0
134272,-111.111111111111,4,3,1,57,0,0
135338,257.510729613734,4,3,1,57,1,0
135338,-111.111111111111,4,3,1,57,0,0
136368,263.504611330698,4,3,1,57,1,0
136368,-111.111111111111,4,3,1,57,0,0
138476,242.914979757085,4,3,1,70,1,0
138476,-111.111111111111,4,3,1,70,0,0

[Colours]
Combo1 : 176,38,38
Combo2 : 133,140,128
Combo3 : 135,121,116
Combo4 : 156,117,58
Combo5 : 164,159,151
Combo6 : 136,74,60
Combo7 : 135,131,120

[HitObjects]
14,142,7198,6,0,L|87:153,1,70,2|0,0:0|0:0,0:0:0:0:
173,175,8165,2,0,L|241:163,1,70
301,89,9150,2,0,L|292:17,2,70,0|0|0,0:0|0:0|0:0,0:0:0:0:
413,214,11135,6,0,L|489:206,2,70,0|0|0,0:0|0:0|0:0,0:0:0:0:
237,262,13169,2,0,L|161:254,2,70,0|0|0,0:0|0:0|0:0,0:0:0:0:
413,300,15152,86,0,L|407:370,1,70,2|0,0:0|0:0,0:0:0:0:
496,351,16144,2,0,L|502:274,1,70
450,202,17152,1,0,0:0:0:0:
368,161,17647,1,0,0:0:0:0:
311,88,18143,2,0,L|237:80,1,70
158,125,19177,6,0,L|150:202,1,70
67,155,20153,2,0,L|76:71,1,70
133,12,21227,1,0,0:0:0:0:
381,200,23341,86,0,L|300:210,1,70,2|0,0:0|0:0,0:0:0:0:
225,237,24317,2,0,L|145:227,1,70
79,173,25280,2,0,L|82:92,2,70,0|0|0,0:0|0:0|0:0,0:0:0:0:
63,350,27288,6,0,L|-13:344,2,70,0|0|0,0:0|0:0|0:0,0:0:0:0:
175,218,29293,2,0,L|169:139,2,70,0|0|0,0:0|0:0|0:0,0:0:0:0:
291,349,31311,86,0,L|372:335,1,70,2|0,0:0|0:0,0:0:0:0:
326,252,32289,2,0,L|247:236,1,70
208,160,33265,1,0,0:0:0:0:
272,93,33683,22,0,B|329:85|329:85|403:50,1,118,4|0,0:0|0:0,0:0:0:0:
473,122,34880,2,0,L|359:177,1,102,4|0,0:0|0:0,0:0:0:0:
308,231,35930,2,0,B|344:264|344:264|369:311,1,85,4|0,0:0|0:0,0:0:0:0:
342,340,36676,22,0,B|242:346|242:346|177:359,1,156.2,4|4,0:0|0:0,0:0:0:0:
102,337,38025,1,2,0:0:0:0:
68,257,38501,2,0,B|55:220|55:220|28:180,1,80.5000015354157,4|2,0:0|0:0,0:0:0:0:
107,140,39412,2,0,B|146:150|146:150|189:173,1,80.5000015354157,4|2,0:0|0:0,0:0:0:0:
253,220,40325,5,4,0:0:0:0:
313,156,40766,2,0,B|289:122|289:122|259:92,2,80.5000015354157,2|4|2,0:0|0:0|0:0,0:0:0:0:
391,196,42150,2,0,B|433:125|433:125|494:57,1,161.000003070831,4|4,0:0|0:0,0:0:0:0:
417,15,43515,1,2,0:0:0:0:
342,60,44015,54,0,B|244:78|244:78|172:80,1,161.000003070831,4|4,0:0|0:0,0:0:0:0:
98,61,45358,1,2,0:0:0:0:
60,139,45820,2,0,B|99:147|99:147|150:167,1,80.5000015354157,4|2,0:0|0:0,0:0:0:0:
196,227,46698,2,0,B|230:250|230:250|279:264,1,80.5000015354157,4|2,0:0|0:0,0:0:0:0:
356,262,47569,5,4,0:0:0:0:
437,296,47993,2,0,B|426:336|426:336|405:374,2,80.5000015354157,2|4|2,0:0|0:0|0:0,0:0:0:0:
425,211,49265,2,0,B|376:119|376:119|321:72,1,161.000003070831,4|4,0:0|0:0,0:0:0:0:
256,40,50507,1,2,0:0:0:0:
256,126,50961,6,0,B|192:161|192:161|113:184,1,146.999995513916,4|4,0:0|0:0,0:0:0:0:
53,237,52185,1,2,0:0:0:0:
136,267,52614,2,0,B|171:286|171:286|204:314,1,73.4999977569581,4|2,0:0|0:0,0:0:0:0:
266,361,53393,2,0,B|304:364|304:364|345:356,1,73.4999977569581,4|2,0:0|0:0,0:0:0:0:
385,285,54195,5,4,0:0:0:0:
448,224,54582,2,0,B|484:241|484:241|514:261,2,73.4999977569581,2|4|2,0:0|0:0|0:0,0:0:0:0:
366,198,55766,2,0,B|303:169|303:169|249:122,1,147,4|4,0:0|0:0,0:0:0:0:
214,35,56873,1,2,0:0:0:0:
300,49,57265,54,0,B|341:54|341:54|381:51,2,73.4999977569581,4|2|4,0:0|0:0|0:0,0:0:0:0:
214,35,58382,1,2,0:0:0:0:
135,70,58786,2,0,B|121:106|121:106|112:144,1,66.4999982242585,4|2,0:0|0:0,0:0:0:0:
110,220,59503,2,0,B|145:224|145:224|185:237,1,66.4999982242585,4|2,0:0|0:0,0:0:0:0:
252,273,60190,5,4,0:0:0:0:
337,257,60547,2,0,B|345:226|345:226|346:186,2,66.4999982242585,2|4|2,0:0|0:0|0:0,0:0:0:0:
309,340,61594,2,0,B|257:364|257:364|169:378,1,141.6,4|4,0:0|0:0,0:0:0:0:
94,337,62585,1,2,0:0:0:0:
70,253,62946,6,0,B|100:236|100:236|135:208,1,64.4,12|0,0:0|0:0,0:0:0:0:
158,137,63625,1,4,0:0:0:0:
278,29,64272,1,4,0:0:0:0:
311,185,64910,1,4,0:0:0:0:
195,303,65581,6,0,B|245:321|245:321|334:333,1,132.999996448517,4|4,0:0|0:0,0:0:0:0:
452,238,66874,2,0,B|456:171|456:171|443:95,1,132.999996448517,4|4,0:0|0:0,0:0:0:0:
305,168,68180,54,0,B|273:150|273:150|244:129,1,66.4999982242585,4|0,0:0|0:0,0:0:0:0:
188,74,68811,1,4,0:0:0:0:
51,159,69443,1,4,0:0:0:0:
193,229,70068,1,4,0:0:0:0:
261,378,70718,6,0,B|296:361|296:361|321:343,1,66.4999982242585,4|0,0:0|0:0,0:0:0:0:
404,334,71346,2,0,B|462:372|462:372|501:379,2,99.7499973363877,4|4|4,0:0|0:0|0:0,0:0:0:0:
380,252,72602,2,0,B|390:219|390:219|397:172,1,66.4999982242585,4|4,0:0|0:0,0:0:0:0:
317,147,73231,6,0,B|248:144|248:144|173:151,1,132.999996448517,12|4,0:0|0:0,0:0:0:0:
31,105,74455,2,0,B|91:78|91:78|165:65,1,132.999996448517,4|4,0:0|0:0,0:0:0:0:
110,220,75692,6,0,B|122:286|122:286|157:355,1,132.999996448517,4|4,0:0|0:0,0:0:0:0:
312,348,76929,2,0,B|316:284|316:284|336:216,1,132.999996448517,4|4,0:0|0:0,0:0:0:0:
423,89,78166,54,0,B|356:71|356:71|283:67,1,132.999996448517,12|4,0:0|0:0,0:0:0:0:
166,167,79403,2,0,B|100:156|100:156|40:124,1,132.999996448517,4|4,0:0|0:0,0:0:0:0:
200,84,80633,6,0,B|255:122|255:122|300:182,1,132.999996448517,4|12,0:0|0:0,0:0:0:0:
232,319,81864,1,4,0:0:0:0:
73,303,82485,1,4,0:0:0:0:
169,166,83114,6,0,L|308:176,1,125.999996154785,12|8,0:2|0:2,0:0:0:0:
373,138,84051,1,8,0:0:0:0:
399,54,84364,2,0,L|268:43,1,125.999996154785,8|8,0:2|0:2,0:0:0:0:
192,13,85276,1,8,0:0:0:0:
172,96,85581,6,0,L|159:232,1,125.999996154785,8|8,0:2|0:2,0:0:0:0:
194,301,86518,1,8,0:0:0:0:
279,320,86831,2,0,L|290:184,1,125.999996154785,8|8,0:2|0:2,0:0:0:0:
320,111,87744,1,8,0:0:0:0:
350,30,88049,54,0,B|320:15|320:15|274:6,1,66.4999982242585,12|0,0:2|0:0,0:0:0:0:
202,21,88731,1,4,0:0:0:0:
203,182,89372,1,4,0:0:0:0:
322,291,90003,1,4,0:0:0:0:
448,190,90645,6,0,L|306:200,1,132.999996448517,4|4,0:0|0:0,0:0:0:0:
162,246,91914,2,0,B|138:256|138:256|98:266,2,66.4999982242585,4|0|4,0:0|0:0|0:0,0:0:0:0:
155,77,93215,6,0,B|124:73|124:73|91:63,1,66.4999982242585,4|0,0:0|0:0,0:0:0:0:
19,19,93843,1,4,0:0:0:0:
24,186,94495,1,4,0:0:0:0:
129,305,95116,1,4,0:0:0:0:
286,340,95764,6,0,B|356:323|356:323|412:293,1,132.999996448517,4|4,0:0|0:0,0:0:0:0:
276,205,97047,2,0,B|239:214|239:214|207:216,1,66.4999982242585,4|0,0:0|0:0,0:0:0:0:
135,178,97689,1,4,0:0:0:0:
274,113,98330,54,0,B|310:120|310:120|350:122,1,66.4999982242585,4|0,0:0|0:0,0:0:0:0:
411,74,98982,1,4,0:0:0:0:
256,32,99620,1,4,0:0:0:0:
102,74,100258,1,4,0:0:0:0:
56,230,100896,6,0,B|104:275|104:275|181:300,1,132.999996448517,4|4,0:0|0:0,0:0:0:0:
331,281,102146,2,0,B|363:268|363:268|388:245,2,66.4999982242585,4|0|4,0:0|0:0|0:0,0:0:0:0:
186,213,103352,6,0,B|169:184|169:184|157:149,1,66.4999982242585,4|0,0:0|0:0,0:0:0:0:
155,68,103950,1,4,0:0:0:0:
305,15,104549,1,4,0:0:0:0:
280,172,105147,1,4,0:0:0:0:
122,195,105746,6,0,B|106:260|106:260|99:336,1,132.999996448517,4|4,0:0|0:0,0:0:0:0:
255,246,106916,1,4,0:0:0:0:
256,103,107461,1,4,0:0:0:0:
255,246,108070,6,0,B|286:266|286:266|321:279,1,66.4999982242585,14|8,0:2|0:0,0:0:0:0:
387,230,108630,2,0,B|382:163|382:163|356:91,2,132.999996448517,4|4|4,0:0|0:0|0:0,0:0:0:0:
281,353,110312,54,0,B|214:348|214:348|139:322,1,132.999996448517,4|4,0:0|0:0,0:0:0:0:
48,204,111449,2,0,B|19:182|19:182|-15:164,2,66.4999982242585,4|8|4,0:0|0:0|0:0,0:0:0:0:
202,251,112600,6,0,B|240:249|240:249|281:239,1,66.4999982242585,4|8,0:0|0:0,0:0:0:0:
351,259,113174,2,0,B|401:304|401:304|466:332,2,132.999996448517,4|4|4,0:0|0:0|0:0,0:0:0:0:
231,139,114916,6,0,B|169:111|169:111|91:98,1,132.999996448517,4|4,0:0|0:0,0:0:0:0:
173,239,115982,2,0,B|209:234|209:234|247:222,1,66.4999982242585,4|8,0:0|0:0,0:0:0:0:
309,178,116552,1,4,0:0:0:0:
463,251,117152,6,0,B|448:282|448:282|422:316,1,66.4999982242585,4|8,0:0|0:0,0:0:0:0:
353,349,117712,1,4,0:0:0:0:
202,297,118278,1,4,0:0:0:0:
46,341,118857,1,4,0:0:0:0:
85,184,119428,54,0,B|123:129|123:129|175:82,1,132.999996448517,4|4,0:0|0:0,0:0:0:0:
329,108,120554,2,0,B|363:111|363:111|407:104,2,66.4999982242585,4|8|4,0:0|0:0|0:0,0:0:0:0:
484,52,121681,6,0,B|495:85|495:85|500:127,1,66.4999982242585,4|8,0:0|0:0,0:0:0:0:
477,200,122226,1,4,0:0:0:0:
326,166,122744,1,4,0:0:0:0:
372,318,123282,1,4,0:0:0:0:
214,283,123820,6,0,B|150:269|150:269|74:267,1,132.999996448517,4|4,0:0|0:0,0:0:0:0:
200,159,124881,2,0,L|270:153,1,66.4999982242585,4|8,0:0|0:0,0:0:0:0:
339,107,125412,1,4,0:0:0:0:
367,262,125943,6,0,B|342:282|342:282|314:294,1,62.9999980773926,14|8,0:2|0:0,0:0:0:0:
229,279,126451,2,0,B|203:215|203:215|199:145,2,125.999996154785,4|4|4,0:0|0:0|0:0,0:0:0:0:
343,373,127976,54,0,B|407:349|407:349|458:308,1,125.999996154785,4|4,0:0|0:0,0:0:0:0:
419,157,129052,2,0,B|388:150|388:150|353:135,1,62.9999980773926,4|8,0:0|0:0,0:0:0:0:
294,82,129558,1,4,0:0:0:0:
178,231,130129,6,0,B|146:229|146:229|108:218,1,62.9999980773926,12|8,0:2|0:0,0:0:0:0:
73,147,130618,1,4,0:0:0:0:
224,141,131140,1,4,0:0:0:0:
307,266,131661,1,4,0:0:0:0:
437,341,132183,6,0,B|463:282|463:282|470:215,1,125.999996154785,4|4,0:0|0:0,0:0:0:0:
330,174,133202,2,0,B|294:175|294:175|264:169,2,62.9999980773926,4|8|4,0:0|0:0|0:0,0:0:0:0:
468,118,134272,86,0,L|463:54,1,62.9999980773926,12|8,0:2|0:2,0:0:0:0:
264,107,135338,2,0,L|268:169,1,62.9999980773926,12|8,0:2|0:2,0:0:0:0:
344,358,136368,86,0,B|293:370|293:370|209:363,1,125.999996154785,12|8,0:2|0:2,0:0:0:0:
96,305,137422,2,0,B|109:263|109:263|163:195,1,125.999996154785,8|8,0:2|0:2,0:0:0:0:
256,84,138476,38,0,B|254:61|254:61|258:46|258:46|257:22,1,62.9999980773926,12|14,0:2|0:2,0:0:0:0:
