osu file format v14

[General]
AudioFilename: yunita.mp3
AudioLeadIn: 0
PreviewTime: 64529
Countdown: 0
SampleSet: Soft
StackLeniency: 0.7
Mode: 0
LetterboxInBreaks: 0
WidescreenStoryboard: 0

[Editor]
Bookmarks: 15251,35045,54838,64735,84529,106797,119168,138962,148859,162467,182261,202054
DistanceSpacing: 2
BeatDivisor: 6
GridSize: 4
TimelineZoom: 0.6999999

[Metadata]
Title:U You
TitleUnicode:U You
Artist:Apink
ArtistUnicode:에이핑크
Creator:Natsu
Version:Our Pink World
Source:
Tags:kpop k-pop Park Cho rong Yoon Bo mi Jung Eun ji Son Na Kim Namjoo and Oh Hayoung Cube Entertainment Secret Garden エーピンク
BeatmapID:839279
BeatmapSetID:383985

[Difficulty]
HPDrainRate:5
CircleSize:4
OverallDifficulty:7
ApproachRate:8
SliderMultiplier:2
SliderTickRate:1

[Events]
//Background and Video events
Video,0,"Apink+-+U+YOU+MV.avi"
0,0,"bg.jpg",0,0
//Break Periods
2,139162,148109
//Storyboard Layer 0 (Background)
//Storyboard Layer 1 (Fail)
//Storyboard Layer 2 (Pass)
//Storyboard Layer 3 (Foreground)
//Storyboard Sound Samples

[TimingPoints]
406,618.556701030928,4,2,0,20,1,0
15251,-100,4,2,12,45,0,1
35045,-111.111111111111,4,2,12,40,0,0
53189,-100,4,2,12,40,0,0
53911,-111.111111111111,4,2,12,40,0,0
54838,-111.111111111111,4,2,12,30,0,0
64735,-100,4,2,12,45,0,1
84529,-111.111111111111,4,2,12,40,0,0
101127,-100,4,2,12,40,0,0
101849,-111.111111111111,4,2,12,40,0,0
106076,-100,4,2,12,40,0,0
106797,-111.111111111111,4,2,12,30,0,0
119168,-100,4,2,12,45,0,1
138962,-111.111111111111,4,2,12,40,0,0
148859,-111.111111111111,4,2,12,30,0,0
162467,618.556701030928,4,2,12,45,1,1
182157,-100,4,2,12,45,0,0
182260,-100,4,2,12,45,0,1
202054,-100,4,2,12,25,0,0

[Colours]
Combo1 : 255,255,98
Combo2 : 255,193,255
Combo3 : 125,190,255
SliderBorder : 255,255,255

[HitObjects]
152,191,15251,6,0,P|139:239|153:287,1,100,6|8,0:0|0:0,0:0:0:0:
359,192,15869,2,0,P|372:144|358:96,1,100,2|8,0:0|0:0,0:0:0:0:
208,32,16488,1,2,0:0:0:0:
208,32,16694,2,0,L|164:40,1,33.3333333333333,0|8,0:0|0:0,0:0:0:0:
112,128,17003,2,0,L|156:136,1,33.3333333333333,2|0,0:0|0:0,0:0:0:0:
208,228,17313,2,0,L|164:236,1,33.3333333333333,0|8,0:0|0:0,0:0:0:0:
33,309,17725,5,6,0:0:0:0:
192,330,18034,1,8,0:0:0:0:
76,219,18344,1,2,0:0:0:0:
105,379,18653,1,8,0:0:0:0:
175,232,18962,2,0,P|188:185|176:137,1,100,2|8,0:0|0:0,0:0:0:0:
104,36,19478,1,0,0:0:0:0:
104,36,19581,2,0,L|188:24,1,66.6666666666667,2|0,0:0|0:0,0:0:0:0:
228,76,19890,2,0,L|312:64,1,66.6666666666667,8|0,0:0|0:0,0:0:0:0:
372,56,20199,6,0,P|388:104|376:156,1,100,6|8,0:0|0:0,0:0:0:0:
248,324,20818,2,0,P|232:276|244:224,1,100,2|8,0:0|0:0,0:0:0:0:
378,151,21436,1,2,0:0:0:0:
378,151,21643,2,0,L|432:144,1,33.3333333333333,0|8,0:0|0:0,0:0:0:0:
320,100,21952,2,0,P|299:144|312:192,1,100
364,248,22364,1,8,0:0:0:0:
256,376,22674,5,6,0:0:0:0:
148,248,22983,1,8,0:0:0:0:
316,312,23292,1,2,0:0:0:0:
256,144,23601,1,8,0:0:0:0:
195,312,23911,2,0,P|149:328|102:313,1,100,2|8,0:0|0:0,0:0:0:0:
28,216,24426,1,0,0:0:0:0:
28,216,24529,2,0,L|20:148,1,66.6666666666667,2|0,0:0|0:0,0:0:0:0:
88,120,24838,2,0,P|120:128|152:119,1,66.6666666666667
212,76,25148,5,6,0:0:0:0:
256,264,25457,1,8,0:0:0:0:
395,77,25766,2,0,P|347:63|299:76,1,100,2|8,0:0|0:0,0:0:0:0:
256,264,26385,2,0,L|256:344,1,66.6666666666667,2|0,0:0|0:0,0:0:0:0:
184,368,26694,2,0,P|152:364|116:372,1,66.6666666666667,8|0,0:0|0:0,0:0:0:0:
40,376,27003,2,0,L|40:308,1,66.6666666666667,2|0,0:0|0:0,0:0:0:0:
40,232,27313,2,0,P|73:237|109:229,1,66.6666666666667,8|0,0:0|0:0,0:0:0:0:
176,192,27622,5,6,0:0:0:0:
256,20,27931,1,8,0:0:0:0:
428,191,28241,2,0,P|382:208|336:192,1,100,2|8,0:0|0:0,0:0:0:0:
256,20,28859,1,2,0:0:0:0:
256,20,29065,2,0,L|212:28,1,33.3333333333333,0|8,0:0|0:0,0:0:0:0:
156,112,29375,2,0,L|200:120,1,33.3333333333333
256,204,29684,2,0,L|212:212,1,33.3333333333333,0|8,0:0|0:0,0:0:0:0:
52,232,30096,5,6,0:0:0:0:
156,344,30406,1,8,0:0:0:0:
223,208,30715,2,0,P|236:161|221:114,1,100,2|8,0:0|0:0,0:0:0:0:
96,24,31333,1,2,0:0:0:0:
221,114,31643,2,0,L|292:112,1,66.6666666666667,8|0,0:0|0:0,0:0:0:0:
368,112,31952,2,0,P|380:63|367:15,1,100,2|8,0:0|0:0,0:0:0:0:
256,188,32570,6,0,P|248:224|256:256,1,66.6666666666667,2|0,0:0|0:0,0:0:0:0:
288,328,32880,2,0,L|220:328,1,66.6666666666667,8|0,0:0|0:0,0:0:0:0:
144,328,33188,1,2,0:0:0:0:
12,260,33498,1,8,0:0:0:0:
144,192,33808,2,0,P|156:143|144:95,1,100,2|8,0:0|0:0,0:0:0:0:
367,95,34426,2,0,P|355:143|368:192,1,100,2|0,0:0|0:0,0:0:0:0:
256,328,35045,6,0,L|192:328,1,59.9999981689454,6|0,0:0|0:0,0:0:0:0:
132,288,35354,2,0,P|136:258|128:229,1,59.9999981689454,8|0,0:0|0:0,0:0:0:0:
88,168,35663,2,0,L|180:168,1,89.9999972534181,2|8,0:0|0:0,0:0:0:0:
348,72,36282,2,0,L|256:72,1,89.9999972534181,2|8,0:0|0:0,0:0:0:0:
178,168,36797,2,0,P|168:212|180:260,1,89.9999972534181,2|0,0:0|0:0,0:0:0:0:
220,316,37210,1,8,0:0:0:0:
392,344,37519,5,2,0:0:0:0:
332,180,37828,1,8,0:0:0:0:
220,316,38137,2,0,L|156:316,1,59.9999981689454,2|0,0:0|0:0,0:0:0:0:
95,272,38447,2,0,P|103:243|98:213,1,59.9999981689454,8|0,0:0|0:0,0:0:0:0:
60,148,38756,1,2,0:0:0:0:
256,192,39066,2,0,L|320:192,1,59.9999981689454,8|0,0:0|0:0,0:0:0:0:
367,252,39375,2,0,P|361:280|367:310,1,59.9999981689454,2|0,0:0|0:0,0:0:0:0:
316,376,39684,2,0,L|256:376,1,59.9999981689454,8|0,0:0|0:0,0:0:0:0:
176,376,39993,6,0,P|164:333|174:289,1,89.9999972534181,2|8,0:0|0:0,0:0:0:0:
252,140,40612,1,2,0:0:0:0:
337,289,40921,1,8,0:0:0:0:
174,289,41230,2,0,P|144:284|112:288,1,59.9999981689454,2|0,0:0|0:0,0:0:0:0:
40,312,41540,2,0,L|40:248,1,59.9999981689454,8|0,0:0|0:0,0:0:0:0:
104,200,41849,2,0,L|104:140,1,59.9999981689454,2|0,0:0|0:0,0:0:0:0:
48,88,42158,1,8,0:0:0:0:
200,36,42467,5,2,0:0:0:0:
104,140,42777,1,8,0:0:0:0:
256,88,43086,2,0,L|320:88,1,59.9999981689454,2|0,0:0|0:0,0:0:0:0:
380,136,43395,2,0,P|376:168|384:196,1,59.9999981689454,8|0,0:0|0:0,0:0:0:0:
416,272,43704,2,0,L|356:272,1,59.9999981689454,2|0,0:0|0:0,0:0:0:0:
280,272,44013,2,0,P|284:304|280:332,1,59.9999981689454,8|0,0:0|0:0,0:0:0:0:
216,376,44323,1,8,0:0:0:0:
72,288,44632,1,8,0:0:0:0:
216,228,44942,5,2,0:0:0:0:
132,356,45251,1,8,0:0:0:0:
132,176,45560,1,2,0:0:0:0:
256,308,45869,1,8,0:0:0:0:
308,136,46179,1,2,0:0:0:0:
132,176,46488,1,8,0:0:0:0:
132,176,46694,2,0,P|89:187|45:178,1,89.9999972534181
8,112,47107,1,8,0:0:0:0:
88,288,47416,5,2,0:0:0:0:
244,196,47725,1,8,0:0:0:0:
88,104,48034,1,2,0:0:0:0:
88,288,48344,1,8,0:0:0:0:
244,196,48653,2,0,P|288:184|332:194,1,89.9999972534181,2|8,0:0|0:0,0:0:0:0:
432,240,49168,2,0,P|420:197|431:153,1,89.9999972534181,2|0,0:0|0:0,0:0:0:0:
484,96,49581,1,8,0:0:0:0:
324,12,49890,5,2,0:0:0:0:
176,52,50199,1,8,0:0:0:0:
326,98,50509,2,0,P|335:54|324:12,1,89.9999972534181,2|8,0:0|0:0,0:0:0:0:
176,52,51127,2,0,P|164:94|173:138,1,89.9999972534181,2|8,0:0|0:0,0:0:0:0:
280,200,51643,1,0,0:0:0:0:
280,200,51746,2,0,L|340:200,1,59.9999981689454,2|0,0:0|0:0,0:0:0:0:
420,200,52055,2,0,P|416:232|424:264,1,59.9999981689454,8|0,0:0|0:0,0:0:0:0:
456,332,52364,6,0,L|388:332,1,59.9999981689454,2|0,0:0|0:0,0:0:0:0:
320,332,52674,1,8,0:0:0:0:
208,192,52983,1,2,0:0:0:0:
208,192,53189,2,0,L|160:200,1,33.3333333333333,2|8,0:0|0:0,0:0:0:0:
304,192,53498,2,0,L|352:184,1,33.3333333333333,2|0,0:0|0:0,0:0:0:0:
256,56,53911,2,0,L|256:124,1,59.9999981689454,8|0,0:0|0:0,0:0:0:0:
256,288,54426,2,0,L|256:244,1,29.9999990844727,2|0,0:0|0:0,0:0:0:0:
256,56,54838,5,6,0:0:0:0:
184,232,55148,1,8,2:0:0:0:
328,108,55457,1,2,0:0:0:0:
256,288,55766,1,0,0:0:0:0:
184,108,56076,1,2,0:0:0:0:
328,232,56385,2,0,L|396:232,1,59.9999981689454,8|0,2:0|0:0,0:0:0:0:
448,188,56694,2,0,P|460:232|448:276,1,89.9999972534181,8|0,2:0|0:0,0:0:0:0:
256,364,57313,5,2,0:0:0:0:
256,176,57622,1,8,2:0:0:0:
160,308,57931,1,2,0:0:0:0:
348,308,58240,1,8,2:0:0:0:
256,176,58550,2,0,L|256:116,1,59.9999981689454,2|0,0:0|0:0,0:0:0:0:
311,55,58859,2,0,P|341:59|371:57,1,59.9999981689454,8|0,2:0|0:0,0:0:0:0:
448,36,59168,2,0,L|448:96,1,59.9999981689454,2|0,0:0|0:0,0:0:0:0:
448,172,59478,1,8,2:0:0:0:
348,308,59787,6,0,P|318:303|289:309,1,59.9999981689454,6|0,0:0|0:0,0:0:0:0:
228,356,60096,2,0,P|198:361|169:357,1,59.9999981689454,8|0,2:0|0:0,0:0:0:0:
120,300,60406,2,0,P|90:295|61:301,1,59.9999981689454,8|0,2:0|0:0,0:0:0:0:
8,356,60715,1,8,2:0:0:0:
40,192,61024,2,0,L|40:132,1,59.9999981689454,6|0,0:0|0:0,0:0:0:0:
104,84,61333,2,0,P|136:88|164:84,1,59.9999981689454,8|0,2:0|0:0,0:0:0:0:
240,64,61643,2,0,L|240:132,1,59.9999981689454,8|0,2:0|0:0,0:0:0:0:
240,200,61952,1,8,2:0:0:0:
335,351,62261,6,0,P|364:359|394:354,1,59.9999981689454,2|0,0:0|0:0,0:0:0:0:
472,336,62570,2,0,L|472:264,1,59.9999981689454,2|0,0:0|0:0,0:0:0:0:
471,196,62880,2,0,P|443:204|414:197,1,59.9999981689454,2|0,0:0|0:0,0:0:0:0:
356,144,63189,2,0,P|327:137|298:145,1,59.9999981689454,2|0,0:0|0:0,0:0:0:0:
256,212,63498,2,0,P|264:256|256:300,1,89.9999972534181,2|0,0:0|0:0,0:0:0:0:
124,152,64117,2,0,P|116:108|124:64,1,89.9999972534181,2|0,0:0|0:0,0:0:0:0:
320,76,64735,6,0,B|364:92|404:60|404:60|393:58,1,100,6|8,0:0|0:0,0:0:0:0:
192,76,65354,2,0,B|148:60|108:92|108:92|118:93,1,100,2|8,0:0|0:0,0:0:0:0:
304,192,65972,1,2,0:0:0:0:
304,192,66179,2,0,L|344:200,1,33.3333333333333,0|8,0:0|0:0,0:0:0:0:
384,304,66488,2,0,L|344:296,1,33.3333333333333
256,364,66797,2,0,L|296:372,1,33.3333333333333,0|8,0:0|0:0,0:0:0:0:
468,284,67210,5,6,0:0:0:0:
436,152,67519,1,8,0:0:0:0:
344,316,67828,1,2,0:0:0:0:
304,192,68137,1,8,0:0:0:0:
468,284,68446,2,0,P|483:330|474:379,1,100,2|8,0:0|0:0,0:0:0:0:
352,380,68962,1,0,0:0:0:0:
352,380,69065,2,0,L|280:380,1,66.6666666666667,2|0,0:0|0:0,0:0:0:0:
228,328,69374,2,0,P|236:296|228:264,1,66.6666666666667,8|0,0:0|0:0,0:0:0:0:
191,192,69683,6,0,P|145:207|98:193,1,100,6|0,0:0|0:0,0:0:0:0:
320,191,70302,2,0,P|366:176|413:190,1,100,8|0,0:0|0:0,0:0:0:0:
256,328,70920,1,2,0:0:0:0:
256,328,71127,2,0,L|256:280,1,33.3333333333333,0|8,0:0|0:0,0:0:0:0:
192,192,71436,2,0,P|144:176|96:196,1,100,2|0,0:0|0:0,0:0:0:0:
44,248,71848,1,8,0:0:0:0:
172,372,72158,5,6,0:0:0:0:
256,240,72467,1,8,0:0:0:0:
100,232,72776,1,2,0:0:0:0:
256,328,73086,1,8,0:0:0:0:
184,192,73395,2,0,L|184:84,1,100,2|8,0:0|0:0,0:0:0:0:
296,32,73911,1,0,0:0:0:0:
296,32,74013,2,0,P|328:40|364:32,1,66.6666666666667,2|0,0:0|0:0,0:0:0:0:
436,8,74322,2,0,L|436:84,1,66.6666666666667,8|0,0:0|0:0,0:0:0:0:
436,152,74632,5,6,0:0:0:0:
388,316,74941,1,8,0:0:0:0:
340,150,75250,2,0,P|387:137|435:151,1,100,2|8,0:0|0:0,0:0:0:0:
388,316,75869,2,0,P|352:324|320:316,1,66.6666666666667,2|0,0:0|0:0,0:0:0:0:
264,268,76179,2,0,P|231:261|199:269,1,66.6666666666667,8|0,0:0|0:0,0:0:0:0:
136,320,76488,2,0,P|103:328|71:321,1,66.6666666666667,2|0,0:0|0:0,0:0:0:0:
24,256,76797,2,0,L|24:184,1,66.6666666666667,8|0,0:0|0:0,0:0:0:0:
24,112,77106,5,6,0:0:0:0:
200,52,77415,1,8,0:0:0:0:
120,180,77725,2,0,P|103:134|119:88,1,100,2|8,0:0|0:0,0:0:0:0:
284,24,78343,1,2,0:0:0:0:
284,24,78549,2,0,L|300:64,1,33.3333333333333,0|8,0:0|0:0,0:0:0:0:
388,100,78859,2,0,L|372:140,1,33.3333333333333
284,180,79168,2,0,L|300:220,1,33.3333333333333,0|8,0:0|0:0,0:0:0:0:
364,368,79580,5,6,0:0:0:0:
192,308,79890,1,8,0:0:0:0:
366,273,80199,2,0,P|379:320|364:367,1,100,2|8,0:0|0:0,0:0:0:0:
192,308,80817,1,2,0:0:0:0:
366,273,81127,2,0,L|437:271,1,66.6666666666667,8|0,0:0|0:0,0:0:0:0:
488,208,81436,2,0,P|475:159|488:112,1,100,2|8,0:0|0:0,0:0:0:0:
348,32,82054,6,0,L|276:32,1,66.6666666666667,2|0,0:0|0:0,0:0:0:0:
204,52,82364,2,0,P|212:84|204:116,1,66.6666666666667,8|0,0:0|0:0,0:0:0:0:
156,180,82674,1,2,0:0:0:0:
256,308,82983,1,8,0:0:0:0:
356,179,83292,2,0,P|404:167|452:178,1,100,2|8,0:0|0:0,0:0:0:0:
256,308,83911,2,0,P|207:320|159:309,1,100,2|0,0:0|0:0,0:0:0:0:
68,192,84529,6,0,L|68:120,1,59.9999981689454,6|0,0:0|0:0,0:0:0:0:
72,56,84838,2,0,P|114:67|158:57,1,89.9999972534181,8|2,0:0|0:0,0:0:0:0:
290,27,85457,1,8,0:0:0:0:
189,189,85766,1,2,0:0:0:0:
320,158,86076,1,8,0:0:0:0:
158,57,86385,2,0,P|128:52|96:60,1,59.9999981689454,2|0,0:0|0:0,0:0:0:0:
40,108,86694,1,0,0:0:0:0:
104,272,87003,6,0,B|192:312|192:240|277:279,1,179.999994506836,6|2,0:0|0:0,0:0:0:0:
408,380,87931,1,0,0:0:0:0:
444,216,88241,2,0,B|444:168|444:168|460:120|460:120|460:64,1,149.999995422363,2|2,0:0|0:0,0:0:0:0:
384,48,88859,2,0,P|355:57|326:51,1,59.9999981689454,0|2,0:0|0:0,0:0:0:0:
248,24,89168,1,0,0:0:0:0:
84,144,89478,6,0,B|108:204|60:252|60:252|120:237,1,179.999994506836,6|2,0:0|0:0,0:0:0:0:
256,192,90406,1,0,0:0:0:0:
391,146,90715,2,0,B|452:132|452:132|404:180|428:240,1,179.999994506836,2|2,0:0|0:0,0:0:0:0:
464,344,91643,2,0,L|404:344,1,59.9999981689454
328,344,91952,5,2,0:0:0:0:
184,264,92261,1,0,0:0:0:0:
328,184,92570,1,2,0:0:0:0:
256,304,92880,1,0,0:0:0:0:
288,112,93189,2,0,P|372:115|408:200,1,179.999994506836,2|2,0:0|0:0,0:0:0:0:
256,304,94117,1,8,0:0:0:0:
184,184,94426,5,2,0:0:0:0:
328,184,94735,1,8,0:0:0:0:
205,253,95045,2,0,P|143:233|183:183,1,149.999995422363,8|0,0:0|0:0,0:0:0:0:
182,111,95663,2,0,P|102:143|72:200,1,149.999995422363,2|2,0:0|0:0,0:0:0:0:
76,272,96282,1,8,0:0:0:0:
169,371,96591,1,8,0:0:0:0:
208,240,96900,5,2,0:0:0:0:
76,272,97209,1,8,0:0:0:0:
169,371,97519,1,2,0:0:0:0:
264,184,97828,5,8,0:0:0:0:
132,216,98137,1,2,0:0:0:0:
225,315,98447,1,8,0:0:0:0:
225,315,98653,2,0,P|267:328|310:316,1,89.9999972534181,2|0,0:0|0:0,0:0:0:0:
372,268,99065,1,8,0:0:0:0:
440,384,99375,5,2,0:0:0:0:
512,268,99684,1,8,0:0:0:0:
372,344,99993,1,2,0:0:0:0:
512,344,100302,1,8,0:0:0:0:
440,224,100612,2,0,P|429:180|444:132,1,89.9999972534181,2|8,0:0|0:0,0:0:0:0:
480,40,101127,2,0,L|440:40,1,33.3333333333333,2|0,0:0|0:0,0:0:0:0:
336,92,101436,2,0,L|376:92,1,33.3333333333333,0|8,0:0|0:0,0:0:0:0:
500,224,101849,6,0,L|432:224,1,59.9999981689454,2|0,0:0|0:0,0:0:0:0:
367,260,102158,2,0,P|359:288|366:317,1,59.9999981689454,8|0,0:0|0:0,0:0:0:0:
308,372,102467,2,0,L|216:372,1,89.9999972534181,2|8,0:0|0:0,0:0:0:0:
48,320,103086,1,2,0:0:0:0:
192,247,103395,2,0,P|196:218|188:189,1,59.9999981689454,8|0,0:0|0:0,0:0:0:0:
124,144,103704,2,0,P|119:114|127:85,1,59.9999981689454,2|0,0:0|0:0,0:0:0:0:
184,32,104014,1,8,0:0:0:0:
256,156,104323,5,4,0:0:0:0:
328,32,104632,1,8,0:0:0:0:
184,32,104942,2,0,P|156:28|124:32,1,59.9999981689454,2|0,0:0|0:0,0:0:0:0:
60,72,105251,1,8,0:0:0:0:
124,192,105560,2,0,P|132:240|120:284,1,89.9999972534181,2|8,0:0|0:0,0:0:0:0:
84,376,106076,2,0,L|124:376,1,33.3333333333333,0|8,0:0|0:0,0:0:0:0:
208,312,106385,2,0,L|241:312,1,33.3333333333333,0|8,0:0|0:0,0:0:0:0:
432,308,106797,5,6,0:0:0:0:
368,184,107107,1,8,2:0:0:0:
368,364,107416,1,2,0:0:0:0:
432,128,107725,1,8,2:0:0:0:
492,260,108035,1,2,0:0:0:0:
368,184,108344,2,0,L|300:184,1,59.9999981689454,8|8,2:0|2:0,0:0:0:0:
228,188,108653,2,0,P|240:232|228:276,1,89.9999972534181,2|8,0:0|2:0,0:0:0:0:
112,364,109272,5,6,0:0:0:0:
164,228,109581,1,8,2:0:0:0:
48,316,109890,1,2,0:0:0:0:
164,228,110199,1,8,2:0:0:0:
12,248,110509,2,0,L|12:188,1,59.9999981689454,2|0,0:0|0:0,0:0:0:0:
64,124,110818,2,0,P|92:132|120:124,1,59.9999981689454,8|0,2:0|0:0,0:0:0:0:
184,76,111127,2,0,P|212:67|240:75,1,59.9999981689454,2|0,0:0|0:0,0:0:0:0:
296,132,111437,1,8,2:0:0:0:
332,312,111746,6,0,P|302:317|273:312,1,59.9999981689454,6|0,0:0|0:0,0:0:0:0:
208,264,112055,2,0,P|178:259|149:264,1,59.9999981689454,8|0,2:0|0:0,0:0:0:0:
72,292,112364,2,0,L|72:224,1,59.9999981689454,8|0,2:0|0:0,0:0:0:0:
72,156,112674,1,8,2:0:0:0:
180,32,112983,2,0,P|210:27|239:32,1,59.9999981689454,6|0,0:0|0:0,0:0:0:0:
304,80,113292,2,0,P|334:85|363:80,1,59.9999981689454,8|0,2:0|0:0,0:0:0:0:
440,52,113601,2,0,L|440:120,1,59.9999981689454,8|0,2:0|0:0,0:0:0:0:
440,188,113911,1,8,2:0:0:0:
312,288,114220,5,6,0:0:0:0:
256,136,114529,2,0,L|256:76,1,59.9999981689454,2|0,2:0|0:0,0:0:0:0:
204,20,114838,2,0,P|164:32|108:16,1,89.9999972534181,4|0,0:0|0:0,0:0:0:0:
4,108,115457,1,2,0:0:0:0:
132,172,115766,2,0,P|136:201|131:231,1,59.9999981689454,2|0,0:0|0:0,0:0:0:0:
89,292,116076,2,0,P|129:304|177:288,1,89.9999972534181,4|0,0:0|0:0,0:0:0:0:
256,144,116694,5,4,0:0:0:0:
368,272,117003,2,0,B|368:336,1,59.9999981689454,2|0,0:0|0:0,0:0:0:0:
456,268,117416,2,0,B|456:204,1,59.9999981689454,2|0,0:0|0:0,0:0:0:0:
384,108,117828,1,0,0:0:0:0:
384,108,117931,2,0,B|308:72|308:132|240:104,1,149.999995422363,4|0,0:0|0:0,0:0:0:0:
176,60,118550,2,0,P|163:102|174:145,1,89.9999972534181,2|0,0:0|0:0,0:0:0:0:
319,255,119168,6,0,P|368:268|416:255,1,100,6|8,0:0|0:0,0:0:0:0:
192,128,119787,2,0,P|143:116|95:128,1,100,2|8,0:0|0:0,0:0:0:0:
20,256,120406,1,2,0:0:0:0:
20,256,120612,2,0,L|56:288,1,33.3333333333333,0|8,0:0|0:0,0:0:0:0:
100,360,120921,2,0,L|136:328,1,33.3333333333333
180,256,121230,2,0,L|216:288,1,33.3333333333333,0|8,0:0|0:0,0:0:0:0:
368,372,121643,5,6,0:0:0:0:
504,296,121952,1,8,0:0:0:0:
340,300,122261,1,2,0:0:0:0:
476,368,122570,1,8,0:0:0:0:
371,227,122880,2,0,P|359:180|375:133,1,100,2|8,0:0|0:0,0:0:0:0:
416,28,123395,1,0,0:0:0:0:
416,28,123498,2,0,L|344:28,1,66.6666666666667,2|0,0:0|0:0,0:0:0:0:
288,80,123808,2,0,L|220:80,1,66.6666666666667,8|0,0:0|0:0,0:0:0:0:
160,32,124117,6,0,P|145:78|159:125,1,100,6|8,0:0|0:0,0:0:0:0:
312,252,124735,2,0,P|327:206|313:159,1,100,2|8,0:0|0:0,0:0:0:0:
160,32,125354,1,2,0:0:0:0:
160,32,125560,2,0,L|120:32,1,33.3333333333333,0|8,0:0|0:0,0:0:0:0:
64,128,125869,2,0,P|80:176|60:224,1,100,2|0,0:0|0:0,0:0:0:0:
16,280,126282,1,8,0:0:0:0:
156,360,126591,5,6,0:0:0:0:
156,200,126900,1,8,0:0:0:0:
16,280,127210,1,2,0:0:0:0:
196,280,127519,1,8,0:0:0:0:
60,192,127828,2,0,P|47:143|58:95,1,100,2|8,0:0|0:0,0:0:0:0:
152,32,128344,1,0,0:0:0:0:
152,32,128447,2,0,L|220:32,1,66.6666666666667,2|0,0:0|0:0,0:0:0:0:
292,72,128756,2,0,P|283:104|292:136,1,66.6666666666667,8|0,0:0|0:0,0:0:0:0:
352,192,129065,5,6,0:0:0:0:
256,328,129375,1,8,0:0:0:0:
160,192,129684,2,0,P|112:176|64:192,1,100,2|8,0:0|0:0,0:0:0:0:
256,328,130302,2,0,L|328:328,1,66.6666666666667,2|0,0:0|0:0,0:0:0:0:
384,272,130612,2,0,P|376:239|384:207,1,66.6666666666667,8|0,0:0|0:0,0:0:0:0:
448,168,130921,2,0,P|455:135|447:103,1,66.6666666666667,2|0,0:0|0:0,0:0:0:0:
396,48,131230,2,0,L|320:48,1,66.6666666666667,8|0,0:0|0:0,0:0:0:0:
256,36,131540,5,6,0:0:0:0:
176,160,131849,1,8,0:0:0:0:
336,160,132158,2,0,B|416:160|416:160|384:140,1,100,6|8,0:0|0:0,0:0:0:0:
256,32,132777,1,2,0:0:0:0:
256,32,132983,2,0,L|204:24,1,33.3333333333333,0|8,0:0|0:0,0:0:0:0:
144,104,133292,2,0,L|196:112,1,33.3333333333333
224,208,133601,2,0,L|172:200,1,33.3333333333333,0|8,0:0|0:0,0:0:0:0:
52,148,134014,5,6,0:0:0:0:
224,208,134323,1,8,0:0:0:0:
50,243,134632,2,0,P|37:196|52:149,1,100,2|8,0:0|0:0,0:0:0:0:
224,208,135251,2,0,L|296:208,1,66.6666666666667,2|0,0:0|0:0,0:0:0:0:
368,188,135560,2,0,P|372:152|364:124,1,66.6666666666667,8|0,0:0|0:0,0:0:0:0:
312,68,135869,2,0,P|359:48|407:62,1,100,2|8,0:0|0:0,0:0:0:0:
468,256,136488,6,0,L|468:332,1,66.6666666666667,2|0,0:0|0:0,0:0:0:0:
396,356,136797,2,0,P|364:348|332:356,1,66.6666666666667,8|0,0:0|0:0,0:0:0:0:
256,376,137107,1,2,0:0:0:0:
180,216,137416,1,8,0:0:0:0:
332,216,137725,2,0,B|376:200|416:232|416:232|405:234,1,100,2|8,0:0|0:0,0:0:0:0:
180,216,138344,2,0,B|136:232|96:200|96:200|107:198,1,100,2|0,0:0|0:0,0:0:0:0:
256,136,138962,5,2,0:0:0:0:
256,192,148859,22,0,L|256:256,1,59.9999981689454,2|0,0:0|0:0,0:0:0:0:
204,316,149168,2,0,P|176:312|144:316,1,59.9999981689454,8|0,2:0|0:0,0:0:0:0:
80,360,149478,1,2,0:0:0:0:
80,216,149787,1,8,2:0:0:0:
144,315,150096,1,2,0:0:0:0:
144,170,150406,2,0,P|156:128|145:84,1,89.9999972534181,8|2,2:0|0:0,0:0:0:0:
16,20,151024,1,8,2:0:0:0:
80,124,151333,5,2,0:0:0:0:
16,20,151643,1,8,2:0:0:0:
20,168,151952,2,0,L|20:232,1,59.9999981689454,2|0,0:0|0:0,0:0:0:0:
80,276,152261,1,8,2:0:0:0:
236,240,152570,1,2,0:0:0:0:
163,347,152880,2,0,P|151:305|159:261,1,89.9999972534181,8|2,2:0|0:0,0:0:0:0:
312,220,153498,2,0,P|344:216|372:220,1,59.9999981689454,8|0,2:0|0:0,0:0:0:0:
444,252,153808,6,0,L|444:189,1,59.9999981689454,2|0,0:0|0:0,0:0:0:0:
444,115,154117,2,0,P|414:119|385:114,1,59.9999981689454,8|0,2:0|0:0,0:0:0:0:
320,68,154426,2,0,P|276:56|228:72,2,89.9999972534181,2|8|2,0:0|2:0|0:0,0:0:0:0:
368,192,155354,1,8,2:0:0:0:
256,328,155663,1,2,0:0:0:0:
144,192,155973,1,8,2:0:0:0:
316,248,156282,5,2,0:0:0:0:
220,65,156591,1,8,2:0:0:0:
196,248,156900,1,2,0:0:0:0:
292,63,157210,6,0,B|292:10|397:-30|519:19|505:165|455:279|351:261|256:366|256:366|159:261|55:279|3:165|-5:19|115:-30|202:10|220:65,1,1169.99996429443,8|0,2:0|0:0,0:0:0:0:
256,268,161849,6,0,L|256:168,1,89.9999972534181,2|0,0:0|0:0,0:0:0:0:
160,32,162467,6,0,P|147:80|161:128,1,100,6|8,0:0|0:0,0:0:0:0:
351,127,163085,2,0,P|365:79|352:32,1,100,2|8,0:0|0:0,0:0:0:0:
160,32,163704,1,2,0:0:0:0:
160,32,163910,2,0,L|116:40,1,33.3333333333333,0|8,0:0|0:0,0:0:0:0:
48,120,164219,2,0,L|92:128,1,33.3333333333333
160,208,164529,2,0,L|116:216,1,33.3333333333333,0|8,0:0|0:0,0:0:0:0:
8,316,164941,5,6,0:0:0:0:
156,364,165250,1,8,0:0:0:0:
160,208,165559,1,2,0:0:0:0:
88,328,165869,1,8,0:0:0:0:
228,320,166178,2,0,L|304:320,1,66.6666666666667,2|0,0:0|0:0,0:0:0:0:
351,263,166487,2,0,P|343:231|350:199,1,66.6666666666667,8|0,0:0|0:0,0:0:0:0:
400,140,166796,2,0,P|408:107|401:75,1,66.6666666666667,2|0,0:0|0:0,0:0:0:0:
336,32,167106,2,0,L|268:20,1,66.6666666666667,8|0,0:0|0:0,0:0:0:0:
212,72,167415,6,0,P|196:120|208:172,1,100,6|8,0:0|0:0,0:0:0:0:
300,312,168034,2,0,P|316:264|304:212,1,100,2|8,0:0|0:0,0:0:0:0:
212,72,168652,1,2,0:0:0:0:
212,72,168859,2,0,L|164:64,1,33.3333333333333,0|8,0:0|0:0,0:0:0:0:
72,48,169168,2,0,P|92:96|72:148,1,100,2|0,0:0|0:0,0:0:0:0:
24,196,169580,1,8,0:0:0:0:
128,328,169890,5,6,0:0:0:0:
192,172,170199,1,8,0:0:0:0:
60,272,170508,1,2,0:0:0:0:
212,340,170817,1,8,0:0:0:0:
192,172,171127,2,0,P|180:128|196:76,1,100,2|8,0:0|0:0,0:0:0:0:
304,28,171642,1,0,0:0:0:0:
304,28,171745,2,0,L|376:28,1,66.6666666666667,2|0,0:0|0:0,0:0:0:0:
432,80,172054,2,0,P|424:112|433:144,1,66.6666666666667,8|0,0:0|0:0,0:0:0:0:
496,188,172364,5,6,0:0:0:0:
412,312,172673,1,8,0:0:0:0:
324,192,172982,2,0,P|276:178|228:191,1,100,2|8,0:0|0:0,0:0:0:0:
72,244,173601,2,0,L|72:177,1,66.6666666666667,2|0,0:0|0:0,0:0:0:0:
84,100,173910,2,0,P|116:106|152:100,1,66.6666666666667,8|0,0:0|0:0,0:0:0:0:
208,44,174219,2,0,P|240:38|273:45,1,66.6666666666667,2|0,0:0|0:0,0:0:0:0:
332,96,174529,2,0,L|332:168,1,66.6666666666667,8|0,0:0|0:0,0:0:0:0:
332,240,174838,5,6,0:0:0:0:
196,368,175147,1,8,0:0:0:0:
256,195,175457,2,0,P|271:149|257:102,1,100,2|8,0:0|0:0,0:0:0:0:
160,24,176075,1,2,0:0:0:0:
160,24,176281,2,0,L|112:40,1,33.3333333333333,0|8,0:0|0:0,0:0:0:0:
52,120,176590,2,0,L|100:136,1,33.3333333333333
160,216,176899,2,0,L|112:232,1,33.3333333333333,0|8,0:0|0:0,0:0:0:0:
16,356,177312,5,6,0:0:0:0:
184,380,177622,1,8,0:0:0:0:
128,226,177931,2,0,P|115:179|130:132,1,100,2|8,0:0|0:0,0:0:0:0:
256,44,178549,1,6,0:0:0:0:
130,131,178859,2,0,L|60:132,1,66.6666666666667,8|0,0:0|0:0,0:0:0:0:
16,204,179168,2,0,P|28:251|16:299,1,100,2|8,0:0|0:0,0:0:0:0:
176,360,179786,6,0,L|248:360,1,66.6666666666667,2|0,0:0|0:0,0:0:0:0:
312,324,180096,2,0,P|304:288|312:256,1,66.6666666666667,8|0,0:0|0:0,0:0:0:0:
360,200,180404,1,2,0:0:0:0:
196,116,180714,1,8,0:0:0:0:
360,200,181024,2,0,P|412:212|460:200,1,100,2|8,0:0|0:0,0:0:0:0:
472,88,181539,1,0,0:0:0:0:
472,88,181642,2,0,L|472:20,1,66.6666666666667,2|0,0:0|0:0,0:0:0:0:
396,28,181951,2,0,P|362:34|328:28,1,66.6666666666667,2|0,0:0|0:0,0:0:0:0:
256,12,182260,5,6,0:0:0:0:
168,164,182570,1,8,0:0:0:0:
344,164,182879,2,0,P|392:152|440:164,1,100,2|8,0:0|0:0,0:0:0:0:
255,268,183497,2,0,P|223:276|191:269,1,66.6666666666667,2|0,0:0|0:0,0:0:0:0:
120,236,183807,1,8,0:0:0:0:
116,112,184013,2,0,L|116:0,1,100,2|0,0:0|0:0,0:0:0:0:
44,28,184425,1,8,0:0:0:0:
192,104,184735,5,6,0:0:0:0:
52,196,185044,1,8,0:0:0:0:
44,28,185353,1,2,0:0:0:0:
192,104,185662,1,8,0:0:0:0:
52,196,185972,2,0,P|36:244|52:292,1,100,2|8,0:0|0:0,0:0:0:0:
160,336,186487,1,0,0:0:0:0:
160,336,186590,2,0,L|236:336,1,66.6666666666667,2|0,0:0|0:0,0:0:0:0:
296,288,186899,2,0,P|288:252|296:216,1,66.6666666666667,8|0,0:0|0:0,0:0:0:0:
344,160,187209,5,6,0:0:0:0:
168,224,187518,1,8,0:0:0:0:
296,96,187827,2,0,P|342:80|389:94,1,100,2|8,0:0|0:0,0:0:0:0:
420,256,188446,2,0,L|420:336,1,66.6666666666667,2|0,0:0|0:0,0:0:0:0:
484,368,188755,1,8,0:0:0:0:
348,344,188961,2,0,P|300:332|252:348,1,100,2|0,0:0|0:0,0:0:0:0:
184,384,189374,1,8,0:0:0:0:
184,232,189683,5,6,0:0:0:0:
328,152,189992,1,8,0:0:0:0:
256,280,190302,1,2,0:0:0:0:
256,104,190611,1,8,0:0:0:0:
327,231,190920,2,0,P|375:244|423:230,1,100,2|8,0:0|0:0,0:0:0:0:
488,128,191436,1,0,0:0:0:0:
488,128,191539,2,0,L|488:52,1,66.6666666666667,2|0,0:0|0:0,0:0:0:0:
411,68,191848,2,0,P|379:76|347:69,1,66.6666666666667,8|0,0:0|0:0,0:0:0:0:
284,24,192157,5,6,0:0:0:0:
152,96,192467,1,8,0:0:0:0:
284,160,192776,2,0,P|296:204|276:272,1,100,2|8,0:0|0:0,0:0:0:0:
168,336,193394,2,0,L|100:336,1,66.6666666666667,2|0,0:0|0:0,0:0:0:0:
48,279,193704,2,0,P|56:247|49:215,1,66.6666666666667,8|0,0:0|0:0,0:0:0:0:
16,144,194013,2,0,P|7:111|14:79,1,66.6666666666667,2|0,0:0|0:0,0:0:0:0:
68,24,194323,2,0,L|140:24,1,66.6666666666667,8|0,0:0|0:0,0:0:0:0:
204,56,194631,5,6,0:0:0:0:
256,220,194941,1,8,0:0:0:0:
393,78,195250,2,0,P|355:47|308:56,1,100,2|8,0:0|0:0,0:0:0:0:
256,220,195869,2,0,L|256:304,1,66.6666666666667,2|0,0:0|0:0,0:0:0:0:
208,352,196178,1,8,0:0:0:0:
336,296,196384,2,0,P|384:284|436:296,1,100,2|0,0:0|0:0,0:0:0:0:
488,348,196796,1,8,0:0:0:0:
456,188,197106,5,2,0:0:0:0:
336,296,197415,1,8,0:0:0:0:
303,135,197724,2,0,P|288:89|302:42,1,100,2|8,0:0|0:0,0:0:0:0:
432,4,198343,1,2,0:0:0:0:
302,42,198652,2,0,L|230:42,1,66.6666666666667,8|0,0:0|0:0,0:0:0:0:
167,87,198961,2,0,P|171:120|166:153,1,66.6666666666667,2|0,0:0|0:0,0:0:0:0:
112,212,199271,1,8,0:0:0:0:
256,272,199580,6,0,L|324:272,1,66.6666666666667,2|0,0:0|0:0,0:0:0:0:
391,243,199889,2,0,P|386:211|391:178,1,66.6666666666667,8|0,0:0|0:0,0:0:0:0:
444,120,200198,1,2,0:0:0:0:
300,160,200508,1,8,0:0:0:0:
392,64,200817,2,0,P|436:44|488:60,1,100,2|8,0:0|0:0,0:0:0:0:
496,176,201332,2,0,L|496:276,1,100,2|0,0:0|0:0,0:0:0:0:
440,336,201745,2,0,P|396:356|344:340,1,100,2|0,0:0|0:0,0:0:0:0:
