osu file format v14

[General]
AudioFilename: yunita.mp3
AudioLeadIn: 0
PreviewTime: 64529
Countdown: 0
SampleSet: Soft
StackLeniency: 0.7
Mode: 0
LetterboxInBreaks: 0
WidescreenStoryboard: 0

[Editor]
Bookmarks: 15251,35045,54838,64735,84529,106797,119168,138962,148859,162467,182261,202054
DistanceSpacing: 1.2
BeatDivisor: 6
GridSize: 4
TimelineZoom: 0.9

[Metadata]
Title:U You
TitleUnicode:U You
Artist:Apink
ArtistUnicode:에이핑크
Creator:Natsu
Version:Normal
Source:
Tags:kpop k-pop Park Cho rong Yoon Bo mi Jung Eun ji Son Na Kim Namjoo and Oh Hayoung Cube Entertainment Secret Garden エーピンク
BeatmapID:839867
BeatmapSetID:383985

[Difficulty]
HPDrainRate:3.5
CircleSize:3.5
OverallDifficulty:4
ApproachRate:5.5
SliderMultiplier:1.7
SliderTickRate:1

[Events]
//Background and Video events
Video,0,"Apink+-+U+YOU+MV.avi"
0,0,"bg.jpg",0,0
//Break Periods
2,139162,147734
//Storyboard Layer 0 (Background)
//Storyboard Layer 1 (Fail)
//Storyboard Layer 2 (Pass)
//Storyboard Layer 3 (Foreground)
//Storyboard Sound Samples

[TimingPoints]
406,618.556701030928,4,2,0,20,1,0
15251,-100,4,2,12,45,0,1
35045,-100,4,2,12,40,0,0
54838,-100,4,2,12,30,0,0
64735,-100,4,2,12,45,0,1
84529,-100,4,2,12,40,0,0
106797,-100,4,2,12,30,0,0
119168,-100,4,2,12,45,0,1
138962,-100,4,2,12,40,0,0
148859,-100,4,2,12,30,0,0
162467,618.556701030928,4,2,12,45,1,1
182157,-100,4,2,12,45,0,0
182260,-100,4,2,12,45,0,1
202054,-100,4,2,12,25,0,0

[Colours]
Combo1 : 255,255,98
Combo2 : 255,193,255
Combo3 : 125,190,255
SliderBorder : 255,255,255

[HitObjects]
208,124,15251,6,0,P|195:165|205:206,1,85,6|8,0:0|0:0,0:0:0:0:
306,206,15869,2,0,P|316:165|303:124,1,85,2|8,0:0|0:0,0:0:0:0:
256,37,16488,2,0,L|168:33,1,85,2|8,0:0|0:0,0:0:0:0:
68,45,17107,2,0,P|76:86|64:126,1,85,0|8,0:0|0:0,0:0:0:0:
32,225,17725,5,6,0:0:0:0:
24,326,18034,1,8,0:0:0:0:
117,367,18344,1,2,0:0:0:0:
185,289,18653,1,8,0:0:0:0:
132,201,18962,2,0,P|123:159|133:118,1,85,2|8,0:0|0:0,0:0:0:0:
228,81,19581,2,0,P|236:122|226:163,1,85,2|8,0:0|0:0,0:0:0:0:
132,201,20199,6,0,L|44:201,1,85,6|8,0:0|0:0,0:0:0:0:
12,297,20818,2,0,L|97:297,1,85,2|8,0:0|0:0,0:0:0:0:
132,201,21436,2,0,P|124:161|136:117,1,85,2|8,0:0|0:0,0:0:0:0:
196,93,21952,2,0,P|247:114|298:95,1,113.333333333333,0|8,0:0|0:0,0:0:0:0:
376,25,22674,5,6,0:0:0:0:
400,125,22983,1,8,0:0:0:0:
298,95,23292,1,2,0:0:0:0:
376,25,23601,1,8,0:0:0:0:
400,125,23911,2,0,P|390:165|400:209,1,85,2|8,0:0|0:0,0:0:0:0:
440,301,24529,2,0,L|356:301,1,85,2|0,0:0|0:0,0:0:0:0:
256,281,25148,5,6,0:0:0:0:
208,189,25457,1,8,0:0:0:0:
308,188,25766,2,0,P|349:180|391:188,1,85,2|8,0:0|0:0,0:0:0:0:
444,277,26385,2,0,P|402:285|360:277,1,85,2|8,0:0|0:0,0:0:0:0:
308,188,27003,2,0,L|304:101,1,85,2|8,0:0|0:0,0:0:0:0:
256,13,27622,5,6,0:0:0:0:
208,101,27931,1,8,0:0:0:0:
124,41,28241,2,0,P|82:33|40:38,1,85,2|8,0:0|0:0,0:0:0:0:
24,141,28859,2,0,L|24:225,1,85,2|8,0:0|0:0,0:0:0:0:
28,329,29478,2,0,P|69:321|111:326,1,85,0|8,0:0|0:0,0:0:0:0:
204,373,30096,5,6,0:0:0:0:
256,285,30406,1,8,0:0:0:0:
307,372,30715,2,0,P|348:385|389:374,1,85,2|8,0:0|0:0,0:0:0:0:
472,317,31333,1,2,0:0:0:0:
392,253,31643,1,8,0:0:0:0:
471,189,31952,2,0,P|480:147|472:105,1,85,2|8,0:0|0:0,0:0:0:0:
372,81,32570,6,0,P|331:93|291:82,1,85,2|8,0:0|0:0,0:0:0:0:
208,25,33188,1,2,0:0:0:0:
196,125,33498,1,8,0:0:0:0:
112,65,33808,2,0,L|8:65,1,85,2|8,0:0|0:0,0:0:0:0:
16,165,34426,2,0,P|27:205|21:247,1,85,2|0,0:0|0:0,0:0:0:0:
80,333,35045,6,0,B|124:345|124:345|168:332,1,85,6|8,0:0|0:0,0:0:0:0:
216,248,35663,2,0,B|260:236|260:236|304:248,1,85,2|8,0:0|0:0,0:0:0:0:
392,288,36282,2,0,P|400:244|388:196,1,85,2|8,0:0|0:0,0:0:0:0:
344,156,36797,2,0,P|324:104|340:48,1,113.333333333333,2|8,0:0|0:0,0:0:0:0:
428,100,37519,5,2,0:0:0:0:
344,156,37828,1,8,0:0:0:0:
247,127,38137,2,0,P|206:119|164:127,2,85,2|8|2,0:0|0:0|0:0,0:0:0:0:
344,156,39065,1,8,0:0:0:0:
396,244,39375,2,0,P|403:285|393:326,1,85,2|8,0:0|0:0,0:0:0:0:
291,328,39993,6,0,P|280:287|288:245,1,85,2|8,0:0|0:0,0:0:0:0:
344,156,40612,1,2,0:0:0:0:
396,244,40921,1,8,0:0:0:0:
376,343,41230,2,0,P|335:356|294:345,1,85,2|8,0:0|0:0,0:0:0:0:
212,288,41849,2,0,P|171:277|131:290,1,85,2|8,0:0|0:0,0:0:0:0:
36,332,42467,6,0,L|16:248,1,85,2|8,0:0|0:0,0:0:0:0:
112,208,43086,2,0,L|132:124,1,85,2|8,0:0|0:0,0:0:0:0:
36,92,43704,2,0,L|16:8,1,85,2|8,0:0|0:0,0:0:0:0:
116,32,44323,1,0,0:0:0:0:
208,76,44632,1,8,0:0:0:0:
300,28,44942,6,0,P|340:18|381:30,1,85,2|8,0:0|0:0,0:0:0:0:
464,88,45560,1,2,0:0:0:0:
380,144,45869,1,8,0:0:0:0:
464,204,46179,2,0,P|473:246|463:287,1,85,2|8,0:0|0:0,0:0:0:0:
400,312,46694,2,0,P|348:296|292:316,1,113.333333333333,0|8,0:0|0:0,0:0:0:0:
212,376,47416,5,2,0:0:0:0:
120,328,47725,1,8,0:0:0:0:
208,276,48034,1,2,0:0:0:0:
212,376,48344,1,8,0:0:0:0:
120,328,48653,2,0,L|32:328,1,85,2|8,0:0|0:0,0:0:0:0:
32,260,49168,2,0,P|48:206|32:152,1,113.333333333333,2|8,0:0|0:0,0:0:0:0:
116,92,49890,5,2,0:0:0:0:
116,92,50199,1,8,0:0:0:0:
204,144,50509,2,0,P|245:152|287:144,1,85,2|8,0:0|0:0,0:0:0:0:
336,56,51127,2,0,P|294:47|252:55,1,85,2|8,0:0|0:0,0:0:0:0:
204,144,51746,2,0,L|196:248,1,85,2|8,0:0|0:0,0:0:0:0:
288,276,52364,6,0,L|296:172,1,85,2|8,0:0|0:0,0:0:0:0:
352,108,52983,2,0,P|394:102|436:116,2,85,2|8|0,0:0|0:0|0:0,0:0:0:0:
294,191,53911,2,0,B|208:232|208:160|129:197,1,170,8|0,0:0|0:0,0:0:0:0:
60,272,54838,5,6,0:0:0:0:
60,272,55148,1,8,2:0:0:0:
28,176,55457,1,2,0:0:0:0:
28,176,55766,1,0,0:0:0:0:
128,204,56076,2,0,L|224:204,1,85,2|8,0:0|2:0,0:0:0:0:
280,208,56591,2,0,P|296:261|282:315,1,113.333333333333,0|0,0:0|0:0,0:0:0:0:
196,368,57313,5,2,0:0:0:0:
192,268,57622,1,8,2:0:0:0:
281,315,57931,1,2,0:0:0:0:
196,368,58240,1,8,2:0:0:0:
192,268,58550,2,0,L|192:180,1,85,2|8,0:0|2:0,0:0:0:0:
196,116,59065,2,0,P|249:132|303:116,1,113.333333333333,0|8,0:0|2:0,0:0:0:0:
380,52,59787,6,0,L|412:136,1,85,6|8,0:0|2:0,0:0:0:0:
456,224,60406,2,0,P|416:216|372:232,1,85,8|8,2:0|2:0,0:0:0:0:
296,292,61024,2,0,L|264:208,1,85,6|8,0:0|2:0,0:0:0:0:
220,120,61643,2,0,P|260:128|304:112,1,85,8|8,2:0|2:0,0:0:0:0:
376,44,62261,6,0,P|415:30|456:38,2,85,2|2|2,0:0|0:0|0:0,0:0:0:0:
300,114,63189,1,2,0:0:0:0:
376,184,63498,2,0,P|384:225|376:267,1,85,2|0,0:0|0:0,0:0:0:0:
296,332,64117,2,0,P|287:290|295:248,1,85,2|0,0:0|0:0,0:0:0:0:
376,184,64735,6,0,L|424:112,1,85,6|8,0:0|0:0,0:0:0:0:
320,116,65354,2,0,L|325:29,1,85,2|8,0:0|0:0,0:0:0:0:
236,80,65973,2,0,L|197:2,1,85,2|8,0:0|0:0,0:0:0:0:
136,84,66591,2,0,L|64:36,1,85,0|8,0:0|0:0,0:0:0:0:
28,132,67210,5,6,0:0:0:0:
28,132,67518,1,8,0:0:0:0:
116,184,67828,1,2,0:0:0:0:
116,184,68137,1,8,0:0:0:0:
136,84,68447,2,0,P|177:76|218:86,1,85,2|8,0:0|0:0,0:0:0:0:
284,164,69065,2,0,P|324:174|366:166,1,85,2|8,0:0|0:0,0:0:0:0:
460,128,69683,6,0,L|460:224,1,85,6|0,0:0|0:0,0:0:0:0:
424,308,70302,2,0,P|383:295|342:305,1,85,8|0,0:0|0:0,0:0:0:0:
252,352,70921,2,0,P|211:361|170:349,1,85,2|8,0:0|0:0,0:0:0:0:
140,288,71436,2,0,B|120:228|156:228|140:177,1,113.333333333333,2|8,0:0|0:0,0:0:0:0:
68,104,72158,5,6,0:0:0:0:
68,104,72467,1,8,0:0:0:0:
152,44,72776,1,2,0:0:0:0:
152,44,73085,1,8,0:0:0:0:
208,128,73395,2,0,P|248:138|292:128,1,85,2|8,0:0|0:0,0:0:0:0:
344,40,74014,2,0,P|304:30|260:40,1,85,2|0,0:0|0:0,0:0:0:0:
208,128,74632,5,6,0:0:0:0:
176,224,74941,1,8,0:0:0:0:
128,312,75250,2,0,P|168:324|209:316,1,85,2|8,0:0|0:0,0:0:0:0:
308,284,75869,2,0,P|349:276|389:288,1,85,2|8,0:0|0:0,0:0:0:0:
484,328,76487,2,0,L|484:240,1,85,2|8,0:0|0:0,0:0:0:0:
484,140,77106,5,6,0:0:0:0:
400,196,77415,1,8,0:0:0:0:
392,96,77725,2,0,P|350:88|308:93,1,85,2|8,0:0|0:0,0:0:0:0:
256,180,78343,2,0,L|256:264,1,85,2|8,0:0|0:0,0:0:0:0:
200,348,78962,2,0,P|157:352|116:344,1,85,0|8,0:0|0:0,0:0:0:0:
24,300,79580,5,6,0:0:0:0:
108,240,79890,1,8,0:0:0:0:
108,240,80199,2,0,P|115:198|109:156,1,85,2|8,0:0|0:0,0:0:0:0:
64,68,80817,1,2,0:0:0:0:
164,76,81127,1,8,0:0:0:0:
212,164,81436,2,0,P|256:176|296:164,1,85,2|8,0:0|0:0,0:0:0:0:
340,76,82055,6,0,P|296:64|256:76,1,85,2|8,0:0|0:0,0:0:0:0:
212,164,82674,1,2,0:0:0:0:
204,268,82982,1,8,0:0:0:0:
204,268,83292,2,0,P|196:309|205:350,1,85,2|8,0:0|0:0,0:0:0:0:
306,350,83911,2,0,P|315:309|308:268,1,85,2|0,0:0|0:0,0:0:0:0:
256,180,84529,6,0,L|256:84,2,85,6|8|2,0:0|0:0|0:0,0:0:0:0:
307,267,85457,1,8,0:0:0:0:
204,268,85766,1,2,0:0:0:0:
256,180,86076,1,8,0:0:0:0:
307,267,86385,2,0,P|346:279|387:270,1,85,2|0,0:0|0:0,0:0:0:0:
472,212,87003,6,0,B|510:127|441:127|478:45,1,170,6|2,0:0|0:0,0:0:0:0:
376,60,87931,1,0,0:0:0:0:
376,60,88241,2,0,P|304:100|224:64,1,170,2|0,0:0|0:0,0:0:0:0:
144,12,89168,1,0,0:0:0:0:
136,112,89478,6,0,B|136:169|136:169|116:218|116:218|116:279,1,170,6|2,0:0|0:0,0:0:0:0:
192,348,90406,1,0,0:0:0:0:
192,348,90715,2,0,B|248:328|296:356|296:356|324:296,1,170,2|2,0:0|0:0,0:0:0:0:
360,204,91643,1,0,0:0:0:0:
420,288,91952,5,2,0:0:0:0:
420,288,92261,1,0,0:0:0:0:
322,299,92570,1,2,0:0:0:0:
322,299,92880,1,0,0:0:0:0:
360,204,93189,2,0,P|396:120|352:44,1,170,2|2,0:0|0:0,0:0:0:0:
292,128,94117,1,8,0:0:0:0:
292,128,94426,6,0,P|251:140|204:128,1,85,2|8,0:0|0:0,0:0:0:0:
144,56,95045,2,0,P|184:43|232:56,1,85,8|0,0:0|0:0,0:0:0:0:
292,128,95663,2,0,B|292:244|292:244|348:200,1,170,2|8,0:0|0:0,0:0:0:0:
420,152,96591,1,8,0:0:0:0:
428,252,96900,5,2,0:0:0:0:
428,252,97209,1,8,0:0:0:0:
334,210,97519,1,2,0:0:0:0:
334,210,97828,1,8,0:0:0:0:
420,152,98137,2,0,L|420:64,1,85,2|8,0:0|0:0,0:0:0:0:
352,72,98653,2,0,P|298:88|245:71,1,113.333333333333,2|8,0:0|0:0,0:0:0:0:
156,24,99375,5,2,0:0:0:0:
156,24,99684,1,8,0:0:0:0:
88,100,99993,1,2,0:0:0:0:
88,100,100302,1,8,0:0:0:0:
155,175,100612,2,0,P|163:217|154:258,1,85,2|8,0:0|0:0,0:0:0:0:
112,312,101127,2,0,L|228:312,1,113.333333333333,2|8,0:0|0:0,0:0:0:0:
328,312,101849,5,2,0:0:0:0:
276,224,102158,1,8,0:0:0:0:
328,136,102467,2,0,P|336:92|324:48,2,85,2|8|2,0:0|0:0|0:0,0:0:0:0:
276,224,103395,1,8,0:0:0:0:
176,216,103704,2,0,P|135:205|94:215,1,85,2|8,0:0|0:0,0:0:0:0:
16,280,104323,5,4,0:0:0:0:
112,316,104632,1,8,0:0:0:0:
94,215,104942,2,0,L|96:120,1,85,2|8,0:0|0:0,0:0:0:0:
192,96,105560,2,0,P|232:108|276:96,1,85,2|8,0:0|0:0,0:0:0:0:
372,72,106179,2,0,P|364:112|376:156,1,85,8|8,0:0|0:0,0:0:0:0:
448,224,106797,5,6,0:0:0:0:
448,224,107107,1,8,2:0:0:0:
352,256,107416,1,2,0:0:0:0:
352,256,107725,1,8,2:0:0:0:
264,208,108034,2,0,P|220:200|176:212,1,85,2|8,0:0|2:0,0:0:0:0:
124,248,108550,2,0,P|140:194|123:141,1,113.333333333333,8|8,2:0|2:0,0:0:0:0:
56,64,109272,5,6,0:0:0:0:
56,64,109581,1,8,2:0:0:0:
123,141,109890,1,2,0:0:0:0:
123,141,110199,1,8,2:0:0:0:
155,44,110509,2,0,P|196:31|237:40,1,85,2|8,0:0|2:0,0:0:0:0:
268,100,111024,2,0,P|321:115|374:99,1,113.333333333333,0|8,0:0|2:0,0:0:0:0:
468,60,111746,6,0,L|468:152,1,85,6|8,0:0|2:0,0:0:0:0:
392,212,112364,2,0,L|392:300,1,85,8|8,2:0|2:0,0:0:0:0:
308,356,112983,2,0,P|264:348|224:356,1,85,6|8,0:0|2:0,0:0:0:0:
120,376,113601,2,0,P|78:383|36:368,1,85,8|8,2:0|2:0,0:0:0:0:
88,284,114220,5,6,0:0:0:0:
88,284,114529,1,2,2:0:0:0:
44,192,114838,2,0,P|85:183|127:191,1,85,4|0,0:0|0:0,0:0:0:0:
204,260,115457,1,2,0:0:0:0:
256,172,115766,1,2,0:0:0:0:
304,260,116076,2,0,P|344:272|384:260,1,85,4|0,0:0|0:0,0:0:0:0:
460,192,116694,5,4,0:0:0:0:
368,144,117003,2,0,B|348:96|376:36|376:36|312:44,1,170,2|0,0:0|0:0,0:0:0:0:
256,124,117931,2,0,P|216:136|172:124,1,85,4|0,0:0|0:0,0:0:0:0:
132,32,118550,2,0,P|172:20|216:32,1,85,2|0,0:0|0:0,0:0:0:0:
312,60,119168,6,0,L|392:85,1,85,6|8,0:0|0:0,0:0:0:0:
468,156,119787,2,0,L|387:181,1,85,2|8,0:0|0:0,0:0:0:0:
312,252,120406,2,0,L|392:277,1,85,2|8,0:0|0:0,0:0:0:0:
468,348,121025,2,0,L|387:373,1,85,0|8,0:0|0:0,0:0:0:0:
284,372,121642,5,6,0:0:0:0:
284,372,121951,1,8,0:0:0:0:
196,320,122261,1,2,0:0:0:0:
196,320,122570,1,8,0:0:0:0:
156,228,122879,2,0,P|147:186|157:145,1,85,2|8,0:0|0:0,0:0:0:0:
252,104,123498,2,0,P|260:145|250:186,1,85,2|8,0:0|0:0,0:0:0:0:
156,228,124116,6,0,L|68:228,1,85,6|8,0:0|0:0,0:0:0:0:
16,140,124735,2,0,L|101:140,1,85,2|8,0:0|0:0,0:0:0:0:
204,136,125353,2,0,P|196:96|208:52,1,85,2|8,0:0|0:0,0:0:0:0:
276,60,125869,2,0,P|327:81|378:62,1,113.333333333333,2|8,0:0|0:0,0:0:0:0:
464,4,126591,5,6,0:0:0:0:
464,4,126900,1,8,0:0:0:0:
508,96,127209,1,2,0:0:0:0:
508,96,127518,1,8,0:0:0:0:
464,188,127828,2,0,P|453:228|463:270,1,85,2|8,0:0|0:0,0:0:0:0:
412,356,128446,2,0,L|328:356,1,85,2|8,0:0|0:0,0:0:0:0:
256,280,129065,5,6,0:0:0:0:
208,188,129374,1,8,0:0:0:0:
308,188,129683,2,0,P|349:180|391:188,1,85,2|8,0:0|0:0,0:0:0:0:
484,232,130302,2,0,L|484:139,1,85,2|8,0:0|0:0,0:0:0:0:
484,44,130921,2,0,P|443:36|401:44,1,85,2|8,0:0|0:0,0:0:0:0:
316,100,131539,5,6,0:0:0:0:
256,20,131848,1,8,0:0:0:0:
195,100,132158,2,0,P|154:108|113:97,1,85,6|8,0:0|0:0,0:0:0:0:
20,60,132776,2,0,L|20:144,1,85,2|8,0:0|0:0,0:0:0:0:
24,248,133395,2,0,P|65:240|108:248,1,85,0|8,0:0|0:0,0:0:0:0:
172,328,134013,5,6,0:0:0:0:
208,232,134323,1,8,0:0:0:0:
208,232,134632,2,0,P|200:188|208:144,1,85,2|8,0:0|0:0,0:0:0:0:
256,60,135250,1,2,0:0:0:0:
256,60,135560,1,8,0:0:0:0:
305,148,135869,2,0,P|311:190|304:232,1,85,2|8,0:0|0:0,0:0:0:0:
256,320,136487,6,0,P|215:332|175:321,1,85,2|8,0:0|0:0,0:0:0:0:
92,264,137107,1,2,0:0:0:0:
176,208,137415,1,8,0:0:0:0:
92,152,137725,2,0,P|84:112|96:68,1,85,2|8,0:0|0:0,0:0:0:0:
188,28,138344,2,0,P|196:68|184:112,1,85,2|0,0:0|0:0,0:0:0:0:
92,152,138962,5,2,0:0:0:0:
128,192,148859,22,0,P|168:204|208:191,1,85,2|8,0:0|2:0,0:0:0:0:
256,100,149478,1,2,0:0:0:0:
256,100,149787,1,8,2:0:0:0:
303,191,150096,2,0,P|343:204|384:192,2,85,2|8|2,0:0|2:0|0:0,0:0:0:0:
256,100,151024,1,8,2:0:0:0:
204,12,151333,5,2,0:0:0:0:
308,12,151643,1,8,2:0:0:0:
256,100,151952,2,0,L|256:188,1,85,2|8,0:0|2:0,0:0:0:0:
192,264,152570,2,0,B|148:276|148:276|96:264,2,85,2|8|2,0:0|2:0|0:0,0:0:0:0:
256,185,153498,1,8,2:0:0:0:
320,264,153808,6,0,B|364:276|364:276|416:264,1,85,2|8,0:0|2:0,0:0:0:0:
484,208,154426,2,0,P|496:168|480:120,2,85,2|8|2,0:0|2:0|0:0,0:0:0:0:
402,267,155354,2,0,L|402:355,2,85,8|2|8,2:0|0:0|2:0,0:0:0:0:
340,188,156282,5,2,0:0:0:0:
240,172,156590,1,8,2:0:0:0:
295,87,156900,1,2,0:0:0:0:
295,87,157210,6,0,B|289:21|385:-15|497:29|484:163|438:267|343:251|256:368|256:368|167:251|72:267|24:163|17:29|127:-15|206:21|217:87,1,1105,8|0,2:0|0:0,0:0:0:0:
256,256,161849,6,0,L|256:168,1,85,2|0,0:0|0:0,0:0:0:0:
255,72,162467,6,0,P|296:60|337:68,1,85,6|8,0:0|0:0,0:0:0:0:
400,148,163086,2,0,L|400:232,1,85,2|8,0:0|0:0,0:0:0:0:
324,300,163704,2,0,P|283:311|242:303,1,85,2|8,0:0|0:0,0:0:0:0:
179,224,164323,2,0,L|179:140,1,85,0|8,0:0|0:0,0:0:0:0:
256,72,164941,5,6,0:0:0:0:
320,152,165250,1,8,0:0:0:0:
256,232,165560,1,2,0:0:0:0:
192,152,165869,1,8,0:0:0:0:
256,72,166179,2,0,P|296:64|344:72,1,85,2|0,0:0|0:0,0:0:0:0:
408,144,166797,2,0,P|398:184|408:225,1,85,2|8,0:0|0:0,0:0:0:0:
452,320,167415,6,0,L|364:320,1,85,6|8,0:0|0:0,0:0:0:0:
264,320,168034,2,0,P|277:279|267:238,1,85,2|8,0:0|0:0,0:0:0:0:
176,192,168652,2,0,P|163:151|173:110,1,85,2|8,0:0|0:0,0:0:0:0:
224,64,169168,2,0,B|108:64,1,113.333333333333,2|8,0:0|0:0,0:0:0:0:
24,116,169890,5,6,0:0:0:0:
24,116,170199,1,8,0:0:0:0:
92,192,170508,1,2,0:0:0:0:
92,192,170817,1,8,0:0:0:0:
23,268,171127,2,0,P|14:309|23:350,1,85,2|8,0:0|0:0,0:0:0:0:
124,368,171746,2,0,L|208:368,1,85,2|0,0:0|0:0,0:0:0:0:
300,324,172364,5,6,0:0:0:0:
212,272,172673,1,8,0:0:0:0:
299,220,172982,2,0,P|311:179|303:138,1,85,2|8,0:0|0:0,0:0:0:0:
216,84,173601,2,0,P|204:124|212:165,1,85,2|8,0:0|0:0,0:0:0:0:
299,220,174219,2,0,L|392:220,1,85,2|8,0:0|0:0,0:0:0:0:
472,276,174838,5,6,0:0:0:0:
384,324,175147,1,8,0:0:0:0:
383,220,175457,2,0,P|392:178|381:137,1,85,2|8,0:0|0:0,0:0:0:0:
300,80,176075,2,0,L|208:72,1,85,2|8,0:0|0:0,0:0:0:0:
112,64,176693,2,0,P|122:104|114:146,1,85,0|8,0:0|0:0,0:0:0:0:
48,224,177312,5,6,0:0:0:0:
148,240,177622,1,8,0:0:0:0:
219,311,177931,2,0,P|260:324|301:313,1,85,2|8,0:0|0:0,0:0:0:0:
392,272,178549,1,6,0:0:0:0:
312,212,178859,1,8,0:0:0:0:
256,124,179168,2,0,P|244:80|256:40,1,85,2|8,0:0|0:0,0:0:0:0:
348,80,179787,6,0,L|432:80,1,85,2|8,0:0|0:0,0:0:0:0:
488,164,180404,1,2,0:0:0:0:
488,164,180714,1,8,0:0:0:0:
412,236,181024,2,0,P|371:244|330:235,1,85,2|8,0:0|0:0,0:0:0:0:
240,184,181642,2,0,P|198:174|157:182,1,85,2|2,0:0|0:0,0:0:0:0:
76,244,182260,5,6,0:0:0:0:
64,144,182570,1,8,0:0:0:0:
64,144,182879,2,0,L|56:56,1,85,2|8,0:0|0:0,0:0:0:0:
156,76,183497,2,0,P|197:84|238:76,1,85,2|8,0:0|0:0,0:0:0:0:
292,32,184013,2,0,L|292:152,1,113.333333333333,2|8,0:0|0:0,0:0:0:0:
252,240,184735,5,6,0:0:0:0:
252,240,185044,1,8,0:0:0:0:
204,332,185353,1,2,0:0:0:0:
204,332,185662,1,8,0:0:0:0:
308,331,185972,2,0,P|349:323|391:331,1,85,2|8,0:0|0:0,0:0:0:0:
484,372,186590,2,0,L|484:284,1,85,2|8,0:0|0:0,0:0:0:0:
480,184,187209,5,6,0:0:0:0:
392,240,187518,1,8,0:0:0:0:
392,140,187827,2,0,L|392:52,1,85,2|8,0:0|0:0,0:0:0:0:
292,84,188446,2,0,P|251:96|211:85,1,85,2|8,0:0|0:0,0:0:0:0:
164,36,188961,2,0,L|164:152,1,113.333333333333,2|8,0:0|0:0,0:0:0:0:
116,240,189683,5,6,0:0:0:0:
116,240,189992,1,8,0:0:0:0:
220,236,190302,1,2,0:0:0:0:
220,236,190611,1,8,0:0:0:0:
164,148,190920,2,0,P|123:136|81:143,1,85,2|8,0:0|0:0,0:0:0:0:
33,235,191539,2,0,P|73:246|115:239,1,85,2|8,0:0|0:0,0:0:0:0:
164,148,192157,5,6,0:0:0:0:
220,236,192467,1,8,0:0:0:0:
220,236,192776,2,0,L|220:336,1,85,2|8,0:0|0:0,0:0:0:0:
311,360,193394,2,0,P|353:351|395:358,1,85,2|8,0:0|0:0,0:0:0:0:
496,336,194013,2,0,L|496:251,1,85,2|8,0:0|0:0,0:0:0:0:
496,148,194631,5,6,0:0:0:0:
496,148,194941,1,8,0:0:0:0:
404,191,195250,2,0,P|363:204|322:195,1,85,2|8,0:0|0:0,0:0:0:0:
236,144,195869,2,0,P|194:135|154:147,1,85,2|8,0:0|0:0,0:0:0:0:
108,196,196384,2,0,L|108:316,1,113.333333333333,2|8,0:0|0:0,0:0:0:0:
184,376,197106,5,2,0:0:0:0:
256,304,197415,1,8,0:0:0:0:
328,376,197724,2,0,P|376:384|416:372,1,85,2|8,0:0|0:0,0:0:0:0:
444,280,198343,1,2,0:0:0:0:
416,180,198652,2,0,P|404:136|416:96,2,85,8|2|8,0:0|0:0|0:0,0:0:0:0:
444,280,199580,6,0,L|359:280,1,85,2|8,0:0|0:0,0:0:0:0:
284,212,200198,1,2,0:0:0:0:
284,212,200508,1,8,0:0:0:0:
256,312,200817,2,0,P|192:340|124:312,1,141.666666666667,2|2,0:0|0:0,0:0:0:0:
68,232,201642,2,0,B|68:192|68:192|84:160|84:160|84:116,1,113.333333333333,0|0,0:0|0:0,0:0:0:0:
