osu file format v14

[General]
AudioFilename: APink Remember.mp3
AudioLeadIn: 0
PreviewTime: 79346
Countdown: 0
SampleSet: Soft
StackLeniency: 0.7
Mode: 0
LetterboxInBreaks: 0
WidescreenStoryboard: 1

[Editor]
DistanceSpacing: 0.7
BeatDivisor: 4
GridSize: 4
TimelineZoom: 1

[Metadata]
Title:Remember
TitleUnicode:Remember
Artist:Apink
ArtistUnicode:에이핑크
Creator:P A N
Version:Remember
Source:
Tags:리멤버 박초롱 윤보미 정은지 손나은 김남주 오하영 A-cube Entertainment エーピンク pink memory Park Cho Rong Yoon Bo Mi Jeong Eun Ji Son Na Eun Kim Nam Joo Oh Ha Young p_a_n
BeatmapID:746921
BeatmapSetID:337616

[Difficulty]
HPDrainRate:7
CircleSize:4
OverallDifficulty:7
ApproachRate:8
SliderMultiplier:1.9
SliderTickRate:1

[Events]
//Background and Video events
0,0,"Apink remember 32.jpg",0,0
Video,0,"apink.avi"
//Break Periods
2,166548,169598
2,170548,173598
2,182548,190598
//Storyboard Layer 0 (Background)
//Storyboard Layer 1 (Fail)
//Storyboard Layer 2 (Pass)
//Storyboard Layer 3 (Foreground)
//Storyboard Sound Samples

[TimingPoints]
27346,500,4,2,1,80,1,0
28348,500,4,2,1,80,1,0
45848,-133.333333333333,4,2,1,70,0,0
54098,-100,4,2,1,70,0,0
54598,-133.333333333333,4,2,1,70,0,0
62598,-100,4,2,1,70,0,0
79848,-100,4,2,1,60,0,0
80098,-100,4,2,1,70,0,0
80348,-83.3333333333333,4,2,1,80,0,1
80848,-100,4,2,1,80,0,1
87348,-100,4,2,1,80,0,0
87848,-133.333333333333,4,2,1,80,0,0
88348,-133.333333333333,4,2,1,100,0,1
88598,-100,4,2,1,100,0,1
95348,-100,4,2,1,100,0,0
96348,-100,4,2,1,80,0,1
104348,-100,4,2,1,70,0,0
107848,-133.333333333333,4,2,1,70,0,0
116098,-100,4,2,1,70,0,0
116598,-133.333333333333,4,2,1,70,0,0
124348,-100,4,2,1,70,0,0
141848,-100,4,2,1,60,0,0
142098,-100,4,2,1,70,0,0
142348,-83.3333333333333,4,2,1,80,0,1
142848,-100,4,2,1,80,0,1
149348,-100,4,2,1,80,0,0
149848,-133.333333333333,4,2,1,80,0,0
150348,-100,4,2,1,100,0,1
157348,-100,4,2,1,100,0,0
158348,-100,4,2,1,80,0,1
166348,-100,4,2,1,80,0,0
174348,-100,4,2,1,70,0,0
191348,-100,4,2,1,80,0,0
208348,-100,4,2,1,100,0,1
215348,-100,4,2,1,100,0,0
216348,-100,4,2,1,80,0,1
224348,-100,4,2,1,80,0,0
224598,-133.333333333333,4,2,1,60,0,0
225098,-133.333333333333,4,2,1,30,0,0
225598,-133.333333333333,4,2,1,10,0,0

[Colours]
Combo1 : 255,255,43
Combo2 : 255,225,240
Combo3 : 255,128,192
Combo4 : 255,21,138
Combo5 : 255,112,43
SliderBorder : 255,128,192

[HitObjects]
173,204,27346,6,0,P|160:158|173:109,1,95,4|0,0:0|0:0,0:0:0:0:
338,112,27846,2,0,P|348:157|336:203,1,95,4|0,0:0|0:0,0:0:0:0:
295,42,28348,6,0,P|338:31|393:50,1,95,4|0,0:0|0:0,0:0:0:0:
473,158,28848,2,0,L|471:257,1,95,8|0,0:0|0:0,0:0:0:0:
470,290,29223,1,0,0:0:0:0:
470,328,29348,1,2,0:0:0:0:
346,255,29598,2,0,P|300:246|244:262,1,95,2|8,0:0|0:0,0:0:0:0:
161,367,30098,1,2,0:0:0:0:
62,261,30348,6,0,P|50:218|63:163,1,95,2|0,0:0|0:0,0:0:0:0:
165,68,30848,2,0,L|261:70,1,95,8|0,0:0|0:0,0:0:0:0:
297,70,31223,1,0,0:0:0:0:
334,70,31348,1,2,0:0:0:0:
382,208,31598,2,0,P|337:219|285:206,1,95,2|8,0:0|0:0,0:0:0:0:
334,70,32098,1,2,0:0:0:0:
452,162,32348,38,0,P|466:210|452:255,1,95,2|0,0:0|0:0,0:0:0:0:
306,253,32848,2,0,P|292:205|306:160,1,95,8|0,0:0|0:0,0:0:0:0:
329,134,33223,1,0,0:0:0:0:
365,122,33348,1,2,0:0:0:0:
354,321,33598,2,0,P|311:333|252:316,1,95,2|8,0:0|0:0,0:0:0:0:
219,183,34098,6,0,L|216:83,1,95,2|0,0:0|0:0,0:0:0:0:
91,19,34598,1,2,0:0:0:0:
93,164,34848,2,0,L|97:267,1,95,8|0,0:0|0:0,0:0:0:0:
97,295,35223,1,2,0:0:0:0:
98,333,35348,1,0,0:0:0:0:
275,325,35598,1,2,0:0:0:0:
269,154,35848,1,8,0:0:0:0:
93,164,36098,1,2,0:0:0:0:
270,239,36348,6,0,P|316:248|368:235,1,95,4|0,0:0|0:0,0:0:0:0:
361,71,36848,2,0,P|315:62|263:75,1,95,8|0,0:0|0:0,0:0:0:0:
268,72,37223,1,0,0:0:0:0:
268,72,37348,1,2,0:0:0:0:
195,197,37598,2,0,P|184:247|199:289,1,95,2|8,0:0|0:0,0:0:0:0:
321,361,38098,1,2,0:0:0:0:
448,290,38348,38,0,P|462:245|450:199,1,95,2|0,0:0|0:0,0:0:0:0:
370,76,38848,2,0,L|267:79,1,95,8|0,0:0|0:0,0:0:0:0:
236,80,39223,1,0,0:0:0:0:
198,80,39348,1,2,0:0:0:0:
284,197,39598,2,0,P|334:207|385:189,1,95,2|8,0:0|0:0,0:0:0:0:
275,78,40098,1,2,0:0:0:0:
199,211,40348,6,0,P|190:257|206:307,1,95,2|0,0:0|0:0,0:0:0:0:
339,351,40848,2,0,L|433:348,1,95,8|0,0:0|0:0,0:0:0:0:
471,347,41223,1,0,0:0:0:0:
508,347,41348,1,2,0:0:0:0:
364,201,41598,1,2,0:0:0:0:
512,79,41848,1,8,0:0:0:0:
423,259,42098,6,0,P|346:278|279:188,1,190,6|2,0:0|0:0,0:0:0:0:
284,164,42723,1,0,0:0:0:0:
309,135,42848,2,0,L|261:134,1,47.5,8|0,0:0|0:0,0:0:0:0:
181,67,43098,2,0,L|130:71,1,47.5,2|0,0:0|0:0,0:0:0:0:
58,141,43348,1,2,0:0:0:0:
43,176,43473,1,2,0:0:0:0:
38,213,43598,1,2,0:0:0:0:
47,249,43723,1,2,0:0:0:0:
61,284,43848,2,0,P|103:293|158:279,1,95,8|0,0:0|0:0,0:0:0:0:
284,164,44348,38,0,P|332:144|425:171,1,142.5
444,191,44848,1,8,0:0:0:0:
333,68,45098,1,2,0:0:0:0:
352,232,45348,1,2,0:0:0:0:
356,269,45473,1,8,0:0:0:0:
359,306,45598,2,0,L|365:366,1,47.5,2|0,0:0|0:0,0:0:0:0:
440,262,45848,6,0,L|444:191,1,71.2500027179719,8|0,0:0|0:0,0:0:0:0:
333,68,46348,6,0,P|272:46|192:71,1,142.500005435944,4|8,0:0|0:0,0:0:0:0:
92,252,47348,1,0,0:0:0:0:
173,320,47598,1,2,0:0:0:0:
255,252,47848,1,8,0:0:0:0:
339,320,48098,1,0,0:0:0:0:
420,252,48348,38,0,P|425:214|416:176,1,71.2500027179719,2|0,0:0|0:0,0:0:0:0:
349,100,48848,2,0,L|275:103,1,71.2500027179719,8|0,0:0|0:0,0:0:0:0:
249,104,49223,1,0,0:0:0:0:
220,105,49348,1,2,0:0:0:0:
118,137,49598,1,0,0:0:0:0:
139,32,49848,1,8,0:0:0:0:
220,105,50098,6,0,P|227:144|217:186,1,71.2500027179719,0|2,0:0|0:0,0:0:0:0:
145,250,50598,1,0,0:0:0:0:
220,326,50848,1,8,0:0:0:0:
295,250,51098,2,0,L|336:248,2,35.625001358986,0|0|2,0:0|0:0|0:0,0:0:0:0:
220,326,51598,1,0,0:0:0:0:
145,250,51848,1,8,0:0:0:0:
74,330,52098,1,0,0:0:0:0:
2,250,52348,6,0,P|-5:217|5:176,1,71.2500027179719,2|0,0:0|0:0,0:0:0:0:
77,104,52848,2,0,L|151:106,1,71.2500027179719,8|0,0:0|0:0,0:0:0:0:
227,177,53348,1,0,0:0:0:0:
302,101,53598,1,0,0:0:0:0:
378,175,53848,1,8,0:0:0:0:
450,96,54098,38,0,L|450:64,4,23.75,0|0|0|0|2,0:0|0:0|0:0|0:0|0:0,0:0:0:0:
378,175,54598,1,0,0:0:0:0:
377,281,54848,1,8,0:0:0:0:
453,356,55098,2,0,L|492:356,2,35.625001358986
377,281,55598,2,0,P|345:275|301:284,1,71.2500027179719,0|8,0:0|0:0,0:0:0:0:
218,343,56098,6,0,P|182:348|147:344,1,71.2500027179719,0|2,0:0|0:0,0:0:0:0:
73,266,56598,2,0,L|77:188,1,71.2500027179719,0|8,0:0|0:0,0:0:0:0:
84,87,57098,2,0,L|42:89,2,35.625001358986,0|0|2,0:0|0:0|0:0,0:0:0:0:
176,140,57598,2,0,P|183:178|176:220,1,71.2500027179719,0|8,0:0|0:0,0:0:0:0:
270,155,58098,6,0,P|305:147|343:155,1,71.2500027179719,0|2,0:0|0:0,0:0:0:0:
428,212,58598,1,0,0:0:0:0:
413,317,58848,1,8,0:0:0:0:
330,249,59098,1,0,0:0:0:0:
428,212,59348,1,2,0:0:0:0:
508,281,59598,2,0,P|515:314|508:355,1,71.2500027179719,0|8,0:0|0:0,0:0:0:0:
413,317,60098,1,0,0:0:0:0:
512,143,60348,37,8,0:0:0:0:
512,143,60598,1,2,0:0:0:0:
321,142,60848,1,8,0:0:0:0:
330,249,61098,2,0,L|333:292,1,35.625001358986,2|2,0:0|0:0,0:0:0:0:
413,317,61348,6,0,P|449:324|488:312,1,71.2500027179719,8|0,0:0|0:0,0:0:0:0:
321,142,61848,2,0,P|285:135|243:146,1,71.2500027179719,8|0,0:0|0:0,0:0:0:0:
179,317,62348,1,4,0:0:0:0:
78,262,62598,5,0,0:0:0:0:
173,200,62848,1,8,0:0:0:0:
179,317,63098,1,0,0:0:0:0:
78,262,63348,1,2,0:0:0:0:
61,233,63473,2,0,P|50:191|64:135,1,95
80,114,63848,1,8,0:0:0:0:
171,49,64098,38,0,L|268:50,1,95,0|2,0:0|0:0,0:0:0:0:
380,50,64598,1,0,0:0:0:0:
418,157,64848,1,8,0:0:0:0:
327,225,65098,1,0,0:0:0:0:
237,154,65348,1,2,0:0:0:0:
205,142,65473,2,0,P|159:131|105:146,1,95
82,154,65848,1,8,0:0:0:0:
171,49,66098,1,0,0:0:0:0:
157,209,66348,6,0,P|149:257|161:303,1,95,2|0,0:0|0:0,0:0:0:0:
256,363,66848,1,8,0:0:0:0:
353,303,67098,1,0,0:0:0:0:
451,360,67348,1,2,0:0:0:0:
449,246,67598,1,0,0:0:0:0:
353,303,67848,1,8,0:0:0:0:
349,189,68098,1,0,0:0:0:0:
246,139,68348,5,2,0:0:0:0:
157,209,68598,2,0,P|115:221|60:209,1,95,0|8,0:0|0:0,0:0:0:0:
65,211,68973,1,0,0:0:0:0:
65,211,69098,1,2,0:0:0:0:
251,234,69348,38,0,P|263:281|248:335,1,95,2|0,0:0|0:0,0:0:0:0:
104,137,69848,2,0,P|92:90|106:37,1,95,8|0,0:0|0:0,0:0:0:0:
350,45,70348,1,6,0:0:0:0:
461,68,70598,5,0,0:0:0:0:
476,180,70848,1,8,0:0:0:0:
371,225,71098,1,0,0:0:0:0:
294,140,71348,1,2,0:0:0:0:
278,169,71473,2,0,P|268:219|284:264,1,95
298,288,71848,1,8,0:0:0:0:
479,270,72098,6,0,P|489:220|473:175,1,95,0|2,0:0|0:0,0:0:0:0:
396,97,72598,1,0,0:0:0:0:
294,140,72848,1,8,0:0:0:0:
371,225,73098,1,0,0:0:0:0:
475,179,73348,1,2,0:0:0:0:
499,156,73473,2,0,P|508:112|497:64,1,95
468,46,73848,1,8,0:0:0:0:
358,14,74098,1,0,0:0:0:0:
248,46,74348,38,0,B|191:67|149:48|149:48|101:32|47:55,1,190,2|8,0:0|0:0,0:0:0:0:
9,150,75098,1,0,0:0:0:0:
62,250,75348,1,2,0:0:0:0:
176,250,75598,1,0,0:0:0:0:
119,150,75848,1,8,0:0:0:0:
62,250,76098,1,0,0:0:0:0:
120,347,76348,6,0,P|156:362|218:353,1,95,2|0,0:0|0:0,0:0:0:0:
392,347,76848,2,0,P|356:362|294:353,1,95,8|0,0:0|0:0,0:0:0:0:
256,171,77348,1,0,0:0:0:0:
256,137,77473,1,0,0:0:0:0:
256,103,77598,1,0,0:0:0:0:
256,69,77723,1,0,0:0:0:0:
256,35,77848,1,2,0:0:0:0:
326,243,78098,1,0,0:0:0:0:
326,243,78223,1,0,0:0:0:0:
326,243,78348,6,0,P|266:265|183:235,1,142.5,4|2,0:3|0:0,0:0:0:0:
167,222,78848,2,0,L|175:319,1,95,8|0,0:0|0:0,0:0:0:0:
107,154,79348,1,4,0:3:0:0:
107,154,79473,1,4,0:3:0:0:
107,154,79598,2,0,L|110:105,1,47.5,4|0,0:3|0:0,0:0:0:0:
116,22,79848,1,4,0:0:0:0:
0,96,80098,1,0,0:0:0:0:
167,222,80348,38,0,P|221:234|283:215,1,113.999996520996,4|0,0:0|0:0,0:0:0:0:
215,48,80848,6,0,P|204:95|225:148,1,95,8|0,0:0|0:0,0:0:0:0:
321,90,81348,1,2,0:0:0:0:
412,157,81598,1,2,0:0:0:0:
412,269,81848,1,8,0:0:0:0:
317,209,82098,1,0,0:0:0:0:
412,157,82348,5,2,0:0:0:0:
511,211,82598,2,0,L|506:320,1,95,0|8,0:0|0:0,0:0:0:0:
412,378,83098,1,0,0:0:0:0:
412,269,83348,1,2,0:0:0:0:
314,328,83598,1,2,0:0:0:0:
215,267,83848,1,8,0:0:0:0:
119,328,84098,1,0,0:0:0:0:
20,270,84348,38,0,P|-10:215|23:91,1,190,2|8,0:0|0:0,0:0:0:0:
109,27,85098,1,0,0:0:0:0:
202,91,85348,1,2,0:0:0:0:
110,159,85598,1,2,0:0:0:0:
202,91,85848,1,8,0:0:0:0:
296,155,86098,6,0,P|308:197|297:252,1,95,0|2,0:0|0:0,0:0:0:0:
188,272,86598,1,0,0:0:0:0:
259,360,86848,2,0,P|304:370|357:353,1,95,8|2,0:0|0:0,0:0:0:0:
383,115,87348,5,6,0:0:0:0:
383,115,87598,1,2,0:0:0:0:
188,272,87848,38,0,P|141:285|72:270,1,106.875004076958,6|0,0:0|0:0,0:0:0:0:
32,215,88348,37,6,0:0:0:0:
183,180,88598,2,0,P|196:225|187:271,1,95,2|8,0:3|0:0,0:0:0:0:
137,99,89098,1,2,0:3:0:0:
137,99,89223,1,2,0:3:0:0:
137,99,89348,2,0,P|182:89|237:103,1,95,2|2,0:0|0:3,0:0:0:0:
104,176,89848,1,8,0:0:0:0:
131,18,90098,1,2,0:3:0:0:
35,138,90348,5,2,0:0:0:0:
183,180,90598,2,0,P|230:188|281:175,1,95,2|8,0:3|0:0,0:0:0:0:
388,60,91098,1,2,0:3:0:0:
388,60,91223,1,2,0:3:0:0:
388,60,91348,1,2,0:0:0:0:
229,99,91598,1,2,0:3:0:0:
274,254,91848,1,8,0:0:0:0:
433,218,92098,1,2,0:3:0:0:
321,343,92348,54,0,P|275:355|219:338,2,95,2|2|8,0:0|0:3|0:0,0:0:0:0:
345,188,93098,1,2,0:3:0:0:
345,188,93223,1,2,0:3:0:0:
345,188,93348,1,2,0:0:0:0:
194,245,93598,1,2,0:3:0:0:
359,266,93848,1,8,0:0:0:0:
225,169,94098,6,0,P|172:163|114:271,1,190,2|2,0:3|0:3,0:0:0:0:
105,94,94848,1,8,0:0:0:0:
201,253,95098,1,2,0:3:0:0:
201,253,95223,1,8,0:0:0:0:
201,253,95348,1,0,0:0:0:0:
105,94,95598,1,4,3:0:0:0:
271,165,95848,1,8,0:0:0:0:
96,200,96098,1,2,3:0:0:0:
213,67,96348,5,6,0:0:0:0:
326,67,96598,1,2,0:3:0:0:
381,166,96848,1,8,0:0:0:0:
322,264,97098,1,2,0:3:0:0:
322,264,97223,1,2,0:3:0:0:
322,264,97348,1,2,0:0:0:0:
381,166,97598,1,2,0:3:0:0:
271,165,97848,1,8,0:0:0:0:
322,264,98098,6,0,P|365:272|417:258,1,95,2|2,0:3|0:0,0:0:0:0:
490,165,98598,1,2,0:3:0:0:
433,66,98848,1,8,0:0:0:0:
319,68,99098,1,2,0:3:0:0:
285,69,99223,2,0,L|140:68,1,142.5,2|0,0:3|0:0,0:0:0:0:
143,181,99848,1,8,0:0:0:0:
44,123,100098,5,0,0:0:0:0:
47,236,100348,1,2,0:0:0:0:
143,181,100598,1,2,0:0:0:0:
38,17,100848,37,6,0:0:0:0:
142,68,101098,1,0,0:0:0:0:
44,123,101348,1,2,0:0:0:0:
38,17,101598,1,2,0:0:0:0:
242,134,101848,5,6,0:0:0:0:
143,181,102098,1,2,0:0:0:0:
142,68,102348,1,0,0:0:0:0:
242,134,102598,2,0,P|256:182|240:237,1,95,2|8,0:0|0:0,0:0:0:0:
142,68,103098,1,2,0:0:0:0:
165,44,103223,1,0,0:0:0:0:
195,30,103348,1,2,0:0:0:0:
227,24,103473,1,0,0:0:0:0:
260,25,103598,1,0,0:0:0:0:
292,33,103723,1,0,0:0:0:0:
319,52,103848,2,0,P|363:62|413:48,1,95,8|0,0:0|0:0,0:0:0:0:
335,169,104348,6,0,P|317:234|345:312,1,142.5,0|2,0:0|0:0,0:0:0:0:
360,329,104848,1,8,0:0:0:0:
249,302,105098,2,0,P|205:292|147:308,1,95,2|0,0:0|0:0,0:0:0:0:
129,322,105473,1,8,0:0:0:0:
108,348,105598,2,0,L|59:346,1,47.5,2|0,0:0|0:0,0:0:0:0:
10,278,105848,2,0,P|-3:234|10:181,1,95,8|0,0:0|0:0,0:0:0:0:
26,159,106223,1,8,0:0:0:0:
58,151,106348,38,0,B|103:153|103:153|149:141|149:141|210:143,1,142.5,2|2,0:0|0:0,0:0:0:0:
232,143,106848,1,8,0:0:0:0:
316,261,107098,1,2,0:0:0:0:
391,145,107348,1,2,0:0:0:0:
391,145,107473,1,8,0:0:0:0:
391,145,107598,2,0,L|394:93,1,47.5
472,132,107848,6,0,L|468:223,1,71.2500027179719,8|0,0:0|0:0,0:0:0:0:
385,332,108348,6,0,P|327:353|246:329,1,142.500005435944,6|8,0:0|0:0,0:0:0:0:
193,242,109098,2,0,L|143:242,2,35.625001358986,0|0|2,0:0|0:0|0:0,0:0:0:0:
255,155,109598,1,0,0:0:0:0:
319,242,109848,1,8,0:0:0:0:
382,156,110098,1,0,0:0:0:0:
315,72,110348,38,0,P|278:65|240:73,1,71.2500027179719,2|0,0:0|0:0,0:0:0:0:
164,140,110848,1,8,0:0:0:0:
85,67,111098,2,0,L|85:28,2,35.625001358986,0|0|2,0:0|0:0|0:0,0:0:0:0:
7,140,111598,1,0,0:0:0:0:
84,214,111848,1,8,0:0:0:0:
164,140,112098,6,0,P|202:133|238:140,1,71.2500027179719,0|2,0:0|0:0,0:0:0:0:
308,215,112598,1,0,0:0:0:0:
233,291,112848,1,8,0:0:0:0:
305,369,113098,2,0,L|341:369,2,35.625001358986,0|0|2,0:0|0:0|0:0,0:0:0:0:
233,291,113598,1,0,0:0:0:0:
158,367,113848,1,8,0:0:0:0:
158,367,114098,1,0,0:0:0:0:
84,289,114348,6,0,P|76:253|86:214,1,71.2500027179719,2|0,0:0|0:0,0:0:0:0:
232,221,114848,2,0,P|240:257|230:296,1,71.2500027179719,8|0,0:0|0:0,0:0:0:0:
158,149,115348,1,2,0:0:0:0:
159,255,115598,1,0,0:0:0:0:
158,149,115848,1,8,0:0:0:0:
71,77,116098,38,0,L|33:77,4,23.75,0|0|0|0|2,0:0|0:0|0:0|0:0|0:0,0:0:0:0:
157,13,116598,1,0,0:0:0:0:
241,78,116848,1,8,0:0:0:0:
328,16,117098,1,0,0:0:0:0:
415,78,117348,1,2,0:0:0:0:
328,140,117598,6,0,P|323:174|334:218,1,71.2500027179719,0|8,0:0|0:0,0:0:0:0:
421,266,118098,2,0,L|501:260,1,71.2500027179719,0|2,0:0|0:0,0:0:0:0:
329,316,118598,2,0,L|257:312,1,71.2500027179719,0|8,0:0|0:0,0:0:0:0:
201,220,119098,2,0,L|201:179,2,35.625001358986,0|0|2,0:0|0:0|0:0,0:0:0:0:
135,305,119598,2,0,P|129:341|138:377,1,71.2500027179719,0|8,0:0|0:0,0:0:0:0:
110,216,120098,6,0,P|116:180|107:144,1,71.2500027179719,0|2,0:0|0:0,0:0:0:0:
7,184,120598,1,0,0:0:0:0:
29,288,120848,1,8,0:0:0:0:
135,305,121098,1,0,0:0:0:0:
201,220,121348,1,2,0:0:0:0:
174,116,121598,1,0,0:0:0:0:
68,98,121848,1,8,0:0:0:0:
137,16,122098,1,0,0:0:0:0:
104,211,122348,37,2,0:0:0:0:
104,211,122598,1,0,0:0:0:0:
35,24,122848,1,8,0:0:0:0:
229,55,123098,2,0,L|269:52,1,35.625001358986,2|2,0:0|0:0,0:0:0:0:
174,116,123348,6,0,P|167:153|179:191,1,71.2500027179719,2|0,0:0|0:0,0:0:0:0:
372,185,123848,2,0,P|379:148|367:110,1,71.2500027179719,8|0,0:0|0:0,0:0:0:0:
219,255,124348,1,6,0:0:0:0:
269,152,124598,5,0,0:0:0:0:
318,254,124848,1,8,0:0:0:0:
269,357,125098,1,0,0:0:0:0:
157,331,125348,1,2,0:0:0:0:
140,302,125473,2,0,P|128:262|145:201,1,95
157,183,125848,1,8,0:0:0:0:
269,152,126098,38,0,L|365:155,1,95,0|2,0:0|0:0,0:0:0:0:
429,248,126598,1,0,0:0:0:0:
503,161,126848,1,8,0:0:0:0:
436,68,127098,1,0,0:0:0:0:
363,154,127348,1,2,0:0:0:0:
348,183,127473,2,0,P|338:228|355:282,1,95
366,303,127848,1,8,0:0:0:0:
453,230,128098,1,0,0:0:0:0:
363,154,128348,6,0,P|287:123|181:148,1,190,2|8,0:0|0:0,0:0:0:0:
113,235,129098,1,0,0:0:0:0:
37,149,129348,1,2,0:0:0:0:
8,259,129598,1,0,0:0:0:0:
88,339,129848,1,8,0:0:0:0:
198,311,130098,1,0,0:0:0:0:
113,235,130348,5,2,0:0:0:0:
222,201,130598,2,0,P|265:192|316:200,1,95,0|8,0:0|0:0,0:0:0:0:
314,199,130973,1,2,0:0:0:0:
314,199,131098,1,0,0:0:0:0:
468,344,131348,38,0,L|475:245,1,95,2|0,0:0|0:0,0:0:0:0:
399,43,131848,2,0,L|406:142,1,95,8|0,0:0|0:0,0:0:0:0:
362,343,132348,1,6,0:0:0:0:
263,285,132598,5,0,0:0:0:0:
166,345,132848,1,8,0:0:0:0:
97,253,133098,1,0,0:0:0:0:
189,186,133348,1,2,0:0:0:0:
219,172,133473,2,0,P|266:161|319:175,1,95
339,187,133848,1,8,0:0:0:0:
444,232,134098,6,0,P|452:186|440:135,1,95,0|2,0:0|0:0,0:0:0:0:
420,27,134598,1,0,0:0:0:0:
308,5,134848,1,8,0:0:0:0:
255,105,135098,1,0,0:0:0:0:
339,187,135348,1,2,0:0:0:0:
352,217,135473,2,0,P|362:264|354:313,1,95
341,340,135848,1,8,0:0:0:0:
245,278,136098,1,0,0:0:0:0:
151,342,136348,37,2,0:0:0:0:
151,228,136598,1,0,0:0:0:0:
50,281,136848,1,8,0:0:0:0:
51,167,137098,1,0,0:0:0:0:
151,228,137348,1,2,0:0:0:0:
156,114,137598,1,0,0:0:0:0:
56,59,137848,1,8,0:0:0:0:
51,167,138098,1,0,0:0:0:0:
156,114,138348,6,0,B|214:118|214:118|282:101|282:101|348:105,1,190,2|8,0:0|0:0,0:0:0:0:
414,15,139098,1,0,0:0:0:0:
484,104,139348,1,0,0:0:0:0:
483,137,139473,1,0,0:0:0:0:
482,170,139598,1,0,0:0:0:0:
482,203,139723,1,0,0:0:0:0:
480,236,139848,1,2,0:0:0:0:
397,317,140098,1,0,0:0:0:0:
397,317,140223,1,0,0:0:0:0:
397,317,140348,6,0,P|334:297|247:323,1,142.5,4|2,0:3|0:0,0:0:0:0:
238,337,140848,2,0,P|246:292|235:241,1,95,8|0,0:0|0:0,0:0:0:0:
174,161,141348,1,4,0:3:0:0:
174,161,141473,1,4,0:3:0:0:
174,161,141598,2,0,L|115:165,1,47.5,4|0,0:3|0:0,0:0:0:0:
42,169,141848,1,4,0:0:0:0:
119,71,142098,1,0,0:0:0:0:
312,115,142348,38,0,P|326:163|311:231,1,113.999996520996,6|0,0:0|0:0,0:0:0:0:
263,42,142848,6,0,P|305:31|361:46,1,95,8|0,0:0|0:0,0:0:0:0:
460,85,143348,1,2,0:0:0:0:
424,193,143598,1,2,0:0:0:0:
460,299,143848,1,8,0:0:0:0:
354,343,144098,1,0,0:0:0:0:
315,235,144348,5,2,0:0:0:0:
231,312,144598,2,0,L|133:308,1,95,0|8,0:0|0:0,0:0:0:0:
31,261,145098,1,0,0:0:0:0:
46,147,145348,1,2,0:0:0:0:
158,127,145598,1,2,0:0:0:0:
212,227,145848,1,8,0:0:0:0:
136,308,146098,1,0,0:0:0:0:
31,261,146348,38,0,P|0:198|36:84,1,190,2|8,0:0|0:0,0:0:0:0:
124,21,147098,1,0,0:0:0:0:
158,127,147348,1,2,0:0:0:0:
257,70,147598,1,2,0:0:0:0:
354,127,147848,1,8,0:0:0:0:
388,21,148098,6,0,P|432:10|489:26,1,95,0|2,0:0|0:0,0:0:0:0:
486,135,148598,1,0,0:0:0:0:
489,248,148848,2,0,P|445:259|388:243,1,95,8|2,0:0|0:0,0:0:0:0:
257,70,149348,5,8,0:0:0:0:
257,70,149598,1,2,0:0:0:0:
62,205,149848,38,0,P|50:252|73:320,1,106.875004076958,6|0,0:0|0:0,0:0:0:0:
120,365,150348,37,6,0:0:0:0:
276,295,150598,2,0,P|285:251|272:198,1,95,2|8,0:3|0:0,0:0:0:0:
174,77,151098,1,2,0:3:0:0:
174,77,151223,1,2,0:3:0:0:
174,77,151348,1,2,0:0:0:0:
122,253,151598,2,0,P|172:263|218:249,1,95,2|8,0:3|0:0,0:0:0:0:
89,133,152098,1,2,0:3:0:0:
55,303,152348,5,2,0:0:0:0:
219,361,152598,2,0,L|315:356,1,95,2|8,0:3|0:0,0:0:0:0:
369,207,153098,1,2,0:3:0:0:
369,207,153223,1,2,0:3:0:0:
369,207,153348,1,2,0:0:0:0:
415,358,153598,1,2,0:3:0:0:
281,262,153848,1,8,0:0:0:0:
449,261,154098,1,2,0:3:0:0:
313,356,154348,54,0,L|219:361,2,95,2|2|8,0:0|0:3|0:0,0:0:0:0:
455,268,155098,1,2,0:3:0:0:
455,268,155223,1,2,0:3:0:0:
455,268,155348,1,2,0:0:0:0:
359,134,155598,1,2,0:3:0:0:
220,222,155848,1,8,0:0:0:0:
388,211,156098,6,0,P|433:169|388:58,1,190,2|2,0:3|0:3,0:0:0:0:
301,201,156848,1,8,0:0:0:0:
455,268,157098,1,2,0:3:0:0:
455,268,157223,1,8,0:0:0:0:
455,268,157348,1,0,0:0:0:0:
291,283,157598,1,4,0:3:0:0:
359,134,157848,1,8,0:0:0:0:
512,196,158098,1,2,0:3:0:0:
445,348,158348,5,6,0:0:0:0:
364,271,158598,1,2,0:3:0:0:
284,352,158848,1,8,0:0:0:0:
198,276,159098,1,2,0:3:0:0:
198,276,159223,1,2,0:3:0:0:
198,276,159348,1,2,0:0:0:0:
110,349,159598,1,2,0:3:0:0:
19,280,159848,1,8,0:0:0:0:
108,209,160098,6,0,P|117:162|103:113,1,95,2|2,0:3|0:0,0:0:0:0:
189,39,160598,1,2,0:3:0:0:
275,112,160848,1,8,0:0:0:0:
345,22,161098,1,2,0:3:0:0:
364,50,161223,2,0,P|383:109|357:193,1,142.5,2|2,0:3|0:3,0:0:0:0:
256,226,161848,1,8,0:0:0:0:
275,112,162098,5,0,0:0:0:0:
362,184,162348,1,2,0:0:0:0:
256,226,162598,1,0,0:0:0:0:
189,39,162848,37,6,0:0:0:0:
166,151,163098,1,2,0:0:0:0:
275,112,163348,1,2,0:0:0:0:
189,39,163598,1,2,0:0:0:0:
145,263,163848,5,6,0:0:0:0:
166,151,164098,1,2,0:0:0:0:
256,226,164348,1,0,0:0:0:0:
145,263,164598,1,2,0:0:0:0:
80,168,164848,2,0,P|66:126|85:71,1,95,8|2,0:0|0:0,0:0:0:0:
189,39,165348,2,0,L|296:39,1,95,2|0,0:0|0:0,0:0:0:0:
317,39,165723,1,0,0:0:0:0:
350,39,165848,1,8,0:0:0:0:
435,172,166098,1,0,0:0:0:0:
353,305,166348,5,4,0:0:0:0:
256,192,170348,37,2,0:3:0:0:
257,171,174348,22,0,P|300:178|355:169,1,95,6|0,0:0|0:0,0:0:0:0:
429,84,174848,1,8,0:0:0:0:
466,191,175098,1,0,0:0:0:0:
465,224,175223,2,0,L|460:330,1,95,2|0,0:0|0:0,0:0:0:0:
432,336,175598,2,0,P|384:349|334:340,1,95,2|8,0:0|0:0,0:0:0:0:
258,261,176098,1,2,0:0:0:0:
179,344,176348,37,0,0:0:0:0:
95,266,176598,1,2,0:0:0:0:
176,185,176848,1,8,0:0:0:0:
258,261,177098,1,0,0:0:0:0:
285,279,177223,2,0,P|333:288|379:272,1,95,2|0,0:0|0:0,0:0:0:0:
402,253,177598,2,0,L|398:154,1,95,2|8,0:0|0:0,0:0:0:0:
393,43,178098,1,2,0:0:0:0:
297,105,178348,6,0,P|249:116|201:105,1,95,0|2,0:0|0:0,0:0:0:0:
98,65,178848,2,0,P|87:113|106:161,1,95,8|0,0:0|0:0,0:0:0:0:
159,253,179348,1,2,0:0:0:0:
257,195,179598,1,0,0:0:0:0:
355,253,179848,1,8,0:0:0:0:
412,155,180098,6,0,P|453:195|444:322,1,190,2|0,0:0|0:0,0:0:0:0:
338,363,180848,1,8,0:0:0:0:
263,276,181098,1,0,0:0:0:0:
263,276,181223,1,0,0:0:0:0:
263,276,181348,1,2,0:0:0:0:
176,363,181598,1,2,0:0:0:0:
75,308,181848,1,8,0:0:0:0:
91,195,182098,1,0,0:0:0:0:
202,170,182348,37,2,0:3:0:0:
178,330,191348,6,0,L|82:323,1,95,6|0,0:0|0:0,0:0:0:0:
334,330,191848,2,0,L|428:323,1,95,6|0,0:0|0:0,0:0:0:0:
256,208,192348,6,0,L|256:95,1,95,6|0,0:0|0:0,0:0:0:0:
140,30,192848,2,0,P|91:22|41:36,1,95,8|0,0:0|0:0,0:0:0:0:
47,32,193223,1,0,0:0:0:0:
47,32,193348,1,2,0:0:0:0:
0,166,193598,2,0,L|2:270,1,95,2|8,0:0|0:0,0:0:0:0:
89,374,194098,1,2,0:0:0:0:
177,262,194348,38,0,P|223:252|275:264,1,95,2|0,0:0|0:0,0:0:0:0:
366,366,194848,2,0,P|412:375|458:365,1,95,8|0,0:0|0:0,0:0:0:0:
458,365,195223,1,0,0:0:0:0:
458,365,195348,1,2,0:0:0:0:
507,231,195598,2,0,L|504:131,1,95,2|8,0:0|0:0,0:0:0:0:
416,23,196098,1,2,0:0:0:0:
325,133,196348,6,0,P|281:145|227:134,1,95,2|0,0:0|0:0,0:0:0:0:
120,47,196848,2,0,L|125:145,1,95,8|0,0:0|0:0,0:0:0:0:
127,174,197223,1,0,0:0:0:0:
128,207,197348,1,2,0:0:0:0:
219,315,197598,2,0,L|321:308,1,95,2|8,0:0|0:0,0:0:0:0:
481,236,198098,6,0,L|384:230,1,95,2|0,0:0|0:0,0:0:0:0:
260,163,198598,1,2,0:0:0:0:
382,90,198848,2,0,P|428:80|479:92,1,95,8|0,0:0|0:0,0:0:0:0:
474,89,199223,1,2,0:0:0:0:
474,89,199348,1,0,0:0:0:0:
386,230,199598,1,2,0:0:0:0:
252,147,199848,1,8,0:0:0:0:
337,9,200098,1,2,0:0:0:0:
481,96,200348,38,0,P|493:144|476:201,1,95,6|0,0:0|0:0,0:0:0:0:
415,312,200848,2,0,L|317:309,1,95,8|0,0:0|0:0,0:0:0:0:
286,307,201223,1,0,0:0:0:0:
252,305,201348,1,2,0:0:0:0:
204,170,201598,2,0,P|249:160|305:175,1,95,2|8,0:0|0:0,0:0:0:0:
252,305,202098,1,2,0:0:0:0:
139,217,202348,6,0,P|126:172|143:118,1,95,2|0,0:0|0:0,0:0:0:0:
280,125,202848,2,0,P|293:170|276:224,1,95,8|0,0:0|0:0,0:0:0:0:
256,237,203223,1,0,0:0:0:0:
222,240,203348,1,2,0:0:0:0:
234,56,203598,2,0,P|277:45|334:62,1,95,2|8,0:0|0:0,0:0:0:0:
373,191,204098,1,2,0:0:0:0:
334,328,204348,6,0,P|291:339|231:328,1,95,2|0,0:0|0:0,0:0:0:0:
137,235,204848,2,0,L|139:140,1,95,8|0,0:0|0:0,0:0:0:0:
141,106,205223,1,0,0:0:0:0:
142,72,205348,1,2,0:0:0:0:
296,157,205598,1,2,0:0:0:0:
137,235,205848,1,8,0:0:0:0:
245,93,206098,38,0,P|301:75|378:176,1,190,6|2,0:0|0:0,0:0:0:0:
374,194,206723,1,0,0:0:0:0:
352,219,206848,2,0,L|406:216,1,47.5,8|0,0:0|0:0,0:0:0:0:
275,276,207098,2,0,L|227:272,1,47.5,2|0,0:0|0:0,0:0:0:0:
137,235,207348,1,2,0:0:0:0:
123,204,207473,1,0,0:0:0:0:
119,170,207598,1,0,0:0:0:0:
122,136,207723,1,0,0:0:0:0:
136,106,207848,2,0,P|144:59|133:13,1,95,8|0,0:0|0:0,0:0:0:0:
42,156,208348,37,6,0:0:0:0:
214,165,208598,2,0,P|261:175|320:153,1,95,2|8,0:3|0:0,0:0:0:0:
409,44,209098,1,2,0:3:0:0:
409,44,209223,1,2,0:3:0:0:
409,44,209348,1,2,0:0:0:0:
256,88,209598,1,2,0:3:0:0:
315,240,209848,1,8,0:0:0:0:
465,197,210098,1,2,0:3:0:0:
338,90,210348,5,2,0:0:0:0:
315,240,210598,2,0,P|306:290|323:337,1,95,2|8,0:3|0:0,0:0:0:0:
380,179,211098,1,2,0:3:0:0:
380,179,211223,1,2,0:3:0:0:
380,179,211348,1,2,0:0:0:0:
225,245,211598,1,2,0:3:0:0:
391,281,211848,1,8,0:0:0:0:
272,159,212098,1,2,0:3:0:0:
233,326,212348,54,0,P|187:338|139:327,2,95,2|2|8,0:0|0:3|0:0,0:0:0:0:
272,159,213098,1,2,0:3:0:0:
268,125,213223,1,2,0:3:0:0:
266,91,213348,1,2,0:0:0:0:
423,34,213598,1,2,0:3:0:0:
481,186,213848,1,8,0:0:0:0:
324,234,214098,6,0,P|261:245|182:157,1,190,2|2,0:3|0:3,0:0:0:0:
394,188,214848,2,0,P|407:232|395:282,1,95,8|0,0:0|0:0,0:0:0:0:
396,278,215223,1,8,0:0:0:0:
396,278,215348,1,0,0:0:0:0:
306,135,215598,1,4,0:3:0:0:
481,186,215848,1,8,0:0:0:0:
436,360,216098,1,2,0:0:0:0:
263,315,216348,5,6,0:0:0:0:
166,375,216598,1,2,0:3:0:0:
67,317,216848,1,8,0:0:0:0:
164,258,217098,1,2,0:3:0:0:
181,235,217223,2,0,P|188:189|176:143,1,95,2|0,0:3|0:0,0:0:0:0:
161,118,217598,1,2,0:3:0:0:
255,54,217848,1,8,0:0:0:0:
350,115,218098,6,0,P|397:124|443:109,1,95,2|2,0:3|0:0,0:0:0:0:
365,25,218598,1,2,0:3:0:0:
255,54,218848,1,8,0:0:0:0:
239,166,219098,1,2,0:3:0:0:
241,199,219223,2,0,L|246:304,1,95,2|0,0:3|0:0,0:0:0:0:
267,318,219598,2,0,P|314:327|361:313,1,95,2|8,0:3|0:0,0:0:0:0:
445,240,220098,5,0,0:0:0:0:
337,201,220348,1,2,0:0:0:0:
358,314,220598,1,0,0:0:0:0:
429,125,220848,37,6,0:0:0:0:
337,201,221098,1,0,0:0:0:0:
445,240,221348,1,2,0:0:0:0:
429,125,221598,1,2,0:0:0:0:
234,163,221848,5,6,0:0:0:0:
337,201,222098,1,2,0:0:0:0:
318,88,222348,1,0,0:0:0:0:
234,163,222598,2,0,P|223:211|242:260,2,95,2|8|2,0:0|0:0|0:0,0:0:0:0:
318,88,223348,2,0,L|414:89,1,95,2|0,0:0|0:0,0:0:0:0:
446,89,223723,1,0,0:0:0:0:
479,90,223848,1,8,0:0:0:0:
339,198,224098,1,2,0:0:0:0:
386,13,224348,5,6,0:0:0:0:
455,187,224598,2,0,B|463:235|463:235|462:335,2,142.500005435944
