osu file format v14

[General]
AudioFilename: APink Remember.mp3
AudioLeadIn: 0
PreviewTime: 79346
Countdown: 0
SampleSet: Soft
StackLeniency: 0.7
Mode: 0
LetterboxInBreaks: 0
WidescreenStoryboard: 1

[Editor]
DistanceSpacing: 1
BeatDivisor: 4
GridSize: 4
TimelineZoom: 1

[Metadata]
Title:Remember
TitleUnicode:Remember
Artist:Apink
ArtistUnicode:에이핑크
Creator:P A N
Version:Normal
Source:
Tags:리멤버 박초롱 윤보미 정은지 손나은 김남주 오하영 A-cube Entertainment エーピンク pink memory Park Cho Rong Yoon Bo Mi Jeong Eun Ji Son Na Eun Kim Nam Joo Oh Ha Young p_a_n
BeatmapID:748167
BeatmapSetID:337616

[Difficulty]
HPDrainRate:2
CircleSize:3
OverallDifficulty:2
ApproachRate:3
SliderMultiplier:1.2
SliderTickRate:1

[Events]
//Background and Video events
0,0,"Apink remember 32.jpg",0,0
Video,0,"apink.avi"
//Break Periods
2,104547,106908
2,166547,172908
2,182548,188908
//Storyboard Layer 0 (Background)
//Storyboard Layer 1 (Fail)
//Storyboard Layer 2 (Pass)
//Storyboard Layer 3 (Foreground)
//Storyboard Sound Samples

[TimingPoints]
27346,500,4,2,1,80,1,0
28348,500,4,2,1,80,1,0
45848,-100,4,2,1,70,0,0
54098,-100,4,2,1,70,0,0
79848,-100,4,2,1,60,0,0
80348,-100,4,2,1,80,0,1
87348,-100,4,2,1,80,0,0
88348,-100,4,2,1,100,0,1
88598,-100,4,2,1,100,0,1
95348,-100,4,2,1,100,0,0
96348,-100,4,2,1,80,0,1
104348,-100,4,2,1,70,0,0
141848,-100,4,2,1,60,0,0
142348,-100,4,2,1,80,0,1
142848,-100,4,2,1,80,0,1
149348,-100,4,2,1,80,0,0
150348,-100,4,2,1,100,0,1
157348,-100,4,2,1,100,0,0
158348,-100,4,2,1,80,0,1
166348,-100,4,2,1,80,0,0
174348,-100,4,2,1,70,0,0
191348,-100,4,2,1,80,0,0
208348,-100,4,2,1,100,0,1
215348,-100,4,2,1,100,0,0
216348,-100,4,2,1,80,0,1
224348,-100,4,2,1,80,0,0
224598,-100,4,2,1,60,0,0
225098,-100,4,2,1,30,0,0
225598,-100,4,2,1,10,0,0

[Colours]
Combo1 : 255,255,43
Combo2 : 255,225,240
Combo3 : 255,128,192
Combo4 : 255,21,138
Combo5 : 255,112,43
SliderBorder : 255,128,192

[HitObjects]
256,326,27346,6,0,L|256:196,1,120,4|4,0:0|0:0,0:0:0:0:
256,86,28348,1,4,0:0:0:0:
368,43,28848,2,0,P|425:29|492:50,1,120,8|2,0:0|0:0,0:0:0:0:
487,164,29848,2,0,L|487:230,2,60,8|2|2,0:0|0:0|0:0,0:0:0:0:
366,166,30848,2,0,L|367:289,1,120,8|2,0:0|0:0,0:0:0:0:
259,340,31848,2,0,P|201:352|130:334,1,120,8|2,0:0|0:0,0:0:0:0:
57,254,32848,6,0,P|43:198|63:129,1,120,8|2,0:0|0:0,0:0:0:0:
60,20,33848,2,0,L|0:22,2,60,8|2|0,0:0|0:0|0:0,0:0:0:0:
175,50,34848,2,0,L|296:44,1,120,8|2,0:0|0:0,0:0:0:0:
414,44,35848,1,8,0:0:0:0:
414,44,36098,1,2,0:0:0:0:
414,44,36348,6,0,P|431:99|409:170,1,120,4|8,0:0|0:0,0:0:0:0:
326,237,37348,2,0,L|197:233,1,120,2|8,0:0|0:0,0:0:0:0:
146,234,38098,2,0,L|82:232,1,60,2|2,0:0|0:0,0:0:0:0:
37,342,38848,1,8,0:0:0:0:
156,347,39348,2,0,L|275:349,1,120,2|8,0:0|0:0,0:0:0:0:
380,289,40348,38,0,P|391:238|374:169,1,120,2|8,0:0|0:0,0:0:0:0:
301,78,41348,2,0,L|171:80,1,120,2|8,0:0|0:0,0:0:0:0:
120,81,42098,1,6,0:0:0:0:
53,180,42598,1,2,0:0:0:0:
53,180,42848,2,0,P|40:237|62:302,1,120,8|2,0:0|0:0,0:0:0:0:
160,355,43848,1,8,0:0:0:0:
260,289,44348,5,0,0:0:0:0:
366,350,44848,2,0,B|394:285|366:231|366:231|374:181|374:181|365:132|365:132|369:98,1,240,8|8,0:0|0:0,0:0:0:0:
268,45,46348,6,0,P|213:33|141:49,1,120,4|8,0:0|0:0,0:0:0:0:
69,133,47348,2,0,L|70:196,1,60,0|2,0:0|0:0,0:0:0:0:
71,252,47848,1,8,0:0:0:0:
155,337,48348,2,0,P|214:347|275:328,1,120,2|8,0:0|0:0,0:0:0:0:
347,238,49348,2,0,L|409:237,2,60,2|0|8,0:0|0:0|0:0,0:0:0:0:
272,143,50348,38,0,P|257:92|273:20,1,120,2|8,0:0|0:0,0:0:0:0:
389,27,51348,2,0,P|404:78|388:150,1,120,2|8,0:0|0:0,0:0:0:0:
359,193,52098,1,0,0:0:0:0:
333,247,52348,2,0,P|320:305|335:362,1,120,2|8,0:0|0:0,0:0:0:0:
441,305,53348,2,0,L|505:305,2,60,0|0|8,0:0|0:0|0:0,0:0:0:0:
333,247,54348,6,0,L|214:247,1,120,2|8,0:0|0:0,0:0:0:0:
126,163,55348,1,0,0:0:0:0:
126,163,55598,2,0,P|121:127|130:89,1,60,0|8,0:0|0:0,0:0:0:0:
221,32,56348,2,0,L|346:34,1,120,2|8,0:0|0:0,0:0:0:0:
363,151,57348,2,0,L|241:150,1,120,2|8,0:0|0:0,0:0:0:0:
126,163,58348,6,0,P|111:211|131:284,1,120,2|8,0:0|0:0,0:0:0:0:
228,340,59348,1,2,0:0:0:0:
228,340,59598,2,0,P|271:352|348:331,1,120,0|0,0:0|0:0,0:0:0:0:
385,292,60348,1,8,0:0:0:0:
422,177,60848,1,8,0:0:0:0:
349,81,61348,1,8,0:0:0:0:
229,80,61848,1,8,0:0:0:0:
131,149,62348,38,0,L|133:270,1,120,4|8,0:0|0:0,0:0:0:0:
22,222,63348,2,0,L|20:91,1,120,2|8,0:0|0:0,0:0:0:0:
55,53,64098,2,0,P|112:38|186:58,1,120,0|0,0:0|0:0,0:0:0:0:
218,86,64848,1,8,0:0:0:0:
267,195,65348,2,0,L|259:315,1,120,2|8,0:0|0:0,0:0:0:0:
378,300,66348,6,0,L|385:167,1,120,2|8,0:0|0:0,0:0:0:0:
451,80,67348,2,0,L|513:79,2,60,2|0|8,0:0|0:0|0:0,0:0:0:0:
330,83,68348,2,0,L|204:81,1,120,2|8,0:0|0:0,0:0:0:0:
149,82,69098,1,2,0:0:0:0:
89,82,69348,1,2,0:0:0:0:
41,192,69848,1,8,0:0:0:0:
89,301,70348,5,6,0:0:0:0:
197,250,70848,2,0,P|248:237|316:252,1,120,8|2,0:0|0:0,0:0:0:0:
417,309,71848,1,8,0:0:0:0:
417,309,72098,2,0,L|422:180,1,120,0|0,0:0|0:0,0:0:0:0:
425,129,72848,1,8,0:0:0:0:
325,57,73348,1,2,0:0:0:0:
315,176,73848,2,0,L|309:242,1,60,8|0,0:0|0:0,0:0:0:0:
303,295,74348,38,0,P|249:310|177:294,1,120,2|8,0:0|0:0,0:0:0:0:
86,235,75348,2,0,P|70:179|88:116,1,120,2|8,0:0|0:0,0:0:0:0:
175,41,76348,2,0,L|301:44,1,120,2|8,0:0|0:0,0:0:0:0:
415,45,77348,6,0,P|478:86|373:123,1,240,0|4,0:0|0:3,0:0:0:0:
294,43,78848,1,8,0:0:0:0:
215,133,79348,2,0,P|201:177|220:254,1,120,4|4,0:3|0:0,0:0:0:0:
278,350,80348,6,0,P|224:365|151:346,1,120,4|8,0:0|0:0,0:0:0:0:
65,281,81348,2,0,L|-3:280,2,60,2|2|8,0:0|0:0|0:0,0:0:0:0:
71,159,82348,2,0,L|76:33,1,120,2|8,0:0|0:0,0:0:0:0:
178,101,83348,1,2,0:0:0:0:
284,45,83848,1,8,0:0:0:0:
284,45,84098,1,0,0:0:0:0:
284,45,84348,38,0,P|336:31|411:50,1,120,2|8,0:0|0:0,0:0:0:0:
464,144,85348,2,0,L|461:275,1,120,2|8,0:0|0:0,0:0:0:0:
456,324,86098,1,0,0:0:0:0:
343,281,86598,1,0,0:0:0:0:
343,281,86848,2,0,L|349:152,1,120,8|6,0:0|0:0,0:0:0:0:
257,82,87848,1,6,0:0:0:0:
163,161,88348,38,0,L|169:281,1,120,6|8,0:0|0:0,0:0:0:0:
51,257,89348,2,0,L|56:331,2,60,2|2|8,0:0|0:3|0:0,0:0:0:0:
41,137,90348,2,0,P|25:83|46:10,1,120,2|8,0:0|0:0,0:0:0:0:
144,79,91348,2,0,P|204:91|265:69,1,120,2|8,0:0|0:0,0:0:0:0:
315,52,92098,1,2,0:3:0:0:
372,34,92348,6,0,P|429:18|491:34,1,120,2|8,0:0|0:0,0:0:0:0:
430,137,93348,2,0,L|430:265,1,120,2|8,0:0|0:0,0:0:0:0:
428,317,94098,2,0,P|369:335|306:321,1,120,2|2,0:3|0:3,0:0:0:0:
263,290,94848,1,8,0:0:0:0:
169,210,95348,2,0,P|112:196|45:214,1,120,0|8,0:0|0:0,0:0:0:0:
23,261,96098,2,0,L|26:332,1,60,2|6,3:0|0:0,0:0:0:0:
138,360,96848,6,0,L|264:355,1,120,8|2,0:0|0:0,0:0:0:0:
369,311,97848,2,0,L|494:317,1,120,8|2,0:0|0:0,0:0:0:0:
432,210,98848,2,0,P|415:156|433:84,2,120,8|0|8,0:0|0:0|0:0,0:0:0:0:
369,311,100348,6,0,L|243:305,1,120,2|6,0:0|0:0,0:0:0:0:
143,248,101348,2,0,P|129:200|145:127,1,120,2|6,0:0|0:0,0:0:0:0:
249,79,102348,2,0,L|368:73,1,120,0|8,0:0|0:0,0:0:0:0:
428,73,103098,1,2,0:0:0:0:
473,111,103348,2,0,P|488:167|470:234,2,120,2|8|0,0:0|0:0|0:0,0:0:0:0:
125,71,108348,6,0,L|119:205,1,120,6|8,0:0|0:0,0:0:0:0:
117,251,109098,1,0,0:0:0:0:
143,304,109348,2,0,P|204:318|267:298,1,120,2|8,0:0|0:0,0:0:0:0:
342,218,110348,2,0,L|336:89,1,120,2|8,0:0|0:0,0:0:0:0:
445,48,111348,2,0,L|452:126,1,60,2|0,0:0|0:0,0:0:0:0:
449,167,111848,38,0,L|446:295,1,120,8|2,0:0|0:0,0:0:0:0:
345,353,112848,2,0,P|291:369|224:353,1,120,8|2,0:0|0:0,0:0:0:0:
183,318,113598,1,0,0:0:0:0:
131,286,113848,2,0,P|71:270|8:291,2,120,8|2|8,0:0|0:0|0:0,0:0:0:0:
223,209,115348,2,0,L|290:208,2,60,2|0|8,0:0|0:0|0:0,0:0:0:0:
135,126,116348,6,0,P|119:74|137:6,1,120,2|8,0:0|0:0,0:0:0:0:
240,67,117348,2,0,L|368:67,1,120,2|8,0:0|0:0,0:0:0:0:
444,152,118348,2,0,P|459:204|443:275,1,120,2|8,0:0|0:0,0:0:0:0:
334,310,119348,2,0,L|334:373,2,60,2|0|8,0:0|0:0|0:0,0:0:0:0:
221,268,120348,6,0,P|206:216|222:145,1,120,2|8,0:0|0:0,0:0:0:0:
274,46,121348,1,2,0:0:0:0:
274,46,121598,2,0,B|215:34|215:34|148:47,1,120,0|0,0:0|0:0,0:0:0:0:
100,68,122348,1,2,0:0:0:0:
27,163,122848,1,8,0:0:0:0:
95,261,123348,1,2,0:0:0:0:
209,225,123848,1,8,0:0:0:0:
221,105,124348,38,0,P|278:92|343:108,1,120,6|8,0:0|0:0,0:0:0:0:
432,178,125348,2,0,L|428:309,1,120,2|8,0:0|0:0,0:0:0:0:
409,355,126098,2,0,P|354:370|285:354,1,120,0|0,0:0|0:0,0:0:0:0:
238,333,126848,1,8,0:0:0:0:
178,228,127348,2,0,L|178:97,1,120,2|8,0:0|0:0,0:0:0:0:
214,59,128098,1,0,0:0:0:0:
268,34,128348,6,0,P|327:20|395:38,1,120,2|8,0:0|0:0,0:0:0:0:
443,136,129348,2,0,P|384:150|316:132,1,120,2|8,0:0|0:0,0:0:0:0:
215,92,130348,2,0,L|219:217,1,120,2|8,0:0|0:0,0:0:0:0:
219,271,131098,1,0,0:0:0:0:
220,330,131348,1,2,0:0:0:0:
332,372,131848,1,8,0:0:0:0:
445,331,132348,6,0,P|456:277|434:201,1,120,6|8,0:0|0:0,0:0:0:0:
368,119,133348,2,0,L|249:124,1,120,2|8,0:0|0:0,0:0:0:0:
190,143,134098,2,0,L|63:138,1,120,0|0,0:0|0:0,0:0:0:0:
10,139,134848,1,8,0:0:0:0:
78,40,135348,2,0,P|136:29|206:45,1,120,2|8,0:0|0:0,0:0:0:0:
295,106,136348,38,0,L|416:103,1,120,2|8,0:0|0:0,0:0:0:0:
475,107,137098,1,0,0:0:0:0:
507,157,137348,2,0,P|524:214|502:281,1,120,2|8,0:0|0:0,0:0:0:0:
404,332,138348,2,0,P|344:349|281:328,1,120,2|8,0:0|0:0,0:0:0:0:
213,241,139348,6,0,P|199:174|301:220,1,240,0|4,0:0|0:3,0:0:0:0:
289,333,140848,2,0,L|168:331,2,120,8|4|4,0:0|0:3|0:0,0:0:0:0:
393,274,142348,6,0,P|406:215|387:157,1,120,6|8,0:0|0:0,0:0:0:0:
433,48,143348,2,0,L|498:48,2,60,2|2|8,0:0|0:0|0:0,0:0:0:0:
312,53,144348,2,0,L|180:53,1,120,2|8,0:0|0:0,0:0:0:0:
106,137,145348,2,0,P|95:201|113:258,1,120,2|8,0:0|0:0,0:0:0:0:
141,304,146098,1,0,0:0:0:0:
197,324,146348,38,0,L|323:319,1,120,2|8,0:0|0:0,0:0:0:0:
359,207,147348,2,0,L|233:211,1,120,2|8,0:0|0:0,0:0:0:0:
189,175,148098,2,0,P|170:124|192:51,1,120,0|0,0:0|0:0,0:0:0:0:
224,17,148848,1,8,0:0:0:0:
343,13,149348,1,8,0:0:0:0:
452,62,149848,1,6,0:0:0:0:
483,177,150348,38,0,L|481:297,1,120,6|8,0:0|0:0,0:0:0:0:
371,345,151348,2,0,L|373:225,1,120,2|8,0:0|0:0,0:0:0:0:
373,165,152098,1,2,0:3:0:0:
331,121,152348,2,0,P|276:105|210:123,1,120,2|8,0:0|0:0,0:0:0:0:
146,217,153348,2,0,L|153:337,1,120,2|8,0:0|0:0,0:0:0:0:
42,290,154348,6,0,L|47:161,1,120,2|8,0:0|0:0,0:0:0:0:
108,67,155348,2,0,P|166:53|232:72,1,120,2|8,0:0|0:0,0:0:0:0:
279,88,156098,2,0,P|336:102|394:88,1,120,2|2,0:3|0:3,0:0:0:0:
443,52,156848,1,8,0:0:0:0:
485,164,157348,2,0,P|502:223|487:286,1,120,0|8,0:0|0:0,0:0:0:0:
391,347,158348,6,0,P|374:288|389:225,1,120,6|8,0:0|0:0,0:0:0:0:
283,168,159348,2,0,L|158:172,1,120,2|8,0:0|0:0,0:0:0:0:
215,279,160348,2,0,L|90:283,2,120,2|8|0,0:0|0:0|0:0,0:0:0:0:
314,346,161848,1,8,0:0:0:0:
412,277,162348,6,0,P|425:222|408:158,1,120,2|6,0:0|0:0,0:0:0:0:
316,86,163348,2,0,L|193:86,1,120,2|6,0:0|0:0,0:0:0:0:
100,159,164348,2,0,P|85:220|110:283,1,120,0|8,0:0|0:0,0:0:0:0:
140,319,165098,1,2,0:0:0:0:
197,335,165348,2,0,L|317:335,2,120,2|8|4,0:0|0:0|0:0,0:0:0:0:
257,66,174348,6,0,L|379:62,1,120,6|8,0:0|0:0,0:0:0:0:
457,151,175348,2,0,P|471:203|455:274,1,120,2|8,0:0|0:0,0:0:0:0:
422,315,176098,1,2,0:0:0:0:
363,328,176348,2,0,L|235:327,1,120,0|8,0:0|0:0,0:0:0:0:
153,246,177348,2,0,P|137:190|155:122,1,120,0|8,0:0|0:0,0:0:0:0:
238,49,178348,38,0,L|368:52,1,120,0|8,0:0|0:0,0:0:0:0:
478,56,179348,2,0,L|476:126,2,60,2|0|8,0:0|0:0|0:0,0:0:0:0:
256,192,180348,12,2,182348,0:3:0:0:
256,192,190348,12,6,192348,0:0:0:0:
141,225,193348,5,2,0:0:0:0:
60,138,193848,2,0,L|-1:138,2,60,8|2|2,0:0|0:0|0:0,0:0:0:0:
140,48,194848,2,0,P|197:36|257:49,1,120,8|2,0:0|0:0,0:0:0:0:
374,71,195848,2,0,P|434:82|500:64,1,120,8|2,0:0|0:0,0:0:0:0:
489,188,196848,6,0,L|485:308,1,120,8|2,0:0|0:0,0:0:0:0:
370,339,197848,1,8,0:0:0:0:
372,279,198098,2,0,L|376:144,1,120,2|2,0:0|0:0,0:0:0:0:
376,98,198848,1,8,0:0:0:0:
272,36,199348,2,0,P|216:27|147:41,1,120,0|8,0:0|0:0,0:0:0:0:
78,130,200348,38,0,L|82:258,1,120,6|8,0:0|0:0,0:0:0:0:
185,310,201348,2,0,L|188:375,2,60,2|2|8,0:0|0:0|0:0,0:0:0:0:
290,252,202348,2,0,P|346:237|407:252,1,120,2|8,0:0|0:0,0:0:0:0:
364,138,203348,2,0,P|349:82|364:21,1,120,2|8,0:0|0:0,0:0:0:0:
248,59,204348,6,0,P|192:74|131:59,1,120,2|8,0:0|0:0,0:0:0:0:
56,153,205348,2,0,L|58:280,1,120,2|8,0:0|0:0,0:0:0:0:
93,321,206098,2,0,P|149:334|216:312,1,120,6|2,0:0|0:0,0:0:0:0:
252,276,206848,1,8,0:0:0:0:
311,171,207348,2,0,L|308:49,1,120,2|8,0:0|0:0,0:0:0:0:
421,89,208348,22,0,L|426:217,1,120,6|8,0:0|0:0,0:0:0:0:
355,306,209348,2,0,P|298:322|233:309,1,120,2|8,0:0|0:0,0:0:0:0:
187,280,210098,1,2,0:3:0:0:
133,252,210348,2,0,P|74:239|17:252,1,120,2|8,0:0|0:0,0:0:0:0:
70,145,211348,2,0,P|83:91|64:25,1,120,2|8,0:0|0:0,0:0:0:0:
179,72,212348,6,0,L|309:68,1,120,2|8,0:0|0:0,0:0:0:0:
390,145,213348,2,0,P|406:204|394:264,1,120,2|8,0:0|0:0,0:0:0:0:
357,307,214098,2,0,L|237:304,1,120,2|2,0:3|0:3,0:0:0:0:
177,303,214848,1,8,0:0:0:0:
157,184,215348,2,0,L|283:188,1,120,0|8,0:0|0:0,0:0:0:0:
390,145,216348,6,0,P|403:89|381:25,1,120,6|8,0:0|0:0,0:0:0:0:
271,70,217348,2,0,L|133:65,1,120,0|8,0:0|0:0,0:0:0:0:
105,105,218098,2,0,P|92:159|111:221,1,120,2|2,0:3|0:3,0:0:0:0:
152,262,218848,2,0,L|274:257,2,120,8|0|8,0:0|0:0|0:0,0:0:0:0:
209,367,220348,6,0,L|341:363,1,120,2|6,0:0|0:0,0:0:0:0:
415,280,221348,2,0,P|426:226|411:160,1,120,2|6,0:0|0:0,0:0:0:0:
302,114,222348,2,0,L|181:116,1,120,0|8,0:0|0:0,0:0:0:0:
88,191,223348,6,0,L|91:319,2,120,2|8|6,0:0|0:0|0:0,0:0:0:0:
40,153,224598,2,0,L|50:27,2,120,0|0|0,0:0|0:0|0:0,0:0:0:0:
