osu file format v14

[General]
AudioFilename: [MV] Apink() _ Petal().mp3
AudioLeadIn: 0
PreviewTime: 129536
Countdown: 0
SampleSet: Soft
StackLeniency: 0.7
Mode: 0
LetterboxInBreaks: 0
WidescreenStoryboard: 0

[Editor]
DistanceSpacing: 1
BeatDivisor: 2
GridSize: 4
TimelineZoom: 1.4

[Metadata]
Title:Petal
TitleUnicode:꽃잎점
Artist:Apink
ArtistUnicode:에이핑크
Creator:P A N
Version:Normal
Source:
Tags:박초롱 윤보미 정은지 손나은 김남주 오하영 A-cube Entertainment エーピンク pink memory Park Cho Rong Yoon Bo Mi Jeong Eun Ji Son Na Eun Kim Nam Joo Oh Ha Young p_a_n
BeatmapID:756558
BeatmapSetID:342010

[Difficulty]
HPDrainRate:2
CircleSize:3
OverallDifficulty:3
ApproachRate:4.5
SliderMultiplier:1.1
SliderTickRate:1

[Events]
//Background and Video events
Video,0,"Apink petal.avi"
0,0,"bg.jpg",0,0
//Break Periods
2,102450,104419
2,184736,186705
//Storyboard Layer 0 (Background)
//Storyboard Layer 1 (Fail)
//Storyboard Layer 2 (Pass)
//Storyboard Layer 3 (Foreground)
//Storyboard Sound Samples

[TimingPoints]
19965,428.571428571429,4,2,1,70,1,0
33250,-100,4,2,1,40,0,0
40536,-100,4,2,1,70,0,0
46107,-100,4,2,1,30,0,0
46536,-100,4,2,1,70,0,0
46965,-100,4,2,1,40,0,0
61107,-100,4,2,1,90,0,1
74393,-100,4,2,1,70,0,0
74822,-100,4,2,1,90,0,1
87250,-100,4,2,1,50,0,1
88536,-100,4,2,1,70,0,0
115536,-100,4,2,1,40,0,0
115965,-100,4,2,1,70,0,0
129250,-100,4,2,1,40,0,0
129679,-100,4,2,1,90,0,1
142965,-100,4,2,1,40,0,0
143393,-100,4,2,1,90,0,1
155822,-100,4,2,1,50,0,1
157107,-100,4,2,1,70,0,0
170822,-100,4,2,1,70,0,0
187965,-100,4,2,1,90,0,1
198250,-100,4,2,1,20,0,0
211893,-100,4,2,1,5,0,0

[Colours]
Combo1 : 0,119,0
Combo2 : 157,255,60
Combo3 : 255,255,60
Combo4 : 255,41,4
SliderBorder : 255,255,190

[HitObjects]
237,288,19965,6,0,P|289:299|345:285,1,110,2|10,0:3|0:0,0:0:0:0:
414,201,20822,1,2,0:3:0:0:
349,111,21250,1,10,0:0:0:0:
238,110,21679,2,0,B|197:118|197:118|175:113|175:113|152:119|114:108,2,110,2|10|2,0:3|0:0|0:3,0:0:0:0:
288,12,22965,1,10,0:0:0:0:
349,111,23393,6,0,L|472:113,1,110,2|10,0:3|0:0,0:0:0:0:
406,209,24250,2,0,L|293:209,1,110,2|10,0:3|0:0,0:0:0:0:
344,308,25107,2,0,P|422:331|501:294,2,165,2|0|8,0:3|0:0|0:0,0:0:0:0:
296,209,26822,38,0,P|245:198|185:212,1,110,2|10,0:3|0:0,0:0:0:0:
96,268,27679,2,0,L|102:377,2,110,2|10|2,0:3|0:0|0:3,0:0:0:0:
91,158,28965,1,10,0:0:0:0:
189,210,29393,2,0,P|240:221|300:207,1,110,2|10,0:3|0:0,0:0:0:0:
376,134,30250,6,0,L|370:18,1,110,2|10,0:3|0:0,0:0:0:0:
477,51,31107,2,0,L|481:166,2,110,2|10|2,0:3|0:0|0:0,0:0:0:0:
370,24,32394,1,10,0:0:0:0:
262,48,32822,1,2,0:3:0:0:
153,27,33250,1,8,0:3:0:0:
45,52,33679,38,0,P|32:105|52:163,1,110,2|10,0:3|0:0,0:0:0:0:
143,211,34536,2,0,L|257:208,1,110,2|10,0:3|0:0,0:0:0:0:
332,283,35393,2,0,P|361:214|320:121,2,165,2|0|10,0:3|0:0|0:0,0:0:0:0:
239,342,37107,6,0,L|124:341,2,110,2|10|2,0:3|0:0|0:3,0:0:0:0:
287,242,38393,1,10,0:0:0:0:
239,142,38822,2,0,B|197:133|161:150|161:150|116:167|58:138,2,165,2|0|10,0:0|0:0|0:0,0:0:0:0:
337,92,40536,38,0,P|351:141|332:205,1,110,2|10,0:3|0:0,0:0:0:0:
394,291,41393,2,0,P|342:305|288:293,1,110,2|8,0:3|0:0,0:0:0:0:
255,187,42250,1,2,0:3:0:0:
169,117,42679,2,0,P|143:190|185:275,2,165,10|0|2,0:0|0:0|0:3,0:0:0:0:
256,50,44393,5,10,0:0:0:0:
339,121,44822,2,0,P|365:198|333:271,2,165,2|0|8,0:3|0:0|0:3,0:0:0:0:
256,50,46536,2,0,L|145:49,1,110,2|8,0:3|0:3,0:0:0:0:
35,48,47393,37,4,0:3:0:0:
35,260,48250,1,4,0:1:0:0:
131,313,48679,1,2,0:3:0:0:
131,203,49107,2,0,B|181:190|181:190|216:203|216:203|277:172|356:206,1,220,2|4,0:3|0:1,0:0:0:0:
345,310,50393,1,2,0:0:0:0:
440,254,50822,6,0,P|470:163|429:39,1,220,2|4,0:3|0:1,0:0:0:0:
328,27,52107,1,2,0:3:0:0:
220,42,52536,2,0,P|170:55|110:43,2,110,2|2|4,0:3|0:0|0:1,0:0:0:0:
328,27,53822,1,2,0:0:0:0:
325,136,54250,38,0,L|321:260,1,110,2|0,0:3|0:0,0:0:0:0:
245,326,55107,2,0,P|194:338|139:327,1,110,4|2,0:1|0:3,0:0:0:0:
53,255,55965,2,0,L|49:145,1,110,2|0,0:0|0:0,0:0:0:0:
117,59,56822,6,0,B|175:62|175:62|221:48|221:48|281:52,2,165,4|0|0,0:1|0:0|0:0,0:0:0:0:
161,159,58536,2,0,P|186:227|156:328,2,165,4|0|2,0:1|0:0|0:0,0:0:0:0:
117,59,60250,1,4,0:1:0:0:
220,20,60679,1,8,0:3:0:0:
267,118,61107,6,0,P|321:127|376:116,1,110,4|8,0:0|0:0,0:0:0:0:
472,65,61965,1,2,0:3:0:0:
476,174,62393,1,10,0:0:0:0:
371,221,62822,2,0,P|359:172|375:115,2,110,2|10|2,0:3|0:0|0:3,0:0:0:0:
452,295,64107,1,10,0:0:0:0:
371,370,64536,6,0,P|322:380|260:368,1,110,2|10,0:3|0:0,0:0:0:0:
158,336,65393,1,2,0:3:0:0:
68,272,65822,1,10,0:0:0:0:
35,166,66250,2,0,P|22:122|37:53,2,110,2|10|2,0:0|0:0|0:3,0:0:0:0:
68,272,67536,1,8,0:0:0:0:
107,233,67750,1,0,0:0:0:0:
147,195,67965,38,0,P|202:183|264:201,1,110,2|10,0:3|0:0,0:0:0:0:
338,264,68822,2,0,P|393:276|454:260,1,110,2|10,0:3|0:0,0:0:0:0:
500,169,69679,2,0,B|507:116|507:116|498:59,2,110,2|10|2,0:3|0:0|0:3,0:0:0:0:
392,191,70965,1,8,0:0:0:0:
392,136,71179,1,0,0:0:0:0:
392,81,71393,6,0,P|342:67|279:81,1,110,2|10,0:3|0:0,0:0:0:0:
221,177,72250,2,0,P|171:191|108:177,1,110,2|8,0:3|0:0,0:0:0:0:
20,124,73107,2,0,L|25:9,2,110,2|8|2,0:0|0:0|0:3,0:0:0:0:
21,234,74393,1,8,0:3:0:0:
114,180,74822,38,0,P|164:168|227:184,1,110,4|10,0:0|0:0,0:0:0:0:
308,246,75679,1,2,0:3:0:0:
398,183,76107,1,10,0:0:0:0:
484,250,76536,2,0,P|496:303|482:366,2,110,2|10|2,0:3|0:0|0:3,0:0:0:0:
398,183,77822,1,8,0:0:0:0:
313,252,78250,6,0,P|262:264|198:249,1,110,2|10,0:3|0:0,0:0:0:0:
113,194,79107,1,2,0:3:0:0:
115,304,79536,1,10,0:0:0:0:
10,270,79965,2,0,P|-15:205|14:108,2,165,2|0|8,0:0|0:0|0:0,0:0:0:0:
62,287,81465,1,0,0:0:0:0:
115,304,81679,38,0,B|170:311|170:311|225:300,1,110,2|10,0:3|0:0,0:0:0:0:
300,221,82536,2,0,B|355:210|355:210|407:222,1,110,2|10,0:3|0:0,0:0:0:0:
506,269,83393,2,0,L|504:385,2,110,2|10|2,0:3|0:0|0:3,0:0:0:0:
499,159,84679,1,10,0:0:0:0:
407,215,85107,6,0,P|347:228|293:218,1,110,2|10,0:3|0:0,0:0:0:0:
191,241,85965,1,2,0:3:0:0:
137,145,86393,1,10,0:0:0:0:
211,63,86822,1,2,0:0:0:0:
309,112,87250,2,0,P|361:121|420:103,2,110,0|0|0,0:0|0:0|0:0,0:0:0:0:
211,63,88536,6,0,L|101:67,1,110,2|10,0:3|0:0,0:0:0:0:
44,161,89393,2,0,P|30:211|48:268,1,110,2|10,0:3|0:0,0:0:0:0:
128,342,90250,2,0,B|179:350|179:350|239:338,1,110,2|10,0:3|0:0,0:0:0:0:
318,262,91107,1,2,0:3:0:0:
401,333,91536,1,10,0:0:0:0:
483,260,91965,6,0,P|493:207|479:151,1,110,2|10,0:3|0:0,0:0:0:0:
401,75,92822,2,0,P|345:64|294:75,1,110,2|10,0:3|0:0,0:0:0:0:
219,156,93679,2,0,P|168:170|103:159,1,110,2|10,0:0|0:0,0:0:0:0:
53,70,94536,1,2,0:3:0:0:
162,65,94965,1,10,0:0:0:0:
219,156,95393,38,0,L|213:275,1,110,2|10,0:3|0:0,0:0:0:0:
314,221,96250,2,0,L|320:102,1,110,2|10,0:3|0:0,0:0:0:0:
396,32,97107,2,0,P|452:18|510:35,1,110,2|10,0:3|0:0,0:0:0:0:
450,128,97965,1,2,0:3:0:0:
451,237,98393,1,10,0:0:0:0:
508,331,98822,6,0,P|456:345|399:334,1,110,2|10,0:3|0:0,0:0:0:0:
305,281,99679,2,0,P|250:271|198:284,1,110,2|10,0:3|0:0,0:0:0:0:
105,343,100536,2,0,P|88:288|101:234,1,110,8|8,0:3|0:3,0:0:0:0:
179,162,101393,2,0,P|190:115|173:53,2,110,2|8|2,0:3|0:3|0:0,0:0:0:0:
256,63,105679,38,0,L|256:173,1,110,2|10,0:3|0:0,0:0:0:0:
203,270,106536,2,0,P|254:282|313:263,1,110,2|10,0:3|0:0,0:0:0:0:
356,239,107179,1,0,0:0:0:0:
363,184,107393,2,0,L|364:71,2,110,2|10|2,0:3|0:0|0:3,0:0:0:0:
446,256,108679,1,10,0:0:0:0:
364,330,109107,6,0,P|312:342|253:329,1,110,2|10,0:3|0:0,0:0:0:0:
160,277,109965,2,0,P|108:264|43:282,2,110,2|10|2,0:3|0:0|0:3,0:0:0:0:
257,330,111250,1,10,0:0:0:0:
364,330,111679,2,0,B|373:277|373:277|362:222,1,110,2|10,0:3|0:0,0:0:0:0:
305,127,112536,38,0,L|191:129,1,110,2|10,0:3|0:0,0:0:0:0:
110,58,113393,2,0,L|-9:61,2,110,2|10|8,0:3|0:0|0:3,0:0:0:0:
195,128,114679,1,8,0:3:0:0:
285,65,115107,1,2,0:3:0:0:
373,130,115536,1,8,0:3:0:0:
464,68,115965,5,4,0:3:0:0:
461,287,116822,1,4,0:1:0:0:
364,338,117250,1,2,0:3:0:0:
364,227,117679,2,0,B|297:230|297:230|225:210|225:210|143:215,1,220,2|4,0:3|0:1,0:0:0:0:
114,319,118965,1,2,0:0:0:0:
25,257,119393,38,0,P|-7:197|30:50,1,220,2|4,0:3|0:1,0:0:0:0:
133,32,120679,2,0,L|192:33,1,55,2|0,0:3|0:0,0:0:0:0:
240,49,121107,2,0,P|297:60|349:49,2,110,2|2|4,0:3|0:0|0:1,0:0:0:0:
133,32,122393,1,0,0:0:0:0:
174,133,122822,6,0,P|188:183|175:242,1,110,2|0,0:3|0:0,0:0:0:0:
258,312,123679,2,0,B|312:305|312:305|387:316,1,110,4|2,0:1|0:3,0:0:0:0:
454,245,124536,2,0,P|442:191|456:139,1,110,2|0,0:3|0:0,0:0:0:0:
395,50,125393,38,0,B|343:40|343:40|285:51|285:51|226:42,2,165,4|0|0,0:1|0:0|0:0,0:0:0:0:
343,147,127107,2,0,B|350:203|350:203|339:256|339:256|345:323,2,165,4|0|2,0:1|0:0|0:0,0:0:0:0:
247,202,128822,1,4,0:1:0:0:
195,104,129250,1,8,0:3:0:0:
291,50,129679,22,0,P|344:39|403:53,1,110,4|10,0:0|0:0,0:0:0:0:
450,147,130536,1,2,0:3:0:0:
358,208,130965,1,10,0:0:0:0:
266,146,131393,2,0,P|215:134|158:143,2,110,2|10|2,0:3|0:0|0:3,0:0:0:0:
358,208,132679,1,8,0:0:0:0:
450,147,133107,6,0,P|460:95|446:39,1,110,2|10,0:3|0:0,0:0:0:0:
350,94,133965,1,2,0:3:0:0:
254,40,134393,1,10,0:0:0:0:
157,93,134822,2,0,B|125:105|125:105|33:101,2,110,2|10|2,0:3|0:0|0:3,0:0:0:0:
254,40,136107,1,10,0:0:0:0:
251,95,136322,1,0,0:0:0:0:
247,149,136536,38,0,L|242:262,1,110,2|8,0:3|0:0,0:0:0:0:
176,347,137393,2,0,P|126:360|65:342,1,110,2|10,0:3|0:0,0:0:0:0:
17,249,138250,2,0,L|14:134,2,110,2|10|2,0:3|0:0|0:3,0:0:0:0:
123,275,139536,1,8,0:0:0:0:
176,263,139750,1,0,0:0:0:0:
230,250,139965,6,0,P|240:196|224:135,1,110,2|8,0:3|0:0,0:0:0:0:
295,56,140822,2,0,B|350:46|350:46|410:58,1,110,2|10,0:3|0:0,0:0:0:0:
464,147,141679,2,0,B|473:192|473:192|470:257,2,110,2|10|2,0:0|0:0|0:3,0:0:0:0:
403,56,142965,1,8,0:3:0:0:
338,145,143393,38,0,P|290:160|230:147,1,110,4|10,0:0|0:0,0:0:0:0:
192,45,144250,1,2,0:3:0:0:
81,43,144679,1,10,0:0:0:0:
48,147,145107,2,0,B|39:192|39:192|42:257,2,110,2|10|2,0:3|0:0|0:3,0:0:0:0:
81,43,146393,1,8,0:0:0:0:
192,45,146822,6,0,L|310:44,1,110,2|10,0:3|0:0,0:0:0:0:
379,121,147679,1,2,0:3:0:0:
380,230,148107,1,10,0:0:0:0:
481,187,148536,2,0,B|493:133|493:133|484:21,2,165,8|0|10,0:3|0:0|0:0,0:0:0:0:
431,211,150036,1,0,0:0:0:0:
380,230,150250,38,0,P|329:244|274:232,1,110,2|10,0:3|0:0,0:0:0:0:
200,150,151107,2,0,L|202:39,1,110,2|10,0:3|0:0,0:0:0:0:
99,81,151965,2,0,L|95:207,2,110,2|10|2,0:3|0:0|0:3,0:0:0:0:
201,40,153250,1,10,0:0:0:0:
303,80,153679,6,0,P|357:90|411:78,1,110,2|10,0:3|0:0,0:0:0:0:
510,124,154536,1,2,0:3:0:0:
499,233,154965,1,10,0:0:0:0:
390,251,155393,1,2,0:0:0:0:
336,154,155822,2,0,P|282:141|229:154,2,110,0|0|0,0:0|0:0|0:0,0:0:0:0:
390,251,157107,5,4,0:3:0:0:
169,247,157965,2,0,P|155:201|170:134,1,110,4|2,0:1|0:3,0:0:0:0:
226,48,158822,2,0,L|402:51,1,165,2|0,0:3|0:0,0:0:0:0:
446,55,159679,1,4,0:1:0:0:
511,143,160107,1,2,0:0:0:0:
447,232,160536,6,0,P|442:310|323:370,1,220,2|4,0:3|0:1,0:0:0:0:
255,286,161822,1,2,0:3:0:0:
184,369,162250,2,0,P|85:334|64:231,1,220,2|4,0:3|0:1,0:0:0:0:
114,132,163536,1,2,0:0:0:0:
209,186,163965,37,2,0:3:0:0:
304,132,164393,2,0,P|358:120|415:136,1,110,0|4,0:1|0:1,0:0:0:0:
488,211,165250,1,2,0:3:0:0:
411,289,165679,2,0,P|357:301|300:285,1,110,2|0,0:3|0:0,0:0:0:0:
206,241,166536,2,0,P|146:228|94:243,1,110,4|0,0:1|0:0,0:0:0:0:
4,294,167393,6,0,B|-9:245|-9:245|4:185,1,110,2|0,0:3|0:0,0:0:0:0:
87,115,168250,2,0,L|202:121,1,110,4|2,0:1|0:3,0:0:0:0:
296,69,169107,2,0,L|406:67,1,110,8|2,0:3|0:0,0:0:0:0:
490,137,169965,2,0,P|504:190|487:253,1,110,8|8,0:0|0:0,0:0:0:0:
401,304,170822,37,6,0:0:0:0:
305,250,171250,2,0,B|251:240|251:240|190:252,1,110,10|2,0:0|0:3,0:0:0:0:
197,360,172107,2,0,B|250:370|250:370|314:358,1,110,10|2,0:0|0:3,0:0:0:0:
401,304,172965,2,0,P|412:251|399:198,1,110,10|2,0:0|0:3,0:0:0:0:
367,152,173607,1,0,0:0:0:0:
314,135,173822,6,0,L|199:137,1,110,10|2,0:0|0:3,0:0:0:0:
104,89,174679,2,0,P|92:142|111:200,1,110,10|2,0:0|0:3,0:0:0:0:
194,261,175536,2,0,L|308:257,1,110,10|2,0:0|0:0,0:0:0:0:
305,367,176393,2,0,L|189:371,1,110,10|2,0:0|0:3,0:0:0:0:
100,314,177250,1,10,0:0:0:0:
69,267,177465,1,0,0:0:0:0:
42,220,177679,38,0,P|29:170|43:110,1,110,2|10,0:3|0:0,0:0:0:0:
136,59,178536,2,0,P|188:47|246:60,1,110,2|8,0:3|0:0,0:0:0:0:
320,123,179393,2,0,B|334:161|320:203|320:203|303:243|324:302,2,165,2|0|10,0:3|0:0|0:0,0:0:0:0:
352,78,180893,1,0,0:0:0:0:
387,35,181107,6,0,P|435:22|497:39,1,110,2|10,0:3|0:0,0:0:0:0:
440,133,181965,2,0,L|442:244,1,110,2|10,0:3|0:0,0:0:0:0:
370,326,182822,2,0,P|316:341|260:326,2,110,2|10|2,0:3|0:0|0:3,0:0:0:0:
441,242,184107,1,8,0:0:0:0:
373,154,184536,37,4,0:3:0:0:
256,321,187965,22,0,L|257:206,1,110,4|10,0:0|0:0,0:0:0:0:
200,116,188822,2,0,P|149:104|91:119,1,110,2|10,0:3|0:0,0:0:0:0:
29,206,189679,2,0,L|32:322,2,110,2|10|2,0:3|0:0|0:3,0:0:0:0:
94,117,190965,1,8,0:0:0:0:
124,162,191179,1,0,0:0:0:0:
151,210,191393,6,0,B|161:264|161:264|151:320,1,110,2|10,0:3|0:0,0:0:0:0:
252,273,192250,2,0,B|305:261|305:261|361:273,1,110,2|10,0:3|0:0,0:0:0:0:
468,287,193107,2,0,P|445:222|468:129,2,165,2|0|10,0:3|0:0|0:0,0:0:0:0:
383,357,194822,38,0,L|269:353,1,110,2|10,0:3|0:0,0:0:0:0:
173,305,195679,2,0,L|53:308,2,110,2|10|0,0:3|0:0|0:0,0:0:0:0:
271,254,196965,2,0,L|380:257,2,110,0|0|0,0:0|0:0|0:0,0:0:0:0:
173,203,198250,22,0,P|129:136|176:13,1,220,0|2,0:0|0:0,0:0:0:0:
284,15,199536,1,4,0:1:0:0:
394,17,199965,2,0,P|438:84|391:207,1,220,2|2,0:0|0:0,0:0:0:0:
313,282,201250,1,4,0:1:0:0:
232,206,201679,6,0,B|159:201|159:201|89:221|89:221|3:214,1,220,2|2,0:0|0:0,0:0:0:0:
78,125,202965,1,4,0:1:0:0:
16,33,203393,2,0,B|89:28|89:28|159:48|159:48|245:41,1,220,2|2,0:0|0:0,0:0:0:0:
327,102,204679,1,0,0:0:0:0:
416,38,205107,38,0,B|449:95|424:148|424:148|434:192|434:192|424:253,1,220,2|2,0:0|0:0,0:0:0:0:
337,319,206393,1,4,0:1:0:0:
229,342,206822,2,0,P|134:361|33:293,1,220,2|2,0:0|0:0,0:0:0:0:
4,191,208107,1,4,0:1:0:0:
35,87,208536,6,0,P|123:25|229:42,1,220,2|2,0:0|0:0,0:0:0:0:
303,122,209822,1,4,0:1:0:0:
256,192,210250,12,0,211893,0:0:0:0:
