osu file format v14

[General]
AudioFilename: [MV] Apink() _ Petal().mp3
AudioLeadIn: 0
PreviewTime: 129536
Countdown: 0
SampleSet: Soft
StackLeniency: 0.7
Mode: 0
LetterboxInBreaks: 0
WidescreenStoryboard: 0

[Editor]
DistanceSpacing: 1.5
BeatDivisor: 3
GridSize: 4
TimelineZoom: 1.4

[Metadata]
Title:Petal
TitleUnicode:꽃잎점
Artist:Apink
ArtistUnicode:에이핑크
Creator:P A N
Version:Insane
Source:
Tags:박초롱 윤보미 정은지 손나은 김남주 오하영 A-cube Entertainment エーピンク pink memory Park Cho Rong Yoon Bo Mi Jeong Eun Ji Son Na Eun Kim Nam Joo Oh Ha Young p_a_n
BeatmapID:756035
BeatmapSetID:342010

[Difficulty]
HPDrainRate:6
CircleSize:4
OverallDifficulty:8
ApproachRate:8.5
SliderMultiplier:1.6
SliderTickRate:1

[Events]
//Background and Video events
Video,0,"Apink petal.avi"
0,0,"bg.jpg",0,0
//Break Periods
2,102450,104432
2,184736,186718
//Storyboard Layer 0 (Background)
//Storyboard Layer 1 (Fail)
//Storyboard Layer 2 (Pass)
//Storyboard Layer 3 (Foreground)
//Storyboard Sound Samples

[TimingPoints]
19965,428.571428571429,4,2,1,70,1,0
26679,-100,4,2,1,40,0,0
26822,-100,4,2,1,70,0,0
33250,-100,4,2,1,40,0,0
33679,-100,4,2,1,70,0,0
40393,-100,4,2,1,40,0,0
40536,-100,4,2,1,70,0,0
45822,-100,4,2,1,30,0,0
45965,-100,4,2,1,20,0,0
46107,-100,4,2,1,30,0,0
46250,-100,4,2,1,20,0,0
46393,-100,4,2,1,70,0,0
46965,-100,4,2,1,40,0,0
47393,-133.333333333333,4,2,1,70,0,0
60679,-133.333333333333,4,2,1,40,0,0
61107,-100,4,2,1,90,0,1
67822,-100,4,2,1,40,0,1
67965,-100,4,2,1,90,0,1
74393,-100,4,2,1,40,0,0
74822,-100,4,2,1,90,0,1
87107,-100,4,2,1,50,0,1
88536,-100,4,2,1,70,0,0
100679,-100,4,2,1,40,0,0
100822,-100,4,2,1,20,0,0
101107,-100,4,2,1,40,0,0
101250,-100,4,2,1,70,0,0
108965,-100,4,2,1,40,0,0
109107,-100,4,2,1,70,0,0
114393,-100,4,2,1,40,0,0
114679,-100,4,2,1,70,0,0
114822,-100,4,2,1,40,0,0
114965,-100,4,2,1,70,0,0
115536,-100,4,2,1,40,0,0
115965,-133.333333333333,4,2,1,70,0,0
129250,-133.333333333333,4,2,1,40,0,0
129679,-100,4,2,1,90,0,1
136393,-100,4,2,1,40,0,1
136536,-100,4,2,1,90,0,1
142965,-100,4,2,1,40,0,0
143393,-100,4,2,1,90,0,1
148536,-100,4,2,1,70,0,1
150250,-100,4,2,1,90,0,1
155679,-100,4,2,1,50,0,1
157107,-133.333333333333,4,2,1,70,0,0
170822,-100,4,2,1,70,0,0
187679,-100,4,2,1,40,0,0
187965,-100,4,2,1,90,0,1
196822,-100,4,2,1,50,0,1
198250,-100,4,2,1,20,0,0
211893,-100,4,2,1,5,0,0

[Colours]
Combo1 : 0,119,0
Combo2 : 157,255,60
Combo3 : 255,255,60
Combo4 : 255,41,4
SliderBorder : 255,255,190

[HitObjects]
375,310,19965,6,0,P|386:257|372:207,1,106.666666666667,2|2,0:3|0:3,0:0:0:0:
317,148,20393,2,0,L|205:151,1,106.666666666667,10|0,0:0|0:0,0:0:0:0:
148,203,20822,2,0,P|130:162|147:98,1,106.666666666667,2|2,0:3|0:3,0:0:0:0:
208,56,21250,1,10,0:0:0:0:
287,44,21393,1,2,0:0:0:0:
366,56,21536,1,2,0:0:0:0:
429,105,21679,6,0,P|444:149|428:209,1,106.666666666667,2|0,0:3|0:0,0:0:0:0:
359,243,22107,2,0,B|309:232|309:232|245:246,1,106.666666666667,10|0,0:0|0:0,0:0:0:0:
180,274,22536,1,2,0:3:0:0:
305,373,22822,1,2,0:3:0:0:
305,373,22965,2,0,B|358:381|358:381|413:369,1,106.666666666667,0|0,0:0|0:0,0:0:0:0:
461,308,23393,38,0,B|457:231|457:231|465:191,1,106.666666666667,2|0,0:3|0:0,0:0:0:0:
501,132,23822,2,0,B|505:55|505:55|497:15,1,106.666666666667,10|0,0:0|0:0,0:0:0:0:
429,65,24250,2,0,P|377:79|324:67,1,106.666666666667,2|2,0:3|0:3,0:0:0:0:
258,24,24679,1,10,0:0:0:0:
178,15,24822,1,2,0:0:0:0:
103,45,24965,1,2,0:0:0:0:
75,119,25107,6,0,P|62:168|86:229,1,106.666666666667,2|0,0:3|0:0,0:0:0:0:
139,166,25536,2,0,L|196:165,1,53.3333333333333,10|0,0:0|0:0,0:0:0:0:
265,130,25822,1,2,0:0:0:0:
337,163,25965,2,0,P|342:191|334:227,1,53.3333333333333,2|0,0:3|0:0,0:0:0:0:
339,295,26250,1,2,0:3:0:0:
273,340,26393,2,0,B|218:355|218:355|157:342,1,106.666666666667,8|8,0:0|0:3,0:0:0:0:
154,323,26750,1,0,0:0:0:0:
143,298,26822,38,0,P|128:253|143:190,1,106.666666666667,2|0,0:3|0:0,0:0:0:0:
182,128,27250,2,0,P|194:78|175:21,1,106.666666666667,10|0,0:0|0:0,0:0:0:0:
117,79,27679,2,0,L|233:79,1,106.666666666667,2|2,0:3|0:3,0:0:0:0:
290,35,28107,1,10,0:0:0:0:
369,40,28250,1,2,0:0:0:0:
439,78,28393,1,2,0:0:0:0:
488,141,28536,6,0,B|493:178|493:178|489:253,1,106.666666666667,2|0,0:3|0:0,0:0:0:0:
417,283,28965,2,0,B|412:246|412:246|416:171,1,106.666666666667,10|0,0:0|0:0,0:0:0:0:
361,117,29393,2,0,P|331:113|299:122,1,53.3333333333333,2|0,0:3|0:0,0:0:0:0:
249,172,29679,1,2,0:3:0:0:
190,117,29822,2,0,P|177:76|193:8,1,106.666666666667,10|2,0:0|0:0,0:0:0:0:
109,16,30250,38,0,P|79:47|13:67,1,106.666666666667,2|0,0:3|0:0,0:0:0:0:
61,138,30679,2,0,P|103:147|153:195,1,106.666666666667,10|0,0:0|0:0,0:0:0:0:
208,243,31107,2,0,B|260:253|260:253|318:238,1,106.666666666667,2|2,0:3|0:3,0:0:0:0:
359,174,31536,2,0,L|358:113,1,53.3333333333333,10|0,0:0|0:0,0:0:0:0:
416,65,31822,1,2,0:3:0:0:
478,115,31965,6,0,P|492:162|479:222,1,106.666666666667,2|0,0:0|0:0,0:0:0:0:
445,289,32393,2,0,P|418:286|384:290,1,53.3333333333333,10|0,0:0|0:0,0:0:0:0:
317,319,32679,1,8,0:0:0:0:
250,362,32822,2,0,P|222:368|191:360,1,53.3333333333333,2|8,0:3|0:0,0:0:0:0:
132,317,33107,1,2,0:3:0:0:
81,254,33250,2,0,L|37:255,4,26.6666666666667,8|0|0|0|0,0:3|0:0|0:0|0:0|0:0,0:0:0:0:
135,194,33679,38,0,L|256:192,1,106.666666666667,2|2,0:3|0:3,0:0:0:0:
309,149,34107,2,0,P|320:103|304:45,1,106.666666666667,10|0,0:0|0:0,0:0:0:0:
227,62,34536,2,0,B|175:75|175:75|118:64,1,106.666666666667,2|2,0:3|0:3,0:0:0:0:
45,41,34965,1,10,0:0:0:0:
52,120,35107,1,2,0:0:0:0:
63,199,35250,1,2,0:0:0:0:
73,278,35393,6,0,P|122:290|180:272,1,106.666666666667,2|0,0:3|0:0,0:0:0:0:
231,217,35822,1,8,0:0:0:0:
376,281,36107,1,0,0:0:0:0:
376,281,36250,2,0,B|385:226|385:226|372:170,1,106.666666666667,2|2,0:3|0:3,0:0:0:0:
348,99,36679,1,10,0:0:0:0:
510,104,36965,37,0,0:0:0:0:
510,104,37107,2,0,B|516:172|516:172|509:215,1,106.666666666667,2|0,0:3|0:0,0:0:0:0:
476,283,37536,2,0,P|427:300|371:284,1,106.666666666667,10|0,0:0|0:0,0:0:0:0:
308,241,37965,2,0,P|257:227|205:242,1,106.666666666667,2|2,0:3|0:3,0:0:0:0:
144,292,38393,1,10,0:0:0:0:
62,154,38679,5,2,0:3:0:0:
62,154,38822,2,0,P|47:102|60:46,1,106.666666666667,2|0,0:0|0:0,0:0:0:0:
132,24,39250,2,0,B|168:24|168:24|197:33|197:33|248:33,1,106.666666666667,10|0,0:0|0:0,0:0:0:0:
317,28,39679,1,2,0:3:0:0:
394,46,39822,1,2,0:0:0:0:
448,104,39965,1,2,0:3:0:0:
467,181,40107,2,0,B|476:232|476:232|468:291,1,106.666666666667,10|8,0:0|0:3,0:0:0:0:
456,310,40465,1,0,0:0:0:0:
442,333,40536,38,0,P|391:320|330:337,1,106.666666666667,2|0,0:3|0:0,0:0:0:0:
281,273,40965,2,0,P|265:225|284:164,1,106.666666666667,10|0,0:0|0:0,0:0:0:0:
343,125,41393,2,0,L|231:125,1,106.666666666667,2|2,0:3|0:3,0:0:0:0:
155,127,41822,1,8,0:0:0:0:
98,182,41965,1,2,0:0:0:0:
100,261,42107,1,2,0:0:0:0:
154,319,42250,6,0,P|206:331|263:313,1,106.666666666667,2|0,0:3|0:0,0:0:0:0:
318,265,42679,2,0,P|370:253|424:267,1,106.666666666667,10|0,0:0|0:0,0:0:0:0:
477,322,43107,1,2,0:3:0:0:
473,161,43393,1,2,0:3:0:0:
473,161,43536,2,0,L|472:45,1,106.666666666667,10|2,0:0|0:0,0:0:0:0:
394,77,43965,38,0,P|341:90|283:76,1,106.666666666667,2|0,0:3|0:0,0:0:0:0:
212,61,44393,2,0,L|213:177,1,106.666666666667,10|0,0:0|0:0,0:0:0:0:
265,229,44822,2,0,P|216:247|162:230,1,106.666666666667,2|2,0:3|0:3,0:0:0:0:
107,176,45250,2,0,P|78:173|52:177,1,53.3333333333333,10|2,0:0|0:0,0:0:0:0:
0,237,45536,1,2,0:0:0:0:
32,312,45679,6,0,L|28:374,2,53.3333333333333,8|8|8,0:3|0:3|0:3,0:0:0:0:
158,338,46107,2,0,L|161:285,1,53.3333333333333,8|8,0:3|0:3,0:0:0:0:
192,156,46393,1,8,0:3:0:0:
265,124,46536,1,2,0:3:0:0:
343,138,46679,1,8,0:3:0:0:
409,183,46822,1,2,0:3:0:0:
438,257,46965,2,0,L|479:258,4,26.6666666666667,8|0|0|0|8,0:3|0:0|0:0|0:0|0:3,0:0:0:0:
418,335,47393,38,0,P|367:363|221:333,1,200.000007629395,4|2,0:3|0:3,0:0:0:0:
193,273,48250,1,4,0:1:0:0:
307,62,48679,1,2,0:3:0:0:
445,260,49107,6,0,P|464:315|447:376,1,120.000004577637,2|2,0:3|0:0,0:0:0:0:
297,317,49822,1,2,0:3:0:0:
297,317,49965,2,0,L|168:317,1,120.000004577637,4|2,0:1|0:0,0:0:0:0:
67,211,50679,37,0,0:0:0:0:
67,211,50822,2,0,B|52:153|52:153|65:86,1,120.000004577637,2|2,0:3|0:0,0:0:0:0:
213,151,51536,1,2,0:3:0:0:
213,151,51679,2,0,L|343:151,1,120.000004577637,4|2,0:1|0:3,0:0:0:0:
439,33,52393,5,0,0:0:0:0:
439,33,52536,2,0,L|316:33,1,120.000004577637,2|2,0:3|0:0,0:0:0:0:
213,151,53250,1,2,0:3:0:0:
218,230,53393,2,0,L|221:291,1,40.000001525879,4|2,0:1|0:0,0:0:0:0:
274,329,53679,1,8,0:3:0:0:
196,349,53822,2,0,P|158:357|114:349,1,80.0000030517579,2|0,0:0|0:0,0:0:0:0:
56,298,54250,37,2,0:3:0:0:
58,137,54536,1,0,0:0:0:0:
110,76,54679,2,0,P|148:68|194:76,1,80.0000030517579,0|2,0:0|0:3,0:0:0:0:
234,139,55107,1,4,0:1:0:0:
231,299,55393,1,0,0:0:0:0:
298,342,55536,2,0,B|338:349|338:349|381:340,1,80.0000030517579,2|0,0:3|0:0,0:0:0:0:
444,295,55965,5,2,0:0:0:0:
447,135,56250,1,0,0:0:0:0:
380,92,56393,2,0,B|340:85|340:85|292:95,1,80.0000030517579,0|2,0:0|0:3,0:0:0:0:
234,139,56822,1,4,0:1:0:0:
231,299,57107,1,8,0:3:0:0:
231,299,57250,2,0,P|198:307|147:298,1,80.0000030517579,0|0,0:0|0:0,0:0:0:0:
84,256,57679,37,2,0:3:0:0:
239,218,57965,2,0,B|271:209|302:216|302:216|336:226|371:213,1,120.000004577637,0|2,0:0|0:3,0:0:0:0:
437,217,58536,1,4,0:1:0:0:
437,56,58822,1,0,0:0:0:0:
506,96,58965,2,0,P|514:133|506:178,1,80.0000030517579,2|0,0:3|0:0,0:0:0:0:
437,217,59393,6,0,P|430:258|446:307,1,80.0000030517579,2|0,0:3|0:0,0:0:0:0:
479,364,59822,2,0,B|441:371|441:371|386:363,1,80.0000030517579,2|2,0:0|0:3,0:0:0:0:
334,318,60250,1,4,0:1:0:0:
255,304,60393,1,0,0:0:0:0:
175,313,60536,1,0,0:0:0:0:
103,348,60679,2,0,L|103:379,4,20.0000007629395,8|0|0|0|8,0:3|0:0|0:0|0:0|0:3,0:0:0:0:
52,285,61107,6,0,P|35:232|54:177,1,106.666666666667,4|2,0:0|0:0,0:0:0:0:
109,129,61536,2,0,B|142:132|142:132|176:126|176:126|216:128,1,106.666666666667,8|2,0:0|0:0,0:0:0:0:
280,80,61965,2,0,B|316:77|316:77|350:84|350:84|385:81,1,106.666666666667,2|2,0:3|0:3,0:0:0:0:
437,145,62393,1,10,0:0:0:0:
457,222,62536,1,2,0:0:0:0:
437,299,62679,1,2,0:0:0:0:
377,352,62822,6,0,P|333:365|269:352,1,106.666666666667,2|2,0:3|0:0,0:0:0:0:
216,299,63250,1,10,0:0:0:0:
213,138,63536,1,2,0:0:0:0:
138,168,63679,2,0,P|127:219|146:278,1,106.666666666667,2|2,0:3|0:3,0:0:0:0:
216,299,64107,1,10,0:0:0:0:
55,302,64393,1,2,0:0:0:0:
15,232,64536,38,0,B|5:194|5:194|9:116,1,106.666666666667,2|2,0:3|0:0,0:0:0:0:
65,70,64965,2,0,P|118:58|172:73,1,106.666666666667,10|2,0:0|0:0,0:0:0:0:
213,138,65393,2,0,P|265:149|317:135,1,106.666666666667,2|2,0:3|0:3,0:0:0:0:
380,87,65822,1,10,0:0:0:0:
459,93,65965,1,2,0:0:0:0:
508,152,66107,1,2,0:3:0:0:
496,234,66250,6,0,P|491:263|496:289,1,53.3333333333333,2|0,0:0|0:0,0:0:0:0:
509,365,66536,1,2,0:0:0:0:
432,339,66679,2,0,P|404:335|375:339,1,53.3333333333333,10|0,0:0|0:0,0:0:0:0:
306,372,66965,1,2,0:0:0:0:
263,304,67107,2,0,P|259:277|263:246,1,53.3333333333333,2|2,0:3|0:0,0:0:0:0:
261,170,67393,1,2,0:3:0:0:
316,111,67536,1,8,0:0:0:0:
334,270,67822,37,8,0:3:0:0:
302,294,67893,1,0,0:0:0:0:
263,304,67965,2,0,P|212:317|157:305,1,106.666666666667,2|2,0:3|0:0,0:0:0:0:
89,267,68393,1,10,0:0:0:0:
91,106,68679,1,2,0:0:0:0:
153,56,68822,2,0,P|204:43|259:55,1,106.666666666667,2|2,0:3|0:3,0:0:0:0:
316,111,69250,1,10,0:0:0:0:
382,156,69393,1,2,0:0:0:0:
449,113,69536,1,2,0:0:0:0:
509,60,69679,6,0,P|526:108|505:168,1,106.666666666667,2|2,0:3|0:0,0:0:0:0:
447,208,70107,1,10,0:0:0:0:
381,61,70393,1,2,0:0:0:0:
316,111,70536,1,2,0:3:0:0:
152,59,70822,1,2,0:3:0:0:
90,110,70965,1,8,0:0:0:0:
77,188,71107,1,0,0:0:0:0:
88,267,71250,1,2,0:0:0:0:
149,318,71393,38,0,P|200:329|254:313,1,106.666666666667,2|2,0:3|0:0,0:0:0:0:
318,269,71822,1,10,0:0:0:0:
316,111,72107,1,2,0:0:0:0:
254,58,72250,2,0,P|205:46|150:59,1,106.666666666667,2|2,0:3|0:3,0:0:0:0:
90,110,72679,5,8,0:0:0:0:
77,188,72822,1,2,0:0:0:0:
88,267,72965,1,2,0:3:0:0:
149,318,73107,37,2,0:0:0:0:
173,241,73250,1,2,0:0:0:0:
250,220,73393,1,2,0:0:0:0:
318,269,73536,1,8,0:0:0:0:
473,230,73822,5,8,0:0:0:0:
457,308,73965,1,2,0:3:0:0:
379,324,74107,1,8,0:0:0:0:
318,269,74250,1,2,0:3:0:0:
328,189,74393,2,0,L|373:189,4,26.6666666666667,8|0|0|0|8,0:3|0:0|0:0|0:0|0:3,0:0:0:0:
250,220,74822,38,0,L|128:220,1,106.666666666667,4|2,0:0|0:0,0:0:0:0:
84,165,75250,2,0,P|68:117|88:56,1,106.666666666667,10|2,0:0|0:0,0:0:0:0:
145,114,75679,2,0,B|196:123|196:123|257:111,1,106.666666666667,2|2,0:3|0:3,0:0:0:0:
308,58,76107,1,10,0:0:0:0:
387,46,76250,1,2,0:0:0:0:
460,77,76393,1,2,0:0:0:0:
484,154,76536,6,0,L|481:267,1,106.666666666667,2|2,0:3|0:0,0:0:0:0:
480,341,76965,1,10,0:0:0:0:
320,347,77250,1,2,0:0:0:0:
280,278,77393,2,0,L|283:165,1,106.666666666667,2|2,0:3|0:3,0:0:0:0:
284,91,77822,1,8,0:0:0:0:
124,92,78107,1,2,0:0:0:0:
84,161,78250,38,0,L|87:274,1,106.666666666667,2|2,0:3|0:0,0:0:0:0:
8,249,78679,2,0,L|5:138,1,106.666666666667,10|2,0:0|0:0,0:0:0:0:
30,66,79107,2,0,P|80:52|138:70,1,106.666666666667,2|2,0:3|0:3,0:0:0:0:
200,108,79536,1,10,0:0:0:0:
226,183,79679,1,2,0:0:0:0:
200,258,79822,1,2,0:3:0:0:
226,333,79965,6,0,P|252:337|281:332,1,53.3333333333333,2|0,0:0|0:0,0:0:0:0:
357,322,80250,1,2,0:0:0:0:
396,252,80393,2,0,L|396:195,1,53.3333333333333,10|0,0:0|0:0,0:0:0:0:
393,118,80679,1,2,0:3:0:0:
396,37,80822,2,0,P|365:33|335:39,1,53.3333333333333,2|2,0:3|0:0,0:0:0:0:
269,67,81107,1,2,0:3:0:0:
200,108,81250,1,8,0:0:0:0:
142,164,81393,1,0,0:0:0:0:
81,111,81536,1,8,0:3:0:0:
18,61,81679,38,0,P|4:114|26:170,1,106.666666666667,2|2,0:3|0:0,0:0:0:0:
79,215,82107,1,10,0:0:0:0:
239,216,82393,1,2,0:0:0:0:
299,162,82536,1,2,0:3:0:0:
448,218,82822,1,2,0:3:0:0:
504,160,82965,1,10,0:0:0:0:
445,105,83107,1,2,0:0:0:0:
389,162,83250,1,2,0:0:0:0:
448,218,83393,6,0,P|463:267|447:329,1,106.666666666667,2|2,0:3|0:0,0:0:0:0:
390,372,83822,1,10,0:0:0:0:
230,375,84107,1,2,0:0:0:0:
169,322,84250,2,0,P|154:273|170:211,1,106.666666666667,2|2,0:3|0:3,0:0:0:0:
194,144,84679,1,10,0:0:0:0:
165,70,84822,1,0,0:0:0:0:
92,35,84965,1,2,0:0:0:0:
17,62,85107,38,0,B|8:99|8:99|15:177,1,106.666666666667,2|2,0:3|0:0,0:0:0:0:
23,247,85536,2,0,B|29:315|29:315|20:352,1,106.666666666667,10|2,0:0|0:0,0:0:0:0:
99,365,85965,2,0,P|148:377|204:360,1,106.666666666667,2|2,0:3|0:3,0:0:0:0:
271,323,86393,1,10,0:0:0:0:
349,308,86536,1,0,0:0:0:0:
428,320,86679,1,2,0:3:0:0:
496,362,86822,5,2,0:0:0:0:
493,202,87107,1,0,0:0:0:0:
491,121,87250,1,0,0:0:0:0:
374,231,87536,1,0,0:0:0:0:
349,308,87679,1,0,0:0:0:0:
163,308,87965,1,0,0:0:0:0:
138,231,88108,1,0,0:0:0:0:
21,121,88394,1,0,0:0:0:0:
19,202,88536,6,0,B|15:243|15:243|22:327,1,106.666666666667,2|0,0:3|0:0,0:0:0:0:
89,349,88965,2,0,P|140:360|201:339,1,106.666666666667,10|0,0:0|0:0,0:0:0:0:
264,313,89393,2,0,B|269:247|269:247|265:206,1,106.666666666667,2|2,0:3|0:3,0:0:0:0:
262,126,89822,1,10,0:0:0:0:
316,67,89965,1,2,0:0:0:0:
395,67,90107,1,2,0:0:0:0:
461,111,90250,6,0,P|474:153|460:218,1,106.666666666667,2|0,0:3|0:0,0:0:0:0:
405,270,90679,2,0,L|298:267,1,106.666666666667,10|0,0:0|0:0,0:0:0:0:
244,207,91107,2,0,L|135:211,1,106.666666666667,2|2,0:3|0:3,0:0:0:0:
56,215,91536,1,10,0:0:0:0:
10,149,91679,1,2,0:0:0:0:
15,69,91822,1,2,0:0:0:0:
79,21,91965,38,0,L|187:24,1,106.666666666667,2|0,0:3|0:0,0:0:0:0:
255,63,92393,2,0,L|361:60,1,106.666666666667,10|0,0:0|0:0,0:0:0:0:
425,10,92822,2,0,P|442:62|422:116,1,106.666666666667,2|2,0:3|0:3,0:0:0:0:
368,165,93250,1,10,0:0:0:0:
319,229,93393,1,2,0:0:0:0:
352,301,93536,1,2,0:3:0:0:
431,311,93679,5,2,0:0:0:0:
481,249,93822,1,2,0:0:0:0:
448,175,93965,1,2,0:0:0:0:
368,165,94107,2,0,P|319:148|263:169,1,106.666666666667,10|2,0:0|0:3,0:0:0:0:
214,224,94536,1,2,0:3:0:0:
138,251,94679,1,2,0:0:0:0:
61,226,94822,1,2,0:3:0:0:
6,167,94965,2,0,B|0:128|0:128|3:51,1,106.666666666667,10|2,0:0|0:0,0:0:0:0:
71,19,95393,38,0,B|110:13|110:13|187:16,1,106.666666666667,2|0,0:3|0:0,0:0:0:0:
249,50,95822,2,0,B|255:89|255:89|252:166,1,106.666666666667,10|0,0:0|0:0,0:0:0:0:
213,226,96250,2,0,B|211:293|211:293|217:332,1,106.666666666667,2|2,0:3|0:3,0:0:0:0:
288,369,96679,1,10,0:0:0:0:
363,341,96822,1,2,0:0:0:0:
438,367,96965,1,2,0:0:0:0:
511,337,97107,6,0,L|511:225,1,106.666666666667,2|0,0:3|0:0,0:0:0:0:
472,159,97536,2,0,P|457:108|473:53,1,106.666666666667,10|0,0:0|0:0,0:0:0:0:
396,25,97965,2,0,P|359:63|303:77,1,106.666666666667,2|2,0:3|0:3,0:0:0:0:
231,96,98393,1,10,0:0:0:0:
150,96,98536,1,2,0:0:0:0:
75,67,98679,1,2,0:0:0:0:
17,10,98822,38,0,L|22:129,1,106.666666666667,2|0,0:3|0:0,0:0:0:0:
21,196,99250,2,0,P|7:246|28:310,1,106.666666666667,10|0,0:0|0:0,0:0:0:0:
88,341,99679,2,0,B|139:353|139:353|196:337,1,106.666666666667,2|2,0:3|0:3,0:0:0:0:
254,289,100107,1,10,0:0:0:0:
273,211,100250,1,2,0:0:0:0:
251,133,100393,1,2,0:0:0:0:
266,54,100536,6,0,L|331:55,2,53.3333333333333,8|8|8,0:3|0:3|0:3,0:0:0:0:
171,128,100965,2,0,L|110:127,1,53.3333333333333,8|8,0:3|0:3,0:0:0:0:
273,211,101250,1,8,0:3:0:0:
331,265,101393,1,2,0:3:0:0:
411,266,101536,1,8,0:3:0:0:
473,215,101679,1,2,0:3:0:0:
489,136,101822,1,8,0:3:0:0:
442,70,101965,2,0,L|442:39,2,26.6666666666667,0|0|0,0:0|0:0|0:0,0:0:0:0:
396,135,102250,37,0,0:0:0:0:
111,115,105107,5,2,0:3:0:0:
190,107,105250,1,10,0:0:0:0:
191,267,105536,1,0,0:0:0:0:
273,263,105679,38,0,L|381:258,1,106.666666666667,2|0,0:3|0:0,0:0:0:0:
379,338,106107,2,0,L|262:343,1,106.666666666667,10|0,0:0|0:0,0:0:0:0:
199,308,106536,2,0,P|148:296|90:312,1,106.666666666667,2|2,0:3|0:3,0:0:0:0:
32,357,106965,1,10,0:0:0:0:
24,277,107107,1,2,0:0:0:0:
16,197,107250,1,2,0:0:0:0:
7,117,107393,6,0,B|59:126|59:126|117:113,1,106.666666666667,2|0,0:3|0:0,0:0:0:0:
188,90,107822,2,0,B|240:78|240:78|292:87,1,106.666666666667,10|0,0:0|0:0,0:0:0:0:
360,129,108250,2,0,L|360:195,1,53.3333333333333,2|0,0:3|0:0,0:0:0:0:
363,262,108536,1,2,0:3:0:0:
302,314,108679,2,0,P|249:328|193:314,1,106.666666666667,10|8,0:0|0:3,0:0:0:0:
181,298,109036,1,0,0:0:0:0:
163,279,109107,38,0,P|114:264|59:280,1,106.666666666667,2|0,0:3|0:0,0:0:0:0:
112,340,109536,2,0,L|109:225,1,106.666666666667,10|0,0:0|0:0,0:0:0:0:
107,152,109965,2,0,P|92:101|108:44,1,106.666666666667,2|2,0:3|0:3,0:0:0:0:
179,21,110393,1,10,0:0:0:0:
257,6,110536,1,2,0:0:0:0:
333,21,110679,1,2,0:0:0:0:
407,50,110822,6,0,P|419:101|405:152,1,106.666666666667,2|0,0:3|0:0,0:0:0:0:
341,102,111250,2,0,B|288:89|288:89|231:99,1,106.666666666667,10|0,0:0|0:0,0:0:0:0:
160,125,111679,1,2,0:3:0:0:
163,285,111965,1,2,0:3:0:0:
231,326,112107,2,0,P|260:330|284:326,1,53.3333333333333,10|0,0:0|0:0,0:0:0:0:
353,285,112393,1,2,0:0:0:0:
422,325,112536,38,0,P|474:341|526:322,1,106.666666666667,2|0,0:3|0:0,0:0:0:0:
471,261,112965,2,0,B|469:224|469:224|475:193|475:193|472:146,1,106.666666666667,10|0,0:0|0:0,0:0:0:0:
421,93,113393,2,0,B|368:80|368:80|309:94,1,106.666666666667,2|2,0:3|0:3,0:0:0:0:
244,126,113822,2,0,P|214:132|191:127,1,53.3333333333333,10|2,0:0|0:0,0:0:0:0:
127,80,114107,1,2,0:0:0:0:
64,130,114250,6,0,L|11:128,2,53.3333333333333,8|8|8,0:3|0:3|0:3,0:0:0:0:
205,53,114679,2,0,L|233:8,1,53.3333333333333,8|8,0:3|0:3,0:0:0:0:
213,220,114965,1,8,0:3:0:0:
208,299,115107,1,2,0:3:0:0:
130,320,115250,1,8,0:3:0:0:
87,252,115393,1,2,0:3:0:0:
136,189,115536,2,0,L|136:150,4,26.6666666666667,8|0|0|0|8,0:3|0:0|0:0|0:0|0:3,0:0:0:0:
213,220,115965,38,0,B|256:233|256:233|282:225|282:225|338:256|416:214,1,200.000007629395,4|2,0:3|0:3,0:0:0:0:
467,170,116822,1,4,0:1:0:0:
248,72,117250,1,2,0:3:0:0:
242,312,117679,6,0,P|300:324|357:310,1,120.000004577637,2|2,0:3|0:0,0:0:0:0:
467,170,118393,1,2,0:3:0:0:
467,170,118536,2,0,L|467:42,1,120.000004577637,4|2,0:1|0:0,0:0:0:0:
309,52,119250,37,0,0:0:0:0:
309,52,119393,2,0,L|309:183,1,120.000004577637,2|2,0:3|0:0,0:0:0:0:
311,332,120107,1,2,0:3:0:0:
311,332,120250,2,0,B|372:345|372:345|440:327,1,120.000004577637,4|2,0:1|0:3,0:0:0:0:
430,209,120965,5,0,0:0:0:0:
430,209,121108,2,0,B|369:196|369:196|302:213,1,120.000004577637,2|2,0:3|0:0,0:0:0:0:
209,270,121822,1,2,0:3:0:0:
145,318,121965,2,0,P|119:321|96:316,1,40.000001525879,4|2,0:1|0:0,0:0:0:0:
42,269,122250,1,8,0:3:0:0:
105,220,122393,2,0,P|112:180|103:140,1,80.0000030517579,0|0,0:0|0:0,0:0:0:0:
44,87,122822,37,2,0:3:0:0:
203,88,123107,1,0,0:0:0:0:
274,123,123250,2,0,B|313:129|313:129|357:121,1,80.0000030517579,0|2,0:0|0:3,0:0:0:0:
427,90,123679,1,4,0:1:0:0:
430,250,123965,1,0,0:0:0:0:
359,215,124108,2,0,B|320:209|320:209|276:217,1,80.0000030517579,2|0,0:3|0:0,0:0:0:0:
203,242,124537,5,2,0:3:0:0:
360,294,124822,1,0,0:0:0:0:
359,215,124964,2,0,L|359:133,1,80.0000030517579,0|2,0:0|0:3,0:0:0:0:
357,55,125393,1,4,0:1:0:0:
195,52,125679,1,2,0:0:0:0:
142,112,125822,2,0,P|134:151|145:192,1,80.0000030517579,0|0,0:0|0:0,0:0:0:0:
203,242,126250,37,2,0:3:0:0:
42,242,126536,2,0,B|29:186|29:186|44:125,1,120.000004577637,0|2,0:0|0:3,0:0:0:0:
68,49,127107,1,4,0:1:0:0:
228,52,127393,1,0,0:0:0:0:
301,83,127536,2,0,P|341:89|390:77,1,80.0000030517579,2|0,0:3|0:0,0:0:0:0:
455,54,127965,6,0,L|454:142,1,80.0000030517579,2|0,0:3|0:0,0:0:0:0:
433,211,128393,2,0,L|438:296,1,80.0000030517579,2|2,0:0|0:3,0:0:0:0:
388,354,128822,1,4,0:1:0:0:
309,369,128965,1,2,0:0:0:0:
233,344,129107,1,2,0:0:0:0:
175,288,129250,2,0,L|141:288,4,20.0000007629395,8|0|0|0|8,0:3|0:0|0:0|0:0|0:3,0:0:0:0:
238,238,129679,6,0,P|250:184|231:128,1,106.666666666667,4|2,0:0|0:0,0:0:0:0:
166,95,130107,2,0,L|56:98,1,106.666666666667,10|2,0:0|0:0,0:0:0:0:
71,18,130536,2,0,L|185:15,1,106.666666666667,2|2,0:3|0:3,0:0:0:0:
243,62,130965,1,10,0:0:0:0:
321,74,131107,1,2,0:0:0:0:
399,59,131250,1,2,0:0:0:0:
459,7,131393,6,0,P|477:55|460:112,1,106.666666666667,2|2,0:3|0:0,0:0:0:0:
392,145,131822,1,10,0:0:0:0:
232,147,132107,1,2,0:0:0:0:
255,223,132250,2,0,P|308:234|361:216,1,106.666666666667,2|2,0:3|0:3,0:0:0:0:
392,145,132679,1,8,0:0:0:0:
391,305,132965,1,2,0:0:0:0:
320,341,133107,38,0,B|268:356|268:356|210:342,1,106.666666666667,2|2,0:3|0:0,0:0:0:0:
155,290,133536,2,0,B|104:278|104:278|49:292,1,106.666666666667,10|2,0:0|0:0,0:0:0:0:
104,351,133965,2,0,L|103:237,1,106.666666666667,2|2,0:3|0:3,0:0:0:0:
54,180,134393,1,10,0:0:0:0:
42,100,134536,1,2,0:0:0:0:
86,33,134679,1,2,0:0:0:0:
165,25,134822,6,0,B|193:32|225:23,1,53.3333333333333,2|0,0:3|0:0,0:0:0:0:
297,17,135107,1,2,0:0:0:0:
353,73,135250,2,0,B|360:100|350:142,1,53.3333333333333,10|0,0:0|0:0,0:0:0:0:
296,183,135536,1,2,0:3:0:0:
282,261,135679,1,2,0:3:0:0:
348,305,135822,1,2,0:0:0:0:
408,252,135965,1,2,0:3:0:0:
376,179,136107,1,10,0:0:0:0:
215,180,136393,1,8,0:3:0:0:
174,180,136465,1,8,0:3:0:0:
134,181,136536,38,0,P|122:226|141:292,1,106.666666666667,2|2,0:3|0:0,0:0:0:0:
205,324,136965,1,8,0:0:0:0:
296,183,137250,1,2,0:0:0:0:
336,114,137393,2,0,P|349:61|328:6,1,106.666666666667,2|2,0:3|0:3,0:0:0:0:
271,64,137822,1,10,0:0:0:0:
195,90,137965,1,2,0:0:0:0:
119,65,138107,1,2,0:0:0:0:
54,17,138250,6,0,P|39:66|56:117,1,106.666666666667,2|2,0:3|0:0,0:0:0:0:
129,150,138679,1,10,0:0:0:0:
82,305,138965,1,2,0:0:0:0:
144,255,139107,1,2,0:3:0:0:
242,381,139393,1,2,0:3:0:0:
240,300,139536,1,8,0:0:0:0:
288,236,139679,1,0,0:0:0:0:
366,222,139822,1,2,0:0:0:0:
430,269,139965,38,0,P|444:220|423:162,1,106.666666666667,2|2,0:3|0:0,0:0:0:0:
351,142,140393,1,8,0:0:0:0:
353,302,140679,1,2,0:0:0:0:
278,330,140822,2,0,B|228:343|228:343|168:330,1,106.666666666667,2|2,0:3|0:3,0:0:0:0:
115,277,141250,5,10,0:0:0:0:
96,199,141393,1,2,0:0:0:0:
115,121,141536,1,2,0:3:0:0:
174,67,141679,37,2,0:0:0:0:
198,143,141822,1,2,0:0:0:0:
274,165,141965,1,2,0:0:0:0:
351,142,142107,1,10,0:0:0:0:
509,166,142393,5,8,0:0:0:0:
477,92,142536,1,2,0:3:0:0:
398,77,142679,1,8,0:0:0:0:
351,142,142822,1,2,0:3:0:0:
334,220,142965,2,0,L|334:262,4,26.6666666666667,8|0|0|0|8,0:3|0:0|0:0|0:0|0:3,0:0:0:0:
274,165,143393,38,0,L|274:47,1,106.666666666667,4|2,0:0|0:0,0:0:0:0:
194,46,143822,2,0,L|195:158,1,106.666666666667,10|2,0:0|0:0,0:0:0:0:
116,169,144250,2,0,L|116:59,1,106.666666666667,2|2,0:3|0:3,0:0:0:0:
36,48,144679,1,10,0:0:0:0:
36,128,144822,1,2,0:0:0:0:
36,208,144965,1,2,0:0:0:0:
102,251,145107,6,0,P|155:262|210:243,1,106.666666666667,2|2,0:3|0:0,0:0:0:0:
274,207,145536,1,10,0:0:0:0:
434,203,145822,1,2,0:0:0:0:
410,279,145965,2,0,P|363:293|299:279,1,106.666666666667,2|2,0:3|0:3,0:0:0:0:
274,207,146393,1,8,0:0:0:0:
270,46,146679,1,2,0:0:0:0:
201,88,146822,38,0,B|150:101|150:101|86:89,1,106.666666666667,2|2,0:3|0:0,0:0:0:0:
32,43,147250,2,0,P|18:100|39:148,1,106.666666666667,10|0,0:0|0:0,0:0:0:0:
88,203,147679,2,0,L|195:200,1,106.666666666667,2|2,0:3|0:3,0:0:0:0:
274,207,148107,1,10,0:0:0:0:
344,168,148250,1,2,0:0:0:0:
372,93,148393,1,2,0:0:0:0:
365,13,148536,6,0,L|431:15,1,53.3333333333333,8|0,0:3|0:0,0:0:0:0:
455,86,148822,1,8,0:3:0:0:
422,159,148965,2,0,L|422:218,1,53.3333333333333,10|0,0:0|0:0,0:0:0:0:
450,287,149250,2,0,P|422:292|389:286,1,53.3333333333333,2|2,0:3|0:3,0:0:0:0:
334,238,149536,1,2,0:0:0:0:
320,317,149679,2,0,P|315:344|320:371,1,53.3333333333333,2|10,0:3|0:0,0:0:0:0:
193,277,150107,1,8,0:3:0:0:
197,197,150250,38,0,L|202:82,1,106.666666666667,2|2,0:3|0:0,0:0:0:0:
207,9,150679,1,10,0:0:0:0:
46,13,150965,1,2,0:0:0:0:
50,93,151108,2,0,L|55:208,1,106.666666666667,2|2,0:3|0:3,0:0:0:0:
60,281,151537,1,10,0:0:0:0:
126,325,151679,1,2,0:0:0:0:
193,277,151822,1,2,0:0:0:0:
260,319,151965,6,0,P|313:330|368:312,1,106.666666666667,2|2,0:3|0:0,0:0:0:0:
430,273,152393,1,10,0:0:0:0:
428,112,152679,1,2,0:0:0:0:
361,70,152822,2,0,P|309:57|249:75,1,106.666666666667,2|2,0:3|0:3,0:0:0:0:
195,119,153250,1,10,0:0:0:0:
180,197,153393,1,0,0:0:0:0:
193,277,153536,1,2,0:0:0:0:
260,319,153679,38,0,P|313:330|368:312,1,106.666666666667,2|2,0:3|0:0,0:0:0:0:
430,273,154107,2,0,L|422:161,1,106.666666666667,10|2,0:0|0:0,0:0:0:0:
502,172,154536,2,0,L|510:289,1,106.666666666667,2|2,0:3|0:3,0:0:0:0:
480,353,154965,1,10,0:0:0:0:
403,376,155107,1,2,0:0:0:0:
324,365,155250,1,2,0:3:0:0:
260,319,155393,5,2,0:0:0:0:
192,173,155679,1,0,0:0:0:0:
179,93,155822,1,0,0:0:0:0:
320,173,156107,1,0,0:0:0:0:
333,93,156250,1,0,0:0:0:0:
205,259,156536,1,0,0:0:0:0:
128,281,156679,1,0,0:0:0:0:
307,259,156965,1,0,0:0:0:0:
384,281,157107,6,0,P|459:313|501:211,1,200.000007629395,4|0,0:3|0:3,0:0:0:0:
505,144,157965,1,4,0:1:0:0:
298,22,158393,1,2,0:3:0:0:
222,250,158822,6,0,B|174:267|129:253|129:253|83:234|18:253,1,200.000007629395,2|2,0:3|0:3,0:0:0:0:
23,330,159679,1,4,0:1:0:0:
23,169,159965,1,0,0:0:0:0:
23,169,160107,2,0,L|24:82,1,80.0000030517579,2|0,0:0|0:0,0:0:0:0:
82,34,160536,38,0,B|114:24|114:24|151:35|151:35|216:6|285:42,1,200.000007629395,2|2,0:3|0:3,0:0:0:0:
332,92,161393,2,0,L|330:224,1,120.000004577637,4|2,0:1|0:3,0:0:0:0:
486,29,162250,6,0,L|481:245,1,200.000007629395,2|2,0:3|0:3,0:0:0:0:
479,308,163107,1,4,0:1:0:0:
401,287,163250,2,0,P|375:284|345:291,1,40.000001525879,0|2,0:0|0:0,0:0:0:0:
287,318,163536,2,0,B|248:326|248:326|197:317,1,80.0000030517579,2|2,0:0|0:0,0:0:0:0:
133,290,163965,37,2,0:3:0:0:
362,360,164393,1,0,0:0:0:0:
357,199,164679,1,2,0:3:0:0:
357,199,164822,2,0,L|356:111,1,80.0000030517579,4|0,0:1|0:0,0:0:0:0:
354,38,165250,1,2,0:3:0:0:
225,133,165536,5,0,0:0:0:0:
225,133,165679,2,0,P|181:142|140:133,1,80.0000030517579,2|0,0:3|0:0,0:0:0:0:
69,117,166107,1,0,0:0:0:0:
66,277,166393,1,2,0:3:0:0:
120,335,166536,2,0,B|160:342|160:342|208:331,1,80.0000030517579,4|0,0:1|0:0,0:0:0:0:
256,277,166965,1,0,0:0:0:0:
446,277,167250,1,0,0:0:0:0:
392,334,167393,38,0,B|354:342|354:342|314:333,1,80.0000030517579,2|0,0:3|0:0,0:0:0:0:
256,277,167822,2,0,L|257:182,1,80.0000030517579,0|2,0:0|0:3,0:0:0:0:
259,116,168250,1,4,0:1:0:0:
446,117,168536,1,0,0:0:0:0:
446,117,168679,2,0,L|445:207,1,80.0000030517579,2|0,0:3|0:0,0:0:0:0:
446,277,169107,5,8,0:3:0:0:
392,334,169250,1,2,0:0:0:0:
314,333,169393,1,8,0:3:0:0:
256,277,169536,1,2,0:0:0:0:
107,337,169822,1,2,0:3:0:0:
49,280,169965,1,8,0:0:0:0:
46,120,170250,1,2,0:3:0:0:
104,63,170393,1,8,0:0:0:0:
183,57,170536,1,0,0:0:0:0:
249,101,170679,1,2,0:0:0:0:
283,173,170822,38,0,P|335:184|389:168,1,106.666666666667,6|0,0:0|0:0,0:0:0:0:
447,118,171250,2,0,P|463:169|444:225,1,106.666666666667,10|0,0:0|0:0,0:0:0:0:
389,273,171679,2,0,B|337:262|337:262|280:272,1,106.666666666667,2|2,0:3|0:3,0:0:0:0:
219,318,172107,1,10,0:0:0:0:
143,343,172250,1,2,0:0:0:0:
66,318,172393,1,2,0:0:0:0:
21,251,172536,6,0,P|6:199|22:145,1,106.666666666667,2|0,0:3|0:0,0:0:0:0:
86,104,172965,2,0,B|159:106|159:106|192:123,1,106.666666666667,10|0,0:0|0:0,0:0:0:0:
189,201,173393,1,2,0:3:0:0:
349,201,173679,1,2,0:3:0:0:
418,161,173822,2,0,P|431:111|413:55,1,106.666666666667,10|2,0:0|0:0,0:0:0:0:
349,14,174250,38,0,L|241:17,1,106.666666666667,2|0,0:3|0:0,0:0:0:0:
161,22,174679,2,0,B|148:72|148:72|166:130,1,106.666666666667,10|0,0:0|0:0,0:0:0:0:
189,201,175107,1,2,0:3:0:0:
190,361,175393,1,2,0:3:0:0:
243,301,175536,2,0,P|271:285|306:284,1,53.3333333333333,10|2,0:0|0:0,0:0:0:0:
371,276,175822,1,2,0:3:0:0:
441,314,175965,6,0,L|439:374,2,53.3333333333333,2|2|2,0:0|0:0|0:0,0:0:0:0:
488,249,176393,2,0,L|483:138,1,106.666666666667,10|2,0:0|0:3,0:0:0:0:
456,66,176822,1,2,0:3:0:0:
382,34,176965,1,2,0:0:0:0:
303,44,177107,1,2,0:3:0:0:
247,102,177250,2,0,L|190:101,2,53.3333333333333,10|0|8,0:0|0:0|0:3,0:0:0:0:
306,156,177679,38,0,P|319:202|308:260,1,106.666666666667,2|0,0:3|0:0,0:0:0:0:
249,312,178107,2,0,B|198:324|198:324|130:311,1,106.666666666667,10|0,0:0|0:0,0:0:0:0:
85,259,178536,2,0,P|70:209|83:156,1,106.666666666667,2|2,0:3|0:3,0:0:0:0:
142,103,178965,1,8,0:0:0:0:
192,41,179107,1,2,0:0:0:0:
247,102,179250,1,2,0:0:0:0:
306,156,179393,6,0,P|361:168|414:151,1,106.666666666667,2|0,0:3|0:0,0:0:0:0:
471,104,179822,1,10,0:0:0:0:
474,263,180107,1,0,0:0:0:0:
411,313,180250,2,0,B|361:327|361:327|298:312,1,106.666666666667,2|2,0:3|0:3,0:0:0:0:
246,262,180679,1,10,0:0:0:0:
246,181,180822,1,0,0:0:0:0:
247,102,180965,1,2,0:0:0:0:
172,130,181107,38,0,P|157:179|179:239,1,106.666666666667,2|0,0:3|0:0,0:0:0:0:
246,262,181536,1,10,0:0:0:0:
247,102,181822,1,0,0:0:0:0:
188,47,181965,2,0,P|137:35|84:47,1,106.666666666667,2|2,0:3|0:3,0:0:0:0:
28,103,182393,1,10,0:0:0:0:
28,183,182536,1,2,0:0:0:0:
29,263,182679,1,2,0:0:0:0:
83,321,182822,6,0,P|137:333|189:314,1,106.666666666667,2|0,0:3|0:0,0:0:0:0:
246,262,183250,1,10,0:0:0:0:
247,102,183536,1,8,0:0:0:0:
323,79,183679,1,2,0:3:0:0:
400,99,183822,1,2,0:3:0:0:
447,163,183965,1,2,0:3:0:0:
462,241,184107,2,0,L|505:240,4,26.6666666666667,8|0|0|0|8,0:0|0:0|0:0|0:0|0:3,0:0:0:0:
381,244,184536,37,4,0:3:0:0:
257,64,187393,5,2,0:3:0:0:
193,112,187536,1,8,0:0:0:0:
127,65,187679,2,0,L|128:28,2,26.6666666666667,0|0|8,0:0|0:0|0:3,0:0:0:0:
64,115,187965,6,0,P|52:165|72:224,1,106.666666666667,4|2,0:0|0:0,0:0:0:0:
128,268,188393,2,0,L|237:264,1,106.666666666667,10|2,0:0|0:0,0:0:0:0:
303,222,188822,2,0,L|412:228,1,106.666666666667,2|2,0:3|0:3,0:0:0:0:
489,233,189250,1,10,0:0:0:0:
504,154,189393,1,2,0:0:0:0:
486,75,189536,1,2,0:0:0:0:
413,41,189679,6,0,L|352:43,1,53.3333333333333,2|0,0:3|0:0,0:0:0:0:
288,80,189965,1,2,0:0:0:0:
216,46,190107,2,0,L|160:43,1,53.3333333333333,10|2,0:0|0:0,0:0:0:0:
92,83,190393,2,0,P|89:108|96:143,1,53.3333333333333,2|2,0:3|0:3,0:0:0:0:
133,205,190679,1,2,0:0:0:0:
213,205,190822,2,0,L|272:204,2,53.3333333333333,2|8|2,0:3|0:0|0:0,0:0:0:0:
173,135,191250,1,2,0:0:0:0:
133,205,191393,38,0,P|121:258|142:316,1,106.666666666667,2|2,0:3|0:0,0:0:0:0:
204,348,191822,2,0,B|257:336|257:336|315:349,1,106.666666666667,10|2,0:0|0:0,0:0:0:0:
376,306,192250,2,0,P|391:256|379:205,1,106.666666666667,2|2,0:3|0:3,0:0:0:0:
335,137,192679,1,10,0:0:0:0:
257,116,192822,1,2,0:0:0:0:
173,135,192965,1,2,0:0:0:0:
133,205,193107,6,0,P|86:218|26:206,1,106.666666666667,2|2,0:3|0:0,0:0:0:0:
30,127,193536,1,8,0:0:0:0:
27,287,193822,1,2,0:0:0:0:
72,352,193965,1,2,0:3:0:0:
215,281,194250,1,2,0:3:0:0:
256,349,194393,1,10,0:0:0:0:
334,366,194536,1,0,0:0:0:0:
413,357,194679,1,2,0:0:0:0:
470,300,194822,38,0,P|482:248|465:192,1,106.666666666667,2|2,0:3|0:0,0:0:0:0:
408,145,195250,2,0,L|300:147,1,106.666666666667,10|2,0:0|0:0,0:0:0:0:
231,188,195679,2,0,L|122:184,1,106.666666666667,2|2,0:3|0:3,0:0:0:0:
61,233,196107,1,10,0:0:0:0:
62,313,196250,1,2,0:0:0:0:
115,372,196393,1,2,0:0:0:0:
194,378,196536,5,0,0:0:0:0:
312,270,196822,1,0,0:0:0:0:
332,192,196965,1,0,0:0:0:0:
200,270,197250,1,0,0:0:0:0:
180,192,197393,1,0,0:0:0:0:
317,109,197679,1,0,0:0:0:0:
392,137,197822,1,0,0:0:0:0:
195,109,198107,1,0,0:0:0:0:
120,137,198250,6,0,P|74:153|13:138,1,106.666666666667,0|2,0:0|0:0,0:0:0:0:
66,76,198679,2,0,L|67:199,1,106.666666666667,4|2,0:1|0:0,0:0:0:0:
95,257,199107,2,0,B|147:266|147:266|203:254,1,106.666666666667,2|2,0:0|0:0,0:0:0:0:
276,230,199536,2,0,B|328:218|328:218|389:231,1,106.666666666667,4|2,0:1|0:0,0:0:0:0:
384,309,199965,6,0,B|332:321|332:321|271:308,1,106.666666666667,2|2,0:0|0:0,0:0:0:0:
276,230,200393,2,0,L|276:121,1,106.666666666667,4|2,0:1|0:0,0:0:0:0:
335,68,200822,2,0,P|381:56|447:74,1,106.666666666667,2|2,0:0|0:0,0:0:0:0:
494,124,201250,2,0,L|495:235,1,106.666666666667,4|2,0:1|0:0,0:0:0:0:
436,286,201679,38,0,P|390:298|324:280,1,106.666666666667,2|2,0:0|0:0,0:0:0:0:
276,229,202107,2,0,P|223:216|168:231,1,106.666666666667,4|2,0:1|0:0,0:0:0:0:
104,269,202536,2,0,L|111:377,1,106.666666666667,2|2,0:0|0:0,0:0:0:0:
30,368,202965,2,0,L|23:255,1,106.666666666667,4|2,0:1|0:0,0:0:0:0:
16,181,203393,6,0,L|23:67,1,106.666666666667,2|2,0:0|0:0,0:0:0:0:
102,82,203822,2,0,L|95:191,1,106.666666666667,4|2,0:1|0:0,0:0:0:0:
104,270,204250,37,2,0:0:0:0:
256,320,204536,2,0,L|255:374,2,53.3333333333333,2|0|2,0:0|0:0|0:0,0:0:0:0:
458,235,205107,6,0,P|470:180|450:124,1,106.666666666667,2|2,0:0|0:0,0:0:0:0:
394,185,205536,2,0,B|340:194|340:194|287:186,1,106.666666666667,4|2,0:1|0:0,0:0:0:0:
225,136,205965,2,0,P|210:186|227:238,1,106.666666666667,2|2,0:0|0:0,0:0:0:0:
277,298,206393,2,0,P|229:315|174:298,1,106.666666666667,4|2,0:1|0:0,0:0:0:0:
117,245,206822,38,0,L|121:124,1,106.666666666667,2|2,0:0|0:0,0:0:0:0:
169,74,207250,2,0,B|119:61|119:61|65:76,1,106.666666666667,4|2,0:1|0:0,0:0:0:0:
18,140,207679,2,0,L|20:260,1,106.666666666667,2|2,0:0|0:0,0:0:0:0:
70,308,208107,2,0,P|119:324|174:298,1,106.666666666667,4|2,0:1|0:0,0:0:0:0:
230,252,208536,6,0,L|348:256,1,106.666666666667,2|2,0:0|0:0,0:0:0:0:
395,310,208965,2,0,L|508:303,1,106.666666666667,4|2,0:1|0:0,0:0:0:0:
468,230,209393,2,0,P|454:178|468:124,1,106.666666666667,2|2,0:0|0:0,0:0:0:0:
502,56,209822,2,0,L|389:49,1,106.666666666667,4|2,0:1|0:0,0:0:0:0:
315,42,210250,37,2,0:0:0:0:
256,192,210393,12,0,211893,0:0:0:0:
