osu file format v14

[General]
AudioFilename: [MV] Apink() _ Petal().mp3
AudioLeadIn: 0
PreviewTime: 129536
Countdown: 0
SampleSet: Soft
StackLeniency: 0.7
Mode: 0
LetterboxInBreaks: 0
WidescreenStoryboard: 0

[Editor]
DistanceSpacing: 1.4
BeatDivisor: 3
GridSize: 4
TimelineZoom: 1.7

[Metadata]
Title:Petal
TitleUnicode:꽃잎점
Artist:Apink
ArtistUnicode:에이핑크
Creator:P A N
Version:Hard
Source:
Tags:박초롱 윤보미 정은지 손나은 김남주 오하영 A-cube Entertainment エーピンク pink memory Park Cho Rong Yoon Bo Mi Jeong Eun Ji Son Na Eun Kim Nam Joo Oh Ha Young p_a_n
BeatmapID:756369
BeatmapSetID:342010

[Difficulty]
HPDrainRate:5.5
CircleSize:4
OverallDifficulty:5.5
ApproachRate:7
SliderMultiplier:1.4
SliderTickRate:1

[Events]
//Background and Video events
Video,0,"Apink petal.avi"
0,0,"bg.jpg",0,0
//Break Periods
2,102450,104207
2,184736,186493
//Storyboard Layer 0 (Background)
//Storyboard Layer 1 (Fail)
//Storyboard Layer 2 (Pass)
//Storyboard Layer 3 (Foreground)
//Storyboard Sound Samples

[TimingPoints]
19965,428.571428571429,4,2,1,70,1,0
26679,-100,4,2,1,40,0,0
26822,-100,4,2,1,70,0,0
33250,-100,4,2,1,40,0,0
33679,-100,4,2,1,70,0,0
40393,-100,4,2,1,40,0,0
40536,-100,4,2,1,70,0,0
45822,-100,4,2,1,30,0,0
45965,-100,4,2,1,20,0,0
46107,-100,4,2,1,30,0,0
46250,-100,4,2,1,20,0,0
46393,-100,4,2,1,70,0,0
46965,-100,4,2,1,40,0,0
47393,-133.333333333333,4,2,1,70,0,0
60679,-133.333333333333,4,2,1,40,0,0
61107,-100,4,2,1,90,0,1
67822,-100,4,2,1,40,0,1
67965,-100,4,2,1,90,0,1
74393,-100,4,2,1,40,0,0
74822,-100,4,2,1,90,0,1
87107,-100,4,2,1,50,0,1
88536,-100,4,2,1,70,0,0
100679,-100,4,2,1,40,0,0
100822,-100,4,2,1,20,0,0
101107,-100,4,2,1,40,0,0
101250,-100,4,2,1,70,0,0
108965,-100,4,2,1,40,0,0
109107,-100,4,2,1,70,0,0
114393,-100,4,2,1,40,0,0
114679,-100,4,2,1,70,0,0
114822,-100,4,2,1,40,0,0
114965,-100,4,2,1,70,0,0
115536,-100,4,2,1,40,0,0
115965,-133.333333333333,4,2,1,70,0,0
129250,-133.333333333333,4,2,1,40,0,0
129679,-100,4,2,1,90,0,1
136393,-100,4,2,1,40,0,1
136536,-100,4,2,1,90,0,1
142965,-100,4,2,1,40,0,0
143393,-100,4,2,1,90,0,1
148536,-100,4,2,1,70,0,1
150250,-100,4,2,1,90,0,1
155679,-100,4,2,1,50,0,1
157107,-133.333333333333,4,2,1,70,0,0
170822,-100,4,2,1,70,0,0
187679,-100,4,2,1,40,0,0
187965,-100,4,2,1,90,0,1
196822,-100,4,2,1,50,0,1
198250,-100,4,2,1,20,0,0
211893,-100,4,2,1,5,0,0

[Colours]
Combo1 : 0,119,0
Combo2 : 157,255,60
Combo3 : 255,255,60
Combo4 : 255,41,4
SliderBorder : 255,255,190

[HitObjects]
114,325,19965,6,0,P|104:290|114:235,1,93.3333333333333,2|2,0:3|0:3,0:0:0:0:
154,183,20393,1,10,0:0:0:0:
350,185,20822,2,0,B|391:192|391:192|441:183,1,93.3333333333333,2|2,0:3|0:3,0:0:0:0:
465,121,21250,2,0,L|516:121,2,46.6666666666667,10|2|2,0:0|0:0|0:0,0:0:0:0:
442,59,21679,6,0,B|400:51|400:51|350:60,1,93.3333333333333,2|0,0:3|0:0,0:0:0:0:
322,119,22107,1,10,0:0:0:0:
321,249,22393,1,0,0:0:0:0:
286,304,22536,2,0,P|243:313|195:302,1,93.3333333333333,2|2,0:3|0:3,0:0:0:0:
136,272,22965,2,0,P|124:231|138:178,1,93.3333333333333
195,157,23393,38,0,P|205:113|192:63,1,93.3333333333333,2|0,0:3|0:0,0:0:0:0:
136,33,23822,1,10,0:0:0:0:
266,32,24107,1,0,0:0:0:0:
316,46,24250,2,0,B|363:51|363:51|410:43,1,93.3333333333333,2|2,0:3|0:3,0:0:0:0:
474,44,24679,2,0,L|510:1,2,46.6666666666667,10|2|2,0:0|0:0|0:0,0:0:0:0:
483,108,25107,6,0,P|493:146|479:203,1,93.3333333333333,2|0,0:3|0:0,0:0:0:0:
436,245,25536,1,10,0:0:0:0:
437,378,25822,1,2,0:0:0:0:
437,378,25965,2,0,L|486:377,2,46.6666666666667,2|0|2,0:3|0:0|0:3,0:0:0:0:
389,333,26393,2,0,P|343:322|296:335,1,93.3333333333333,8|8,0:0|0:3,0:0:0:0:
249,376,26822,37,2,0:3:0:0:
250,245,27107,1,0,0:0:0:0:
300,211,27250,2,0,P|308:166|295:117,1,93.3333333333333,10|0,0:0|0:0,0:0:0:0:
248,75,27679,2,0,L|144:74,1,93.3333333333333,2|2,0:3|0:3,0:0:0:0:
91,56,28107,2,0,L|91:7,2,46.6666666666667,10|2|2,0:0|0:0|0:0,0:0:0:0:
28,75,28536,6,0,B|19:119|19:119|32:172,1,93.3333333333333,2|0,0:3|0:0,0:0:0:0:
61,224,28965,1,10,0:0:0:0:
191,226,29250,1,0,0:0:0:0:
243,224,29393,2,0,L|338:224,1,93.3333333333333,2|2,0:3|0:3,0:0:0:0:
393,256,29822,2,0,P|404:299|393:352,1,93.3333333333333,10|2,0:0|0:0,0:0:0:0:
337,375,30250,37,2,0:3:0:0:
206,372,30536,1,0,0:0:0:0:
154,374,30679,2,0,B|109:365|109:365|57:374,1,93.3333333333333,10|0,0:0|0:0,0:0:0:0:
11,332,31107,2,0,P|-2:287|11:235,1,93.3333333333333,2|2,0:3|0:3,0:0:0:0:
63,207,31536,2,0,L|64:156,2,46.6666666666667,10|0|2,0:0|0:0|0:3,0:0:0:0:
118,242,31965,6,0,B|163:249|163:249|211:240,1,93.3333333333333,2|0,0:0|0:0,0:0:0:0:
266,207,32393,2,0,L|266:159,2,46.6666666666667,10|0|8,0:0|0:0|0:0,0:0:0:0:
320,243,32822,2,0,L|320:289,2,46.6666666666667,2|8|2,0:3|0:0|0:3,0:0:0:0:
375,207,33250,2,0,P|430:189|508:210,1,140,8|2,0:3|0:3,0:0:0:0:
510,78,33965,37,2,0:3:0:0:
447,61,34107,2,0,B|401:53|401:53|353:61,1,93.3333333333333,10|0,0:0|0:0,0:0:0:0:
294,86,34536,2,0,B|249:95|249:95|201:88,1,93.3333333333333,2|2,0:3|0:3,0:0:0:0:
143,57,34965,2,0,L|143:7,2,46.6666666666667,10|2|2,0:0|0:0|0:0,0:0:0:0:
85,88,35393,6,0,P|74:126|92:184,1,93.3333333333333,2|0,0:3|0:0,0:0:0:0:
135,221,35822,1,8,0:0:0:0:
265,221,36107,1,0,0:0:0:0:
319,246,36250,2,0,B|329:290|329:290|319:337,1,93.3333333333333,2|2,0:3|0:3,0:0:0:0:
264,373,36679,1,10,0:0:0:0:
133,374,36965,1,0,0:0:0:0:
76,341,37108,38,0,B|65:299|65:299|77:247,1,93.3333333333333,2|0,0:3|0:0,0:0:0:0:
135,221,37536,2,0,P|178:229|231:214,1,93.3333333333333,10|0,0:0|0:0,0:0:0:0:
282,184,37965,2,0,L|374:184,1,93.3333333333333,2|2,0:3|0:3,0:0:0:0:
427,223,38393,2,0,L|427:271,2,46.6666666666667,10|0|2,0:0|0:0|0:3,0:0:0:0:
477,180,38822,6,0,B|475:150|475:150|480:124|480:124|476:84,1,93.3333333333333,2|0,0:0|0:0,0:0:0:0:
419,55,39250,2,0,L|419:9,2,46.6666666666667,10|0|0,0:0|0:0|0:0,0:0:0:0:
362,88,39679,2,0,L|362:134,2,46.6666666666667,2|2|2,0:3|0:0|0:3,0:0:0:0:
306,52,40107,2,0,P|263:43|210:56,1,93.3333333333333,10|8,0:0|0:3,0:0:0:0:
214,119,40536,38,0,L|215:212,1,93.3333333333333,2|0,0:3|0:0,0:0:0:0:
272,244,40965,2,0,L|265:338,1,93.3333333333333,10|0,0:0|0:0,0:0:0:0:
206,365,41393,2,0,P|163:375|115:365,1,93.3333333333333,2|2,0:3|0:3,0:0:0:0:
64,323,41822,2,0,L|4:323,2,46.6666666666667,8|2|2,0:0|0:0|0:0,0:0:0:0:
114,281,42250,6,0,B|121:234|121:234|113:185,1,93.3333333333333,2|0,0:3|0:0,0:0:0:0:
65,143,42679,2,0,B|54:100|54:100|62:49,1,93.3333333333333,10|0,0:0|0:0,0:0:0:0:
116,15,43107,1,2,0:3:0:0:
246,13,43393,1,2,0:3:0:0:
289,55,43536,2,0,P|334:64|383:52,1,93.3333333333333,10|2,0:0|0:0,0:0:0:0:
433,16,43965,38,0,P|474:5|493:54,1,93.3333333333333,2|0,0:3|0:0,0:0:0:0:
488,108,44393,2,0,B|479:153|479:153|491:203,1,93.3333333333333,10|0,0:0|0:0,0:0:0:0:
489,264,44822,2,0,P|448:275|397:263,1,93.3333333333333,2|2,0:3|0:3,0:0:0:0:
350,220,45250,2,0,L|357:174,2,46.6666666666667,10|2|2,0:0|0:0|0:0,0:0:0:0:
301,265,45679,6,0,L|310:314,2,46.6666666666667,8|8|8,0:3|0:3|0:3,0:0:0:0:
252,220,46107,2,0,L|259:173,2,46.6666666666667,8|8|8,0:3|0:3|0:3,0:0:0:0:
204,266,46536,2,0,L|213:311,2,46.6666666666667,2|8|2,0:3|0:3|0:3,0:0:0:0:
161,215,46965,2,0,P|149:169|164:119,1,93.3333333333333,8|8,0:3|0:3,0:0:0:0:
199,96,47393,38,0,P|163:121|31:89,1,175.00000667572,4|2,0:3|0:3,0:0:0:0:
42,50,48250,1,4,0:1:0:0:
37,197,48679,1,2,0:3:0:0:
101,328,49107,5,2,0:3:0:0:
248,332,49536,2,0,P|279:337|319:328,1,70.0000026702882,2|2,0:0|0:3,0:0:0:0:
355,298,49965,1,4,0:1:0:0:
353,151,50393,2,0,L|351:77,1,70.0000026702882,2|0,0:0|0:0,0:0:0:0:
350,31,50822,37,2,0:3:0:0:
496,33,51250,2,0,L|497:106,1,70.0000026702882,2|2,0:0|0:3,0:0:0:0:
497,152,51679,1,4,0:1:0:0:
495,298,52107,2,0,B|460:304|460:304|421:296,1,70.0000026702882,2|0,0:3|0:0,0:0:0:0:
379,282,52536,5,2,0:3:0:0:
236,247,52965,2,0,B|203:241|203:241|165:248,1,70.0000026702882,2|2,0:0|0:3,0:0:0:0:
125,273,53393,2,0,L|125:310,2,35.0000013351441,4|2|8,0:1|0:0|0:3,0:0:0:0:
83,246,53822,2,0,L|84:171,1,70.0000026702882,2|0,0:0|0:0,0:0:0:0:
86,127,54250,37,2,0:3:0:0:
127,38,54536,1,0,0:0:0:0:
127,38,54679,2,0,P|161:31|194:40,1,70.0000026702882,0|2,0:0|0:3,0:0:0:0:
235,66,55107,1,4,0:1:0:0:
251,162,55393,1,0,0:0:0:0:
251,162,55536,2,0,B|245:195|245:195|253:238,1,70.0000026702882,2|0,0:3|0:0,0:0:0:0:
256,279,55965,5,2,0:0:0:0:
322,350,56250,1,0,0:0:0:0:
322,350,56393,2,0,P|355:355|390:348,1,70.0000026702882,0|2,0:0|0:3,0:0:0:0:
438,334,56822,1,4,0:1:0:0:
505,263,57107,2,0,B|496:232|505:208|505:208|511:185|504:155,1,105.000004005432,8|0,0:3|0:0,0:0:0:0:
493,111,57679,38,0,B|488:77|488:77|495:33,1,70.0000026702882,2|0,0:3|0:0,0:0:0:0:
379,135,58393,1,2,0:3:0:0:
336,159,58536,2,0,P|303:166|261:159,1,70.0000026702882,4|0,0:1|0:0,0:0:0:0:
227,132,58965,1,2,0:3:0:0:
179,46,59250,1,0,0:0:0:0:
132,28,59394,6,0,P|99:21|61:28,1,70.0000026702882,2|0,0:3|0:0,0:0:0:0:
19,48,59822,1,2,0:0:0:0:
19,145,60107,1,2,0:3:0:0:
46,185,60250,2,0,L|85:185,2,35.0000013351441,4|0|0,0:1|0:0|0:0,0:0:0:0:
16,224,60679,2,0,P|9:261|18:295,1,70.0000026702882,8|8,0:3|0:3,0:0:0:0:
58,342,61107,6,0,L|151:339,1,93.3333333333333,4|2,0:0|0:0,0:0:0:0:
196,290,61536,2,0,L|291:290,1,93.3333333333333,8|2,0:0|0:0,0:0:0:0:
332,340,61965,2,0,P|377:350|424:337,1,93.3333333333333,2|2,0:3|0:3,0:0:0:0:
465,289,62393,2,0,L|511:287,2,46.6666666666667,10|2|2,0:0|0:0|0:0,0:0:0:0:
419,241,62822,6,0,B|409:196|409:196|420:146,1,93.3333333333333,2|2,0:3|0:0,0:0:0:0:
446,90,63250,1,10,0:0:0:0:
320,89,63536,1,2,0:0:0:0:
270,72,63679,2,0,P|228:63|177:73,1,93.3333333333333,2|2,0:3|0:3,0:0:0:0:
138,123,64107,2,0,L|87:122,2,46.6666666666667,10|0|2,0:0|0:0|0:0,0:0:0:0:
179,174,64536,38,0,P|223:183|269:172,1,93.3333333333333,2|2,0:3|0:0,0:0:0:0:
318,127,64965,2,0,P|359:115|410:129,1,93.3333333333333,10|2,0:0|0:0,0:0:0:0:
451,174,65393,2,0,L|445:267,1,93.3333333333333,2|2,0:3|0:3,0:0:0:0:
406,320,65822,2,0,L|402:370,2,46.6666666666667,10|2|2,0:0|0:0|0:3,0:0:0:0:
363,270,66250,6,0,L|358:218,2,46.6666666666667,2|0|2,0:0|0:0|0:0,0:0:0:0:
319,319,66679,2,0,L|315:369,2,46.6666666666667,10|0|2,0:0|0:0|0:0,0:0:0:0:
274,271,67107,2,0,L|268:221,2,46.6666666666667,2|2|2,0:3|0:0|0:3,0:0:0:0:
232,322,67536,2,0,P|190:333|137:320,1,93.3333333333333,8|8,0:0|0:3,0:0:0:0:
81,296,67965,38,0,L|85:199,1,93.3333333333333,2|2,0:3|0:0,0:0:0:0:
135,160,68393,2,0,L|131:61,1,93.3333333333333,10|2,0:0|0:0,0:0:0:0:
184,27,68822,2,0,P|225:16|275:27,1,93.3333333333333,2|2,0:3|0:3,0:0:0:0:
308,80,69250,2,0,L|309:128,2,46.6666666666667,10|2|2,0:0|0:0|0:0,0:0:0:0:
345,25,69679,6,0,P|388:17|441:30,1,93.3333333333333,2|2,0:3|0:0,0:0:0:0:
475,79,70107,1,10,0:0:0:0:
477,209,70393,1,2,0:0:0:0:
422,244,70536,2,0,B|414:288|414:288|426:334,1,93.3333333333333,2|2,0:3|0:3,0:0:0:0:
479,374,70965,1,8,0:0:0:0:
348,379,71250,1,2,0:0:0:0:
294,341,71393,38,0,B|284:297|284:297|293:249,1,93.3333333333333,2|2,0:3|0:0,0:0:0:0:
346,211,71822,1,10,0:0:0:0:
477,209,72107,1,2,0:0:0:0:
510,152,72250,2,0,B|519:104|519:104|509:60,1,93.3333333333333,2|2,0:3|0:3,0:0:0:0:
443,56,72679,2,0,L|434:5,2,46.6666666666667,8|2|2,0:0|0:0|0:3,0:0:0:0:
378,64,73107,6,0,L|375:111,2,46.6666666666667,2|2|2,0:0|0:0|0:0,0:0:0:0:
312,58,73536,2,0,L|303:7,2,46.6666666666667,8|0|8,0:0|0:0|0:0,0:0:0:0:
247,69,73964,2,0,L|244:116,2,46.6666666666667,2|8|2,0:3|0:0|0:3,0:0:0:0:
189,36,74393,2,0,P|143:27|95:40,1,93.3333333333333,8|8,0:3|0:3,0:0:0:0:
40,68,74822,38,0,B|32:115|32:115|49:167,1,93.3333333333333,4|2,0:0|0:0,0:0:0:0:
100,194,75250,2,0,P|143:183|194:195,1,93.3333333333333,10|2,0:0|0:0,0:0:0:0:
247,160,75679,2,0,B|256:115|256:115|245:63,1,93.3333333333333,2|2,0:3|0:3,0:0:0:0:
310,54,76107,2,0,L|310:6,2,46.6666666666667,10|2|2,0:0|0:0|0:0,0:0:0:0:
374,68,76536,6,0,B|364:114|364:114|373:159,1,93.3333333333333,2|2,0:3|0:0,0:0:0:0:
414,210,76965,1,10,0:0:0:0:
414,340,77250,1,2,0:0:0:0:
358,363,77393,2,0,P|314:373|262:364,1,93.3333333333333,2|2,0:3|0:3,0:0:0:0:
228,312,77822,2,0,L|179:311,2,46.6666666666667,8|0|2,0:0|0:0|0:0,0:0:0:0:
268,260,78250,38,0,B|274:214|274:214|264:163,1,93.3333333333333,2|2,0:3|0:0,0:0:0:0:
223,116,78679,2,0,P|177:106|130:120,1,93.3333333333333,10|2,0:0|0:0,0:0:0:0:
94,171,79107,2,0,B|88:217|88:217|97:263,1,93.3333333333333,2|2,0:3|0:3,0:0:0:0:
140,312,79536,2,0,L|140:361,2,46.6666666666667,10|2|2,0:0|0:0|0:3,0:0:0:0:
183,262,79965,6,0,L|183:215,2,46.6666666666667,2|0|2,0:0|0:0|0:0,0:0:0:0:
228,312,80393,2,0,L|228:361,2,46.6666666666667,10|0|2,0:0|0:0|0:3,0:0:0:0:
268,260,80822,2,0,L|268:213,2,46.6666666666667,2|2|2,0:3|0:0|0:3,0:0:0:0:
307,312,81250,2,0,P|351:320|400:309,1,93.3333333333333,8|8,0:0|0:3,0:0:0:0:
450,270,81679,38,0,L|447:175,1,93.3333333333333,2|2,0:3|0:0,0:0:0:0:
446,111,82107,1,10,0:0:0:0:
315,109,82393,1,2,0:0:0:0:
260,136,82536,2,0,P|217:147|166:138,1,93.3333333333333,2|2,0:3|0:3,0:0:0:0:
120,95,82965,2,0,L|119:44,2,46.6666666666667,10|2|2,0:0|0:0|0:0,0:0:0:0:
74,142,83393,6,0,B|66:188|66:188|77:240,1,93.3333333333333,2|2,0:3|0:0,0:0:0:0:
117,284,83822,1,10,0:0:0:0:
247,282,84107,1,2,0:0:0:0:
302,257,84250,2,0,B|347:248|347:248|404:256,1,93.3333333333333,2|2,0:3|0:3,0:0:0:0:
449,290,84679,1,10,0:0:0:0:
447,159,84965,1,2,0:0:0:0:
391,124,85107,38,0,P|341:113|298:127,1,93.3333333333333,2|2,0:3|0:0,0:0:0:0:
246,160,85536,2,0,L|248:63,1,93.3333333333333,10|2,0:0|0:0,0:0:0:0:
302,30,85965,2,0,B|347:36|347:36|402:27,1,93.3333333333333,2|2,0:3|0:3,0:0:0:0:
448,65,86393,2,0,L|446:162,1,93.3333333333333,10|2,0:0|0:3,0:0:0:0:
443,224,86822,5,2,0:0:0:0:
370,336,87107,2,0,L|323:330,1,46.6666666666667,0|0,0:0|0:0,0:0:0:0:
142,336,87536,2,0,L|189:330,1,46.6666666666667,0|0,0:0|0:0,0:0:0:0:
312,240,87965,2,0,L|323:193,1,46.6666666666667,0|0,0:0|0:0,0:0:0:0:
200,240,88393,1,0,0:0:0:0:
162,186,88536,6,0,P|149:144|162:89,1,93.3333333333333,2|0,0:3|0:0,0:0:0:0:
206,51,88965,2,0,L|311:53,1,93.3333333333333,10|0,0:0|0:0,0:0:0:0:
345,98,89393,2,0,L|442:93,1,93.3333333333333,2|2,0:3|0:3,0:0:0:0:
491,54,89822,2,0,L|491:6,2,46.6666666666667,10|2|2,0:0|0:0|0:0,0:0:0:0:
491,119,90250,6,0,L|491:222,1,93.3333333333333,2|0,0:3|0:0,0:0:0:0:
463,272,90679,2,0,P|417:283|369:272,1,93.3333333333333,10|0,0:0|0:0,0:0:0:0:
336,219,91107,2,0,P|290:209|243:219,1,93.3333333333333,2|2,0:3|0:3,0:0:0:0:
194,260,91536,2,0,L|193:310,2,46.6666666666667,10|2|2,0:0|0:0|0:0,0:0:0:0:
140,221,91965,38,0,B|130:177|130:177|141:118,1,93.3333333333333,2|0,0:3|0:0,0:0:0:0:
177,77,92393,2,0,L|284:80,1,93.3333333333333,10|0,0:0|0:0,0:0:0:0:
324,42,92822,2,0,P|369:32|417:46,1,93.3333333333333,2|2,0:3|0:3,0:0:0:0:
465,84,93250,2,0,L|515:80,2,46.6666666666667,10|2|2,0:0|0:0|0:3,0:0:0:0:
414,125,93679,6,0,L|360:122,2,46.6666666666667,2|2|2,0:0|0:0|0:0,0:0:0:0:
465,165,94107,2,0,L|515:161,2,46.6666666666667,10|0|2,0:0|0:0|0:3,0:0:0:0:
414,207,94536,2,0,L|360:204,2,46.6666666666667,2|2|2,0:3|0:0|0:3,0:0:0:0:
466,246,94965,2,0,P|478:289|468:337,1,93.3333333333333,10|2,0:0|0:0,0:0:0:0:
413,371,95393,37,2,0:3:0:0:
282,372,95679,1,0,0:0:0:0:
226,346,95822,2,0,P|213:303|229:251,1,93.3333333333333,10|0,0:0|0:0,0:0:0:0:
274,214,96250,2,0,P|283:166|266:115,1,93.3333333333333,2|2,0:3|0:3,0:0:0:0:
225,76,96679,2,0,L|224:27,2,46.6666666666667,10|2|2,0:0|0:0|0:0,0:0:0:0:
171,113,97107,6,0,B|125:122|125:122|76:113,1,93.3333333333333,2|0,0:3|0:0,0:0:0:0:
20,83,97536,2,0,P|31:128|22:179,1,93.3333333333333,10|0,0:0|0:0,0:0:0:0:
0,235,97965,2,0,P|44:225|92:234,1,93.3333333333333,2|2,0:3|0:3,0:0:0:0:
132,284,98393,2,0,L|132:341,2,46.6666666666667,10|2|2,0:0|0:0|0:0,0:0:0:0:
174,233,98822,38,0,P|218:224|268:234,1,93.3333333333333,2|0,0:3|0:0,0:0:0:0:
318,270,99250,2,0,P|364:278|416:265,1,93.3333333333333,10|0,0:0|0:0,0:0:0:0:
456,222,99679,2,0,B|445:173|445:173|457:118,1,93.3333333333333,2|2,0:3|0:3,0:0:0:0:
408,84,100107,2,0,L|395:38,2,46.6666666666667,10|2|2,0:0|0:0|0:0,0:0:0:0:
360,130,100536,6,0,L|346:181,2,46.6666666666667,8|8|8,0:3|0:3|0:3,0:0:0:0:
310,86,100965,2,0,L|297:40,2,46.6666666666667,8|8|8,0:3|0:3|0:3,0:0:0:0:
262,132,101394,2,0,L|248:183,2,46.6666666666667,2|8|2,0:3|0:3|0:3,0:0:0:0:
212,89,101822,2,0,B|181:78|181:78|159:84|159:84|112:66|67:97,1,140,8|0,0:3|0:0,0:0:0:0:
131,109,105107,37,2,0:3:0:0:
183,70,105250,2,0,P|232:59|280:74,1,93.3333333333333,10|0,0:0|0:0,0:0:0:0:
326,107,105679,6,0,P|374:117|420:103,1,93.3333333333333,2|0,0:3|0:0,0:0:0:0:
467,65,106107,2,0,L|465:169,1,93.3333333333333,10|0,0:0|0:0,0:0:0:0:
505,210,106536,2,0,L|510:304,1,93.3333333333333,2|2,0:3|0:3,0:0:0:0:
451,333,106965,2,0,L|452:381,2,46.6666666666667,10|2|2,0:0|0:0|0:0,0:0:0:0:
391,305,107393,38,0,L|396:211,1,93.3333333333333,2|0,0:3|0:0,0:0:0:0:
400,146,107822,1,10,0:0:0:0:
269,145,108107,1,0,0:0:0:0:
209,172,108250,2,0,P|166:183|117:174,1,93.3333333333333,2|2,0:3|0:3,0:0:0:0:
61,141,108679,1,10,0:0:0:0:
163,59,108965,1,8,0:3:0:0:
223,32,109108,6,0,P|269:22|315:32,1,93.3333333333333,2|0,0:3|0:0,0:0:0:0:
363,74,109536,2,0,B|353:121|353:121|364:164,1,93.3333333333333,10|0,0:0|0:0,0:0:0:0:
416,204,109965,2,0,B|427:247|427:247|418:297,1,93.3333333333333,2|2,0:3|0:3,0:0:0:0:
363,330,110393,2,0,L|363:377,2,46.6666666666667,10|2|2,0:0|0:0|0:0,0:0:0:0:
305,297,110822,38,0,B|294:254|294:254|303:204,1,93.3333333333333,2|0,0:3|0:0,0:0:0:0:
342,153,111250,2,0,P|297:165|251:155,1,93.3333333333333,10|0,0:0|0:0,0:0:0:0:
198,116,111679,1,2,0:3:0:0:
199,246,111965,1,2,0:3:0:0:
147,285,112107,2,0,B|103:298|103:298|50:286,1,93.3333333333333,10|2,0:0|0:0,0:0:0:0:
4,247,112536,6,0,P|-8:202|8:149,1,93.3333333333333,2|0,0:3|0:0,0:0:0:0:
57,120,112965,2,0,B|102:109|102:109|151:121,1,93.3333333333333,10|0,0:0|0:0,0:0:0:0:
205,150,113393,2,0,B|251:158|251:158|298:149,1,93.3333333333333,2|2,0:3|0:3,0:0:0:0:
336,201,113822,2,0,L|328:249,2,46.6666666666667,10|2|2,0:0|0:0|0:0,0:0:0:0:
373,148,114250,38,0,L|364:99,2,46.6666666666667,8|8|8,0:3|0:3|0:3,0:0:0:0:
412,201,114679,2,0,L|404:249,2,46.6666666666667,8|8|8,0:3|0:3|0:3,0:0:0:0:
449,148,115107,2,0,L|440:99,2,46.6666666666667,2|8|2,0:3|0:3|0:3,0:0:0:0:
486,202,115536,2,0,P|498:247|488:295,1,93.3333333333333,8|8,0:3|0:3,0:0:0:0:
452,325,115965,6,0,B|388:323|388:323|343:337|343:337|264:333,1,175.00000667572,4|2,0:3|0:3,0:0:0:0:
230,331,116822,1,4,0:1:0:0:
97,266,117250,1,2,0:3:0:0:
97,118,117679,37,2,0:3:0:0:
228,52,118107,2,0,P|270:46|306:56,1,70.0000026702882,2|2,0:0|0:3,0:0:0:0:
340,75,118536,1,4,0:1:0:0:
361,220,118965,2,0,L|358:302,1,70.0000026702882,2|0,0:0|0:0,0:0:0:0:
357,338,119393,5,2,0:3:0:0:
504,338,119822,2,0,L|507:256,1,70.0000026702882,2|2,0:0|0:3,0:0:0:0:
508,220,120250,1,4,0:1:0:0:
506,72,120679,2,0,B|471:67|471:67|430:74,1,70.0000026702882,2|0,0:3|0:0,0:0:0:0:
390,88,121107,37,2,0:3:0:0:
242,91,121537,2,0,B|207:96|207:96|172:91,1,70.0000026702882,2|2,0:0|0:3,0:0:0:0:
125,77,121965,2,0,L|126:31,2,35.0000013351441,4|2|8,0:1|0:0|0:3,0:0:0:0:
78,93,122393,2,0,P|73:129|89:173,1,70.0000026702882,0|0,0:0|0:0,0:0:0:0:
126,182,122822,5,2,0:3:0:0:
223,183,123107,1,0,0:0:0:0:
210,230,123250,2,0,P|205:265|214:302,1,70.0000026702882,0|2,0:0|0:3,0:0:0:0:
227,345,123679,1,4,0:1:0:0:
325,342,123965,1,0,0:0:0:0:
338,295,124108,2,0,P|343:260|334:223,1,70.0000026702882,2|0,0:3|0:0,0:0:0:0:
321,180,124537,37,2,0:3:0:0:
318,82,124822,1,0,0:0:0:0:
271,67,124965,2,0,B|236:60|236:60|202:68,1,70.0000026702882,0|2,0:0|0:3,0:0:0:0:
155,81,125393,1,4,0:1:0:0:
97,160,125679,2,0,B|97:197|97:197|102:224|102:224|97:271,1,105.000004005432,2|0,0:0|0:0,0:0:0:0:
97,313,126250,6,0,L|17:309,1,70.0000026702882,2|0,0:3|0:0,0:0:0:0:
167,355,126965,1,2,0:3:0:0:
215,352,127107,2,0,L|289:349,1,70.0000026702882,4|0,0:1|0:0,0:0:0:0:
334,346,127536,1,2,0:3:0:0:
421,300,127822,1,0,0:0:0:0:
443,256,127965,38,0,B|448:220|448:220|443:184,1,70.0000026702882,2|0,0:3|0:0,0:0:0:0:
422,142,128393,1,2,0:0:0:0:
323,143,128679,1,2,0:3:0:0:
282,171,128822,2,0,L|282:210,2,35.0000013351441,4|2|2,0:1|0:0|0:0,0:0:0:0:
240,144,129250,2,0,P|206:138|167:145,1,70.0000026702882,8|8,0:3|0:3,0:0:0:0:
120,185,129679,22,0,P|128:140|114:88,1,93.3333333333333,4|2,0:0|0:0,0:0:0:0:
73,45,130107,2,0,P|124:54|171:38,1,93.3333333333333,10|2,0:0|0:0,0:0:0:0:
226,23,130536,2,0,P|271:14|322:23,1,93.3333333333333,2|2,0:3|0:3,0:0:0:0:
370,60,130965,2,0,L|371:109,2,46.6666666666667,10|2|2,0:0|0:0|0:0,0:0:0:0:
425,25,131393,6,0,P|472:17|496:60,1,93.3333333333333,2|2,0:3|0:0,0:0:0:0:
475,112,131822,2,0,P|463:158|481:205,1,93.3333333333333,10|2,0:0|0:0,0:0:0:0:
504,259,132250,2,0,L|408:257,1,93.3333333333333,2|2,0:3|0:3,0:0:0:0:
360,213,132679,2,0,L|360:163,2,46.6666666666667,8|0|2,0:0|0:0|0:0,0:0:0:0:
313,258,133107,38,0,L|219:259,1,93.3333333333333,2|2,0:3|0:0,0:0:0:0:
174,212,133536,2,0,B|183:166|183:166|173:119,1,93.3333333333333,10|2,0:0|0:0,0:0:0:0:
224,79,133965,2,0,L|318:79,1,93.3333333333333,2|2,0:3|0:3,0:0:0:0:
357,132,134393,2,0,L|348:184,2,46.6666666666667,10|2|2,0:0|0:0|0:0,0:0:0:0:
398,81,134822,6,0,L|389:33,2,46.6666666666667,2|0|2,0:3|0:0|0:0,0:0:0:0:
435,134,135250,2,0,L|426:186,2,46.6666666666667,10|0|2,0:0|0:0|0:3,0:0:0:0:
476,83,135679,2,0,L|467:35,2,46.6666666666667,2|2|2,0:3|0:0|0:3,0:0:0:0:
512,136,136107,2,0,L|496:234,1,93.3333333333333,10|8,0:0|0:3,0:0:0:0:
459,282,136536,38,0,B|415:274|415:274|363:284,1,93.3333333333333,2|2,0:3|0:0,0:0:0:0:
306,307,136965,2,0,B|262:319|262:319|210:314,1,93.3333333333333,8|2,0:0|0:0,0:0:0:0:
166,269,137393,2,0,P|154:225|172:170,1,93.3333333333333,2|2,0:3|0:3,0:0:0:0:
208,129,137822,2,0,L|254:129,2,46.6666666666667,10|2|2,0:0|0:0|0:0,0:0:0:0:
162,82,138250,6,0,B|118:75|118:75|60:85,1,93.3333333333333,2|2,0:3|0:0,0:0:0:0:
27,133,138679,1,10,0:0:0:0:
30,263,138965,1,2,0:0:0:0:
73,311,139107,2,0,B|117:318|117:318|175:308,1,93.3333333333333,2|2,0:3|0:3,0:0:0:0:
209,261,139536,1,8,0:0:0:0:
325,201,139822,1,2,0:0:0:0:
368,151,139965,38,0,B|414:142|414:142|469:153,1,93.3333333333333,2|2,0:3|0:0,0:0:0:0:
502,200,140393,2,0,P|493:244|509:293,1,93.3333333333333,8|2,0:0|0:0,0:0:0:0:
465,340,140822,2,0,B|421:349|421:349|373:344,1,93.3333333333333,2|2,0:3|0:3,0:0:0:0:
328,296,141250,2,0,L|336:245,2,46.6666666666667,10|2|2,0:0|0:0|0:3,0:0:0:0:
272,331,141679,6,0,L|279:377,2,46.6666666666667,2|2|2,0:0|0:0|0:0,0:0:0:0:
213,301,142107,2,0,L|222:250,2,46.6666666666667,10|0|8,0:0|0:0|0:0,0:0:0:0:
157,336,142536,2,0,L|165:381,2,46.6666666666667,2|8|2,0:3|0:0|0:3,0:0:0:0:
99,304,142965,2,0,P|86:261|97:213,1,93.3333333333333,8|8,0:3|0:3,0:0:0:0:
145,171,143393,38,0,P|102:186|53:175,1,93.3333333333333,4|2,0:0|0:0,0:0:0:0:
54,110,143822,2,0,P|97:95|146:106,1,93.3333333333333,10|2,0:0|0:0,0:0:0:0:
199,136,144250,2,0,P|246:144|298:126,1,93.3333333333333,2|2,0:3|0:3,0:0:0:0:
338,88,144679,2,0,L|339:38,2,46.6666666666667,10|2|2,0:0|0:0|0:0,0:0:0:0:
388,129,145107,6,0,B|396:175|396:175|389:233,1,93.3333333333333,2|2,0:3|0:0,0:0:0:0:
364,281,145536,1,10,0:0:0:0:
502,278,145822,1,2,0:0:0:0:
473,219,145965,2,0,B|465:173|465:173|472:115,1,93.3333333333333,2|2,0:3|0:3,0:0:0:0:
427,77,146393,2,0,L|428:29,2,46.6666666666667,8|0|2,0:0|0:0|0:0,0:0:0:0:
388,129,146822,38,0,P|344:141|297:132,1,93.3333333333333,2|2,0:3|0:0,0:0:0:0:
245,92,147250,2,0,P|200:83|153:98,1,93.3333333333333,10|0,0:0|0:0,0:0:0:0:
120,152,147679,2,0,B|116:220|116:220|123:251,1,93.3333333333333,2|2,0:3|0:3,0:0:0:0:
167,291,148107,2,0,L|159:340,2,46.6666666666667,10|2|2,0:0|0:0|0:0,0:0:0:0:
213,244,148536,6,0,L|207:197,2,46.6666666666667,8|0|8,0:3|0:0|0:3,0:0:0:0:
259,290,148965,2,0,L|251:339,2,46.6666666666667,10|0|2,0:0|0:0|0:3,0:0:0:0:
305,243,149394,2,0,L|299:196,2,46.6666666666667,2|2|2,0:3|0:0|0:3,0:0:0:0:
350,290,149822,2,0,P|396:300|441:290,1,93.3333333333333,10|8,0:0|0:3,0:0:0:0:
474,234,150250,38,0,B|481:184|481:184|472:138,1,93.3333333333333,2|2,0:3|0:0,0:0:0:0:
426,94,150679,2,0,P|378:107|331:93,1,93.3333333333333,10|2,0:0|0:0,0:0:0:0:
288,52,151107,2,0,P|244:43|190:55,1,93.3333333333333,2|2,0:3|0:3,0:0:0:0:
146,99,151536,2,0,L|99:100,2,46.6666666666667,10|2|2,0:0|0:0|0:0,0:0:0:0:
197,142,151965,6,0,P|241:151|295:139,1,93.3333333333333,2|2,0:3|0:0,0:0:0:0:
336,96,152393,1,10,0:0:0:0:
337,226,152679,1,2,0:0:0:0:
289,271,152822,2,0,P|246:281|195:267,1,93.3333333333333,2|2,0:3|0:3,0:0:0:0:
147,229,153250,1,10,0:0:0:0:
146,99,153536,1,2,0:0:0:0:
194,54,153679,38,0,P|237:44|288:58,1,93.3333333333333,2|2,0:3|0:0,0:0:0:0:
336,96,154107,2,0,P|378:105|428:95,1,93.3333333333333,10|2,0:0|0:0,0:0:0:0:
483,61,154536,2,0,L|480:162,1,93.3333333333333,2|2,0:3|0:3,0:0:0:0:
433,201,154965,2,0,L|383:201,2,46.6666666666667,10|2|2,0:0|0:0|0:3,0:0:0:0:
482,244,155393,5,2,0:0:0:0:
386,332,155679,2,0,L|348:370,1,46.6666666666667,0|0,0:0|0:0,0:0:0:0:
158,364,156107,2,0,L|126:332,1,46.6666666666667,0|0,0:0|0:0,0:0:0:0:
342,257,156536,2,0,L|363:215,1,46.6666666666667,0|0,0:0|0:0,0:0:0:0:
170,257,156965,1,0,0:0:0:0:
144,215,157107,6,0,P|118:153|151:48,1,175.00000667572,4|0,0:3|0:3,0:0:0:0:
178,15,157965,1,4,0:1:0:0:
256,139,158393,1,2,0:3:0:0:
334,14,158822,6,0,B|373:28|405:16|405:16|378:73|405:116,1,175.00000667572,2|2,0:3|0:3,0:0:0:0:
404,161,159679,1,4,0:1:0:0:
324,281,160107,2,0,P|291:289|249:277,1,70.0000026702882,2|0,0:0|0:0,0:0:0:0:
216,252,160536,38,0,B|218:198|218:198|205:142|205:142|211:77,1,175.00000667572,2|2,0:3|0:3,0:0:0:0:
209,29,161393,1,4,0:1:0:0:
118,145,161822,1,2,0:3:0:0:
216,252,162250,6,0,P|288:278|384:248,1,175.00000667572,2|2,0:3|0:3,0:0:0:0:
417,219,163107,2,0,B|422:180|422:180|416:147,1,70.0000026702882,4|2,0:1|0:0,0:0:0:0:
383,112,163536,2,0,L|314:115,1,70.0000026702882,2|2,0:0|0:0,0:0:0:0:
282,76,163965,38,0,P|288:124|203:90,1,175.00000667572,2|2,0:3|0:3,0:0:0:0:
201,55,164822,1,4,0:1:0:0:
344,26,165250,1,2,0:3:0:0:
376,169,165679,5,2,0:3:0:0:
232,201,166107,2,0,P|195:210|162:200,1,70.0000026702882,0|2,0:0|0:3,0:0:0:0:
127,169,166536,2,0,L|129:281,1,105.000004005432,4|0,0:1|0:0,0:0:0:0:
4,194,167393,37,2,0:3:0:0:
94,77,167822,2,0,P|127:71|166:79,1,70.0000026702882,0|2,0:0|0:3,0:0:0:0:
205,102,168250,2,0,P|239:108|276:102,1,70.0000026702882,4|0,0:1|0:0,0:0:0:0:
317,80,168679,1,2,0:3:0:0:
463,80,169107,6,0,L|463:38,2,35.0000013351441,8|2|8,0:3|0:0|0:3,0:0:0:0:
442,125,169536,2,0,L|443:205,1,70.0000026702882,2|2,0:0|0:3,0:0:0:0:
442,244,169965,1,8,0:0:0:0:
371,311,170250,2,0,L|372:349,1,35.0000013351441,2|8,0:3|0:0,0:0:0:0:
297,246,170679,1,2,0:0:0:0:
261,191,170822,38,0,P|249:152|263:98,1,93.3333333333333,6|0,0:0|0:0,0:0:0:0:
298,48,171250,2,0,P|254:58|203:48,1,93.3333333333333,10|0,0:0|0:0,0:0:0:0:
149,18,171679,2,0,L|152:117,1,93.3333333333333,2|2,0:3|0:3,0:0:0:0:
101,152,172107,2,0,L|48:152,2,46.6666666666667,10|2|2,0:0|0:0|0:0,0:0:0:0:
151,194,172536,6,0,L|148:287,1,93.3333333333333,2|0,0:3|0:0,0:0:0:0:
181,344,172965,2,0,P|225:353|275:342,1,93.3333333333333,10|0,0:0|0:0,0:0:0:0:
316,296,173393,1,2,0:3:0:0:
316,165,173679,1,2,0:3:0:0:
366,123,173822,2,0,P|412:114|465:130,1,93.3333333333333,10|2,0:0|0:0,0:0:0:0:
506,167,174250,38,0,B|498:212|498:212|507:263,1,93.3333333333333,2|0,0:3|0:0,0:0:0:0:
455,300,174679,2,0,P|412:310|357:296,1,93.3333333333333,10|0,0:0|0:0,0:0:0:0:
316,256,175107,2,0,B|324:211|324:211|315:164,1,93.3333333333333,2|2,0:3|0:3,0:0:0:0:
258,131,175536,2,0,L|263:84,2,46.6666666666667,10|2|2,0:0|0:0|0:3,0:0:0:0:
201,164,175965,6,0,L|203:213,2,46.6666666666667,2|2|2,0:0|0:0|0:0,0:0:0:0:
142,133,176393,2,0,L|147:86,2,46.6666666666667,10|0|2,0:0|0:0|0:3,0:0:0:0:
84,165,176822,2,0,L|86:214,2,46.6666666666667,2|2|2,0:3|0:0|0:3,0:0:0:0:
25,136,177250,2,0,P|12:93|28:40,1,93.3333333333333,10|8,0:0|0:3,0:0:0:0:
80,14,177679,38,0,L|174:16,1,93.3333333333333,2|0,0:3|0:0,0:0:0:0:
230,47,178107,2,0,L|326:44,1,93.3333333333333,10|0,0:0|0:0,0:0:0:0:
381,13,178536,2,0,P|371:57|385:105,1,93.3333333333333,2|2,0:3|0:3,0:0:0:0:
430,149,178965,2,0,L|478:149,2,46.6666666666667,8|2|2,0:0|0:0|0:0,0:0:0:0:
385,196,179393,6,0,B|339:207|339:207|286:199,1,93.3333333333333,2|0,0:3|0:0,0:0:0:0:
231,178,179822,1,10,0:0:0:0:
100,179,180107,1,0,0:0:0:0:
39,203,180250,2,0,P|29:246|46:296,1,93.3333333333333,2|2,0:3|0:3,0:0:0:0:
102,321,180679,1,10,0:0:0:0:
233,320,180965,1,2,0:0:0:0:
296,305,181107,38,0,B|341:298|341:298|395:303,1,93.3333333333333,2|0,0:3|0:0,0:0:0:0:
451,322,181536,1,10,0:0:0:0:
448,191,181822,1,0,0:0:0:0:
387,213,181964,2,0,B|342:220|342:220|288:215,1,93.3333333333333,2|2,0:3|0:3,0:0:0:0:
234,188,182393,2,0,L|241:129,2,46.6666666666667,10|2|2,0:0|0:0|0:0,0:0:0:0:
178,223,182822,6,0,L|187:269,2,46.6666666666667,2|0|0,0:3|0:0|0:0,0:0:0:0:
120,191,183250,2,0,L|126:135,2,46.6666666666667,10|0|8,0:0|0:0|0:0,0:0:0:0:
65,227,183679,2,0,L|73:273,2,46.6666666666667,2|2|2,0:3|0:3|0:3,0:0:0:0:
8,193,184107,2,0,L|8:94,1,93.3333333333333,8|8,0:0|0:3,0:0:0:0:
8,33,184536,37,4,0:3:0:0:
414,311,187393,5,2,0:3:0:0:
451,257,187536,2,0,P|458:210|445:163,1,93.3333333333333,8|8,0:0|0:3,0:0:0:0:
412,109,187965,6,0,L|318:115,1,93.3333333333333,4|2,0:0|0:0,0:0:0:0:
262,81,188393,2,0,L|165:77,1,93.3333333333333,10|2,0:0|0:0,0:0:0:0:
125,126,188822,2,0,B|116:171|116:171|131:221,1,93.3333333333333,2|2,0:3|0:3,0:0:0:0:
181,256,189250,2,0,L|181:307,2,46.6666666666667,10|2|2,0:0|0:0|0:0,0:0:0:0:
234,218,189679,6,0,P|279:210|327:217,1,93.3333333333333,2|2,0:3|0:0,0:0:0:0:
368,266,190107,2,0,L|363:314,2,46.6666666666667,10|2|2,0:0|0:0|0:3,0:0:0:0:
409,214,190536,2,0,L|406:165,2,46.6666666666667,2|2|2,0:3|0:0|0:3,0:0:0:0:
448,266,190965,2,0,L|443:314,2,46.6666666666667,8|2|2,0:0|0:0|0:0,0:0:0:0:
487,214,191393,38,0,P|496:168|484:120,1,93.3333333333333,2|2,0:3|0:0,0:0:0:0:
434,81,191822,2,0,B|389:73|389:73|339:83,1,93.3333333333333,10|2,0:0|0:0,0:0:0:0:
279,99,192250,2,0,B|232:108|232:108|186:101,1,93.3333333333333,2|2,0:3|0:3,0:0:0:0:
138,56,192679,2,0,L|139:10,2,46.6666666666667,10|2|2,0:0|0:0|0:0,0:0:0:0:
97,107,193107,6,0,P|85:151|101:197,1,93.3333333333333,2|2,0:3|0:0,0:0:0:0:
133,251,193536,1,8,0:0:0:0:
263,253,193822,1,2,0:0:0:0:
320,221,193965,2,0,P|366:210|416:221,1,93.3333333333333,2|2,0:3|0:3,0:0:0:0:
465,254,194393,1,10,0:0:0:0:
367,341,194679,1,2,0:0:0:0:
304,361,194822,38,0,P|260:374|211:365,1,93.3333333333333,2|2,0:3|0:0,0:0:0:0:
152,344,195250,2,0,B|106:339|106:339|50:350,1,93.3333333333333,10|2,0:0|0:0,0:0:0:0:
23,292,195679,2,0,P|12:249|23:199,1,93.3333333333333,2|2,0:3|0:3,0:0:0:0:
65,152,196107,2,0,L|113:154,2,46.6666666666667,10|2|2,0:0|0:0|0:0,0:0:0:0:
24,99,196536,5,0,0:0:0:0:
135,30,196822,2,0,L|180:39,1,46.6666666666667,0|0,0:0|0:0,0:0:0:0:
377,30,197250,2,0,L|332:39,1,46.6666666666667,0|0,0:0|0:0,0:0:0:0:
172,122,197679,2,0,L|176:180,1,46.6666666666667,0|0,0:0|0:0,0:0:0:0:
340,122,198107,6,0,L|336:180,1,46.6666666666667,0|0,0:0|0:0,0:0:0:0:
348,250,198536,2,0,L|292:264,1,46.6666666666667,2|4,0:0|0:1,0:0:0:0:
229,298,198965,2,0,L|198:248,1,46.6666666666667,2|2,0:0|0:0,0:0:0:0:
146,199,199393,2,0,L|184:154,1,46.6666666666667,2|4,0:0|0:1,0:0:0:0:
215,90,199822,6,0,L|269:112,1,46.6666666666667,2|2,0:0|0:0,0:0:0:0:
336,168,200250,2,0,L|340:122,1,46.6666666666667,2|4,0:0|0:1,0:0:0:0:
303,261,200679,2,0,L|348:250,1,46.6666666666667,2|2,0:0|0:0,0:0:0:0:
204,258,201108,2,0,L|229:298,1,46.6666666666667,2|4,0:0|0:1,0:0:0:0:
176,163,201536,6,0,L|146:199,1,46.6666666666667,2|2,0:0|0:0,0:0:0:0:
258,107,201965,2,0,L|215:90,1,46.6666666666667,2|4,0:0|0:1,0:0:0:0:
336,168,202393,2,0,L|385:163,1,46.6666666666667,2|2,0:0|0:0,0:0:0:0:
303,261,202822,2,0,L|323:305,1,46.6666666666667,2|4,0:0|0:1,0:0:0:0:
204,258,203250,6,0,L|168:291,1,46.6666666666667,2|2,0:0|0:0,0:0:0:0:
176,163,203679,2,0,L|134:139,1,46.6666666666667,2|4,0:0|0:1,0:0:0:0:
258,107,204107,2,0,L|268:60,1,46.6666666666667,2|2,0:0|0:0,0:0:0:0:
399,123,204536,6,0,P|410:166|396:224,2,93.3333333333333,2|2|2,0:0|0:0|0:0,0:0:0:0:
267,61,205393,2,0,L|258:107,1,46.6666666666667,2|4,0:0|0:1,0:0:0:0:
135,139,205822,2,0,L|176:163,1,46.6666666666667,2|2,0:0|0:0,0:0:0:0:
169,289,206250,2,0,L|204:258,1,46.6666666666667,2|4,0:0|0:1,0:0:0:0:
322,303,206679,6,0,L|303:261,1,46.6666666666667,2|2,0:0|0:0,0:0:0:0:
382,163,207107,2,0,L|336:168,1,46.6666666666667,2|4,0:0|0:1,0:0:0:0:
258,107,207536,2,0,P|238:94|224:75,1,46.6666666666667,2|2,0:0|0:0,0:0:0:0:
175,163,207965,2,0,P|157:178|134:186,1,46.6666666666667,2|4,0:0|0:1,0:0:0:0:
204,259,208393,6,0,P|212:281|213:305,1,46.6666666666667,2|2,0:0|0:0,0:0:0:0:
304,261,208822,2,0,P|328:260|350:267,1,46.6666666666667,2|4,0:0|0:1,0:0:0:0:
337,167,209250,2,0,P|343:144|357:125,1,46.6666666666667,2|2,0:0|0:0,0:0:0:0:
482,87,209679,2,0,P|498:103|508:125,1,46.6666666666667,2|4,0:0|0:1,0:0:0:0:
477,251,210107,6,0,P|453:257|430:254,1,46.6666666666667,2|2,0:0|0:0,0:0:0:0:
256,192,210393,12,0,211893,0:0:0:0:
