osu file format v14

[General]
AudioFilename: Mr.Chu.mp3
AudioLeadIn: 1000
PreviewTime: 154041
Countdown: 0
SampleSet: Soft
StackLeniency: 0.7
Mode: 0
LetterboxInBreaks: 1
EpilepsyWarning: 1
WidescreenStoryboard: 1

[Editor]
DistanceSpacing: 1.5
BeatDivisor: 4
GridSize: 4
TimelineZoom: 1

[Metadata]
Title:Mr. Chu
TitleUnicode:Mr. Chu
Artist:Apink
ArtistUnicode:에이핑크
Creator:P A N
Version:Hard
Source:
Tags:Pink Blossom 박초롱 윤보미 정은지 손나은 김남주 오하영 에이핑크 kpop A-cube Entertainment park cho rong yoon bomi jeong eun ji son na eun kim nam joo oh ha young p_a_n
BeatmapID:791305
BeatmapSetID:359369

[Difficulty]
HPDrainRate:5
CircleSize:4
OverallDifficulty:6
ApproachRate:7
SliderMultiplier:1.5
SliderTickRate:1

[Events]
//Background and Video events
0,0,"fsf.jpg",0,0
//Break Periods
2,134866,141766
//Storyboard Layer 0 (Background)
//Storyboard Layer 1 (Fail)
//Storyboard Layer 2 (Pass)
//Storyboard Layer 3 (Foreground)
//Storyboard Sound Samples

[TimingPoints]
666,500,4,2,1,40,1,0
666,-133.333333333333,4,2,1,40,0,0
16666,-133.333333333333,4,2,1,70,0,0
50666,-100,4,2,1,80,0,1
66666,-100,4,2,1,80,0,0
67166,-100,4,2,1,80,0,1
82666,-100,4,2,1,40,0,0
84666,-133.333333333333,4,2,1,70,0,0
102666,-100,4,2,1,80,0,1
118666,-100,4,2,1,80,0,0
119166,-100,4,2,1,80,0,1
134666,-100,4,2,1,80,0,0
142666,-133.333333333333,4,2,1,70,0,0
152666,-133.333333333333,4,2,1,40,0,0
154666,-200,4,2,1,50,0,0
155166,-100,4,2,1,80,0,1
170666,-100,4,2,1,80,0,0
171166,-100,4,2,1,80,0,1
186666,-133.333333333333,4,2,1,40,0,0
198666,-200,4,2,1,40,0,0
202916,-133.333333333333,4,2,1,5,0,0
204166,-133.333333333333,4,2,1,20,0,0
204666,-133.333333333333,4,2,1,5,0,0

[Colours]
Combo1 : 255,255,128
Combo2 : 255,0,128
Combo3 : 0,255,204

[HitObjects]
120,291,666,6,0,L|61:292,2,56.2500021457673,4|2|2,0:0|0:3|0:3,0:0:0:0:
202,270,1416,2,0,L|262:272,2,56.2500021457673,2|0|2,0:3|0:0|0:3,0:0:0:0:
141,210,2166,2,0,P|137:184|141:150,1,56.2500021457673,2|0,0:3|0:0,0:0:0:0:
203,98,2666,6,0,L|262:100,2,56.2500021457673,2|0|0,0:3|0:0|0:0,0:0:0:0:
121,77,3416,2,0,L|63:79,2,56.2500021457673,2|0|2,0:3|0:0|0:3,0:0:0:0:
180,17,4166,2,0,L|241:20,1,56.2500021457673,2|0,0:3|0:0,0:0:0:0:
315,49,4666,6,0,L|378:47,2,56.2500021457673,2|0|2,0:3|0:0|0:3,0:0:0:0:
248,101,5416,2,0,P|244:132|251:167,1,56.2500021457673,2|0,0:3|0:0,0:0:0:0:
292,228,5916,1,2,0:3:0:0:
251,299,6166,1,2,0:3:0:0:
209,227,6416,1,2,0:3:0:0:
292,228,6666,5,6,0:0:0:0:
292,228,7666,2,0,P|320:230|355:224,1,56.2500021457673,6|2,0:0|0:0,0:0:0:0:
430,243,8166,2,0,P|414:266|401:299,1,56.2500021457673,6|0,0:0|0:0,0:0:0:0:
349,356,8666,6,0,P|336:330|314:303,1,56.2500021457673,6|0,0:0|0:0,0:0:0:0:
236,294,9166,1,4,0:3:0:0:
153,312,9416,2,0,L|109:312,1,28.1250010728836,4|4,0:3|0:3,0:0:0:0:
134,227,9791,2,0,L|90:227,1,28.1250010728836,4|4,0:3|0:3,0:0:0:0:
21,228,10166,1,4,0:3:0:0:
21,59,10666,6,0,P|52:54|83:61,1,56.2500021457673,4|0,0:3|0:0,0:0:0:0:
150,97,11166,1,4,0:3:0:0:
223,55,11416,2,0,L|258:55,1,28.1250010728836,4|4,0:3|0:3,0:0:0:0:
254,140,11791,2,0,L|291:140,1,28.1250010728836,4|4,0:3|0:3,0:0:0:0:
366,139,12166,1,4,0:3:0:0:
369,307,12666,6,0,P|397:310|428:304,1,56.2500021457673,4|0,0:3|0:0,0:0:0:0:
482,243,13166,1,4,0:3:0:0:
451,164,13416,2,0,L|451:132,1,28.1250010728836,4|4,0:3|0:3,0:0:0:0:
366,139,13791,2,0,L|366:107,1,28.1250010728836,4|4,0:3|0:3,0:0:0:0:
366,26,14166,1,4,0:3:0:0:
219,109,14666,6,0,P|190:113|154:110,1,56.2500021457673,4|0,0:3|0:0,0:0:0:0:
87,74,15166,1,4,0:3:0:0:
89,158,15416,2,0,L|89:199,1,28.1250010728836,4|4,0:3|0:3,0:0:0:0:
6,205,15791,2,0,L|6:246,1,28.1250010728836,4|4,0:3|0:3,0:0:0:0:
6,317,16166,1,4,0:3:0:0:
82,352,16416,1,0,0:0:0:0:
159,317,16666,6,0,P|187:313|226:319,1,56.2500021457673,6|0,0:0|0:0,0:0:0:0:
292,350,17166,2,0,P|318:354|352:346,1,56.2500021457673,8|0,0:0|0:0,0:0:0:0:
381,323,17541,2,0,B|385:282|385:282|380:239,1,84.3750032186509,2|2,0:0|0:0,0:0:0:0:
328,172,18166,2,0,L|264:173,1,56.2500021457673,8|0,0:0|0:0,0:0:0:0:
199,216,18666,6,0,L|136:214,1,56.2500021457673,2|0,0:0|0:0,0:0:0:0:
80,271,19166,1,8,0:0:0:0:
15,216,19416,1,0,0:0:0:0:
4,190,19541,2,0,P|-5:157|2:107,1,84.3750032186509,2|2,0:0|0:0,0:0:0:0:
76,69,20166,1,8,0:0:0:0:
244,66,20666,6,0,L|313:65,1,56.2500021457673,2|0,0:0|0:0,0:0:0:0:
378,33,21166,2,0,L|415:33,3,28.1250010728836,8|0|0|2,0:0|0:0|0:0|0:0,0:0:0:0:
430,49,21666,2,0,P|435:78|430:110,1,56.2500021457673,0|2,0:0|0:0,0:0:0:0:
368,160,22166,1,8,0:0:0:0:
431,215,22416,1,0,0:0:0:0:
368,160,22666,6,0,P|339:155|307:160,1,56.2500021457673,2|0,0:0|0:0,0:0:0:0:
252,217,23166,1,8,0:0:0:0:
189,160,23416,1,0,0:0:0:0:
180,133,23541,2,0,B|173:92|173:92|180:43,1,84.3750032186509,2|2,0:0|0:0,0:0:0:0:
97,70,24166,2,0,P|63:74|36:70,1,56.2500021457673,8|0,0:0|0:0,0:0:0:0:
40,155,24666,6,0,P|53:206|37:269,1,112.500004291535,2|8,0:0|0:0,0:0:0:0:
100,323,25416,1,0,0:0:0:0:
126,334,25541,2,0,P|160:341|213:332,1,84.3750032186509,2|2,0:0|0:0,0:0:0:0:
274,280,26166,2,0,P|302:277|333:281,1,56.2500021457673,8|0,0:0|0:0,0:0:0:0:
394,335,26666,6,0,P|421:338|449:335,1,56.2500021457673,2|0,0:0|0:0,0:0:0:0:
512,279,27166,1,8,0:0:0:0:
453,218,27416,1,0,0:0:0:0:
444,191,27541,2,0,P|436:160|446:100,1,84.3750032186509,2|2,0:0|0:0,0:0:0:0:
466,27,28166,2,0,P|439:23|404:29,1,56.2500021457673,8|0,0:0|0:0,0:0:0:0:
342,76,28666,6,0,P|302:85|254:74,1,84.3750032186509,2|0,0:0|0:0,0:0:0:0:
236,61,29166,2,0,P|194:55|151:62,1,84.3750032186509,8|2,0:0|0:0,0:0:0:0:
128,75,29666,2,0,L|133:140,1,56.2500021457673,0|2,0:0|0:0,0:0:0:0:
165,208,30166,2,0,L|161:272,1,56.2500021457673,8|0,0:0|0:0,0:0:0:0:
112,333,30666,6,0,P|163:349|226:323,1,112.500004291535,2|8,0:0|0:0,0:0:0:0:
289,287,31416,1,0,0:0:0:0:
360,331,31666,2,0,L|360:369,2,28.1250010728836,0|2|2,0:0|0:0|0:0,0:0:0:0:
360,246,32166,1,8,0:0:0:0:
231,136,32666,6,0,P|203:132|168:140,1,56.2500021457673,6|0,0:0|0:0,0:0:0:0:
116,197,33166,1,8,0:0:0:0:
55,138,33416,1,0,0:0:0:0:
46,112,33541,2,0,P|37:74|46:28,1,84.3750032186509,2|2,0:0|0:0,0:0:0:0:
129,27,34166,2,0,L|195:27,1,56.2500021457673,8|0,0:0|0:0,0:0:0:0:
263,60,34666,6,0,P|292:62|325:57,1,56.2500021457673,2|0,0:0|0:0,0:0:0:0:
396,27,35166,1,8,0:0:0:0:
392,111,35416,1,0,0:0:0:0:
391,140,35541,2,0,L|390:227,1,84.3750032186509,2|2,0:0|0:0,0:0:0:0:
390,309,36166,1,8,0:0:0:0:
221,309,36666,6,0,P|217:284|223:245,1,56.2500021457673,2|0,0:0|0:0,0:0:0:0:
165,189,37166,2,0,L|136:189,3,28.1250010728836,8|0|0|2,0:0|0:0|0:0|0:0,0:0:0:0:
116,208,37666,2,0,L|118:273,1,56.2500021457673,0|2,0:0|0:0,0:0:0:0:
47,154,38166,2,0,L|52:85,1,56.2500021457673,8|0,0:0|0:0,0:0:0:0:
108,35,38666,6,0,P|139:32|168:35,1,56.2500021457673,2|0,0:0|0:0,0:0:0:0:
237,76,39166,1,8,0:0:0:0:
309,32,39416,1,0,0:0:0:0:
319,59,39541,2,0,P|328:101|320:148,1,84.3750032186509,2|2,0:0|0:0,0:0:0:0:
253,191,40166,2,0,L|196:187,1,56.2500021457673,8|0,0:0|0:0,0:0:0:0:
333,221,40666,6,0,B|387:230|387:230|447:221,1,112.500004291535,2|8,0:0|0:0,0:0:0:0:
494,153,41416,1,0,0:0:0:0:
506,128,41541,2,0,P|512:86|501:42,1,84.3750032186509,2|2,0:0|0:0,0:0:0:0:
430,90,42166,2,0,P|401:95|369:89,1,56.2500021457673,8|0,0:0|0:0,0:0:0:0:
306,40,42666,6,0,P|275:37|243:43,1,56.2500021457673,2|0,0:0|0:0,0:0:0:0:
186,96,43166,1,8,0:0:0:0:
249,151,43416,1,0,0:0:0:0:
264,175,43541,2,0,P|273:217|266:264,1,84.3750032186509,2|2,0:0|0:0,0:0:0:0:
207,316,44166,2,0,L|146:313,1,56.2500021457673,8|0,0:0|0:0,0:0:0:0:
66,308,44666,5,2,0:0:0:0:
63,139,45166,2,0,P|54:100|62:52,1,84.3750032186509,8|2,0:0|0:0,0:0:0:0:
81,36,45666,2,0,L|142:40,1,56.2500021457673,0|2,0:0|0:0,0:0:0:0:
220,56,46166,2,0,L|282:53,1,56.2500021457673,8|0,0:0|0:0,0:0:0:0:
360,50,46666,5,2,0:0:0:0:
404,121,46916,1,2,0:0:0:0:
362,194,47166,1,8,0:0:0:0:
337,208,47291,2,0,P|298:218|251:209,1,84.3750032186509,2|2,0:0|0:0,0:0:0:0:
133,92,48166,1,8,0:0:0:0:
102,258,48666,6,0,L|102:297,2,28.1250010728836,0|0|0,0:0|0:0|0:0,0:0:0:0:
172,211,49166,2,0,L|172:172,2,28.1250010728836,0|0|0,0:0|0:0|0:0,0:0:0:0:
241,260,49666,2,0,L|241:299,2,28.1250010728836,8|0|8,0:3|0:0|0:3,0:0:0:0:
311,213,50166,2,0,L|311:174,2,28.1250010728836,8|8|0,0:3|0:3|0:0,0:0:0:0:
380,263,50666,6,0,P|418:283|519:260,1,150,6|8,0:0|0:3,0:0:0:0:
446,205,51416,2,0,P|440:173|446:130,1,75,0|2,0:0|0:0,0:0:0:0:
472,105,51791,2,0,B|437:106|437:106|400:98|400:98|358:101,1,112.5,0|8,0:0|0:3,0:0:0:0:
287,48,52416,1,0,0:0:0:0:
215,102,52666,6,0,B|205:139|205:139|212:160|212:160|196:202|217:248,1,150,2|8,0:0|0:3,0:0:0:0:
292,295,53416,2,0,L|372:292,1,75,0|2,0:0|0:0,0:0:0:0:
396,315,53791,2,0,P|382:265|401:203,1,112.5,0|8,0:0|0:3,0:0:0:0:
487,207,54416,1,0,0:0:0:0:
487,207,54541,1,2,0:0:0:0:
487,207,54666,6,0,P|505:269|483:357,1,150,2|8,0:0|0:3,0:0:0:0:
396,315,55416,1,0,0:0:0:0:
314,353,55666,2,0,P|276:358|230:351,1,75,2|0,0:0|0:0,0:0:0:0:
174,291,56166,2,0,L|176:213,1,75,8|0,0:3|0:0,0:0:0:0:
178,125,56666,5,2,0:0:0:0:
276,275,57166,1,8,0:3:0:0:
387,133,57666,1,2,0:0:0:0:
501,271,58166,2,0,P|454:288|389:269,1,112.5,8|2,0:3|0:0,0:0:0:0:
368,248,58666,6,0,P|333:242|283:252,1,75,2|0,0:0|0:0,0:0:0:0:
219,297,59166,2,0,P|181:304|138:293,1,75,8|0,0:3|0:0,0:0:0:0:
139,206,59666,2,0,L|141:127,1,75,2|0,0:0|0:0,0:0:0:0:
142,104,60041,1,0,0:0:0:0:
143,77,60166,1,8,0:3:0:0:
224,119,60416,1,0,0:0:0:0:
303,75,60666,6,0,P|339:69|383:78,1,75,2|0,0:0|0:0,0:0:0:0:
341,158,61166,2,0,L|339:236,1,75,8|0,0:3|0:0,0:0:0:0:
343,258,61541,1,0,0:0:0:0:
356,280,61666,2,0,P|418:301|503:275,1,150,2|8,0:0|0:3,0:0:0:0:
499,188,62416,1,0,0:0:0:0:
499,188,62541,1,2,0:0:0:0:
499,188,62666,5,2,0:0:0:0:
346,283,63166,1,8,0:3:0:0:
413,116,63666,1,2,0:0:0:0:
454,291,64166,1,8,0:3:0:0:
315,175,64666,5,2,0:0:0:0:
160,266,65166,1,8,0:3:0:0:
339,263,65666,1,2,0:0:0:0:
180,177,66166,1,8,0:3:0:0:
160,266,66416,1,8,0:3:0:0:
160,266,66541,1,2,0:0:0:0:
160,266,66666,6,0,P|153:304|166:351,1,75,0|0,0:0|0:0,0:0:0:0:
240,380,67166,1,6,0:0:0:0:
316,333,67416,2,0,P|352:327|393:334,1,75,0|2,0:0|0:0,0:0:0:0:
415,360,67791,2,0,P|428:306|413:248,1,112.5,0|8,0:0|0:3,0:0:0:0:
337,205,68416,1,0,0:0:0:0:
261,254,68666,6,0,B|188:270|188:270|111:255,1,150,2|8,0:0|0:3,0:0:0:0:
66,178,69416,2,0,P|58:144|66:101,1,75,0|2,0:0|0:0,0:0:0:0:
94,82,69791,2,0,L|215:83,1,112.5,0|8,0:0|0:3,0:0:0:0:
265,14,70416,1,0,0:0:0:0:
265,14,70541,1,0,0:0:0:0:
265,14,70666,6,0,P|290:72|261:160,1,150,2|8,0:0|0:3,0:0:0:0:
223,231,71416,1,0,0:0:0:0:
271,306,71666,2,0,P|308:312|348:303,1,75,2|0,0:0|0:0,0:0:0:0:
425,263,72166,2,0,L|424:179,1,75,8|0,0:3|0:0,0:0:0:0:
424,98,72666,5,2,0:0:0:0:
309,236,73166,1,8,0:3:0:0:
255,64,73666,1,2,0:0:0:0:
144,206,74166,2,0,P|96:221|32:207,1,112.5,8|2,0:3|0:0,0:0:0:0:
20,176,74666,6,0,L|20:97,1,75,2|0,0:0|0:0,0:0:0:0:
88,42,75166,2,0,B|125:38|125:38|163:41,1,75,8|0,0:3|0:0,0:0:0:0:
231,98,75666,2,0,B|269:101|269:101|306:97,1,75,2|0,0:0|0:0,0:0:0:0:
331,95,76041,1,0,0:0:0:0:
357,93,76166,1,8,0:3:0:0:
431,41,76416,1,0,0:0:0:0:
463,125,76666,6,0,L|462:203,1,75,2|0,0:0|0:0,0:0:0:0:
394,260,77166,2,0,P|357:268|320:262,1,75,8|0,0:3|0:0,0:0:0:0:
295,253,77541,1,0,0:0:0:0:
270,244,77666,2,0,B|245:236|245:236|221:244|221:244|176:231|123:248,1,150,2|8,0:0|0:3,0:0:0:0:
55,188,78416,1,0,0:0:0:0:
55,188,78541,1,2,0:0:0:0:
55,188,78666,6,0,P|59:148|54:110,1,75,2|0,0:0|0:0,0:0:0:0:
121,52,79166,2,0,P|156:56|203:46,1,75,8|0,0:3|0:0,0:0:0:0:
281,26,79666,1,2,0:0:0:0:
336,97,79916,1,0,0:0:0:0:
279,166,80166,1,8,0:3:0:0:
192,139,80416,6,0,P|153:135|112:143,1,75,0|2,0:0|0:0,0:0:0:0:
65,213,80916,1,0,0:0:0:0:
118,285,81166,2,0,P|182:302|263:277,1,150,8|2,0:3|0:0,0:0:0:0:
344,244,81916,1,0,0:0:0:0:
427,278,82166,2,0,P|431:241|422:197,1,75,8|0,0:3|0:0,0:0:0:0:
349,152,82666,6,0,L|260:155,1,75,0|0,0:0|0:0,0:0:0:0:
247,156,83041,1,0,0:0:0:0:
221,157,83166,1,8,0:1:0:0:
144,109,83416,1,0,0:0:0:0:
62,146,83666,1,0,0:0:0:0:
53,235,83916,1,0,0:0:0:0:
129,282,84166,1,8,0:1:0:0:
210,243,84416,1,0,0:0:0:0:
221,157,84666,6,2,P|278:103|268:202,1,225.000008583069,2|0,0:0|0:0,0:0:0:0:
284,199,86666,6,0,L|222:197,1,56.2500021457673,2|0,0:0|0:0,0:0:0:0:
156,242,87166,1,0,0:0:0:0:
80,205,87416,2,0,P|70:165|80:121,1,84.3750032186509,2|2,0:0|0:0,0:0:0:0:
94,100,87916,1,2,0:0:0:0:
170,65,88166,1,8,0:0:0:0:
247,98,88416,1,0,0:0:0:0:
324,65,88666,6,2,P|371:34|354:132,1,225.000008583069,2|0,0:0|0:0,0:0:0:0:
323,209,89916,2,0,P|320:242|326:272,1,56.2500021457673,2|8,0:0|0:0,0:0:0:0:
180,354,90666,6,0,L|118:353,1,56.2500021457673,2|0,0:0|0:0,0:0:0:0:
63,294,91166,1,8,0:0:0:0:
118,230,91416,1,0,0:0:0:0:
131,204,91541,2,0,P|136:160|125:114,1,84.3750032186509,2|2,0:0|0:0,0:0:0:0:
57,73,92166,2,0,L|-1:74,1,56.2500021457673,8|0,0:0|0:0,0:0:0:0:
140,40,92666,6,0,L|258:43,1,112.500004291535,6|8,0:0|0:0,0:0:0:0:
331,73,93416,1,0,0:0:0:0:
342,100,93541,2,0,P|351:140|342:192,1,84.3750032186509,2|2,0:0|0:0,0:0:0:0:
296,251,94166,2,0,P|292:283|300:313,1,56.2500021457673,8|0,0:0|0:0,0:0:0:0:
349,372,94666,6,0,L|415:373,1,56.2500021457673,2|0,0:0|0:0,0:0:0:0:
452,302,95166,1,8,0:0:0:0:
403,232,95416,1,0,0:0:0:0:
391,206,95541,2,0,P|383:175|392:117,1,84.3750032186509,2|2,0:0|0:0,0:0:0:0:
452,67,96166,1,8,0:0:0:0:
387,12,96416,1,0,0:0:0:0:
326,70,96666,5,2,0:0:0:0:
157,73,97166,2,0,P|150:116|163:162,1,84.3750032186509,8|2,0:0|0:0,0:0:0:0:
186,171,97666,2,0,P|215:169|242:172,1,56.2500021457673,0|2,0:0|0:0,0:0:0:0:
314,214,98166,1,8,0:0:0:0:
243,260,98416,6,0,P|213:265|181:260,1,56.2500021457673,0|2,0:0|0:0,0:0:0:0:
112,223,98916,1,0,0:0:0:0:
39,265,99166,2,0,P|31:311|44:355,1,84.3750032186509,8|2,0:0|0:0,0:0:0:0:
124,349,99791,2,0,L|163:349,1,28.1250010728836,2|2,0:0|0:0,0:0:0:0:
236,349,100166,1,8,0:0:0:0:
351,230,100666,6,0,L|387:230,2,28.1250010728836,0|0|0,0:0|0:0|0:0,0:0:0:0:
350,145,101166,2,0,L|350:109,2,28.1250010728836,0|0|0,0:0|0:0|0:0,0:0:0:0:
265,147,101666,2,0,L|229:147,2,28.1250010728836,8|0|8,0:3|0:0|0:3,0:0:0:0:
266,232,102166,2,0,L|266:268,2,28.1250010728836,8|8|0,0:3|0:3|0:0,0:0:0:0:
351,230,102666,6,0,P|374:286|350:376,1,150,6|8,0:0|0:3,0:0:0:0:
269,340,103416,2,0,P|235:334|189:344,1,75,0|2,0:0|0:0,0:0:0:0:
164,362,103791,2,0,B|109:376|109:376|42:367,1,112.5,0|8,0:0|0:3,0:0:0:0:
103,293,104416,1,0,0:0:0:0:
55,216,104666,6,0,P|35:152|63:73,1,150,2|8,0:0|0:3,0:0:0:0:
142,113,105416,2,0,P|177:118|222:111,1,75,0|2,0:0|0:0,0:0:0:0:
244,86,105791,2,0,B|242:122|242:122|250:152|250:152|246:206,1,112.5,0|8,0:0|0:3,0:0:0:0:
247,287,106416,1,0,0:0:0:0:
247,287,106541,1,2,0:0:0:0:
247,287,106666,6,0,P|320:310|390:284,1,150,2|8,0:0|0:3,0:0:0:0:
428,206,107416,1,0,0:0:0:0:
379,130,107666,2,0,P|372:92|378:53,1,75,2|0,0:0|0:0,0:0:0:0:
292,88,108166,2,0,P|254:94|213:89,1,75,8|0,0:3|0:0,0:0:0:0:
132,60,108666,5,2,0:0:0:0:
130,239,109166,1,8,0:3:0:0:
309,240,109666,1,2,0:0:0:0:
309,60,110166,2,0,B|362:50|362:50|427:62,1,112.5,8|2,0:3|0:0,0:0:0:0:
438,94,110666,6,0,P|445:132|439:174,1,75,2|0,0:0|0:0,0:0:0:0:
383,240,111166,2,0,B|345:244|345:244|303:239,1,75,8|0,0:3|0:0,0:0:0:0:
220,219,111666,2,0,B|183:213|183:213|142:218,1,75,2|0,0:0|0:0,0:0:0:0:
121,226,112041,1,0,0:0:0:0:
105,248,112166,1,8,0:3:0:0:
178,300,112416,1,0,0:0:0:0:
220,219,112666,6,0,P|225:182|219:143,1,75,2|0,0:0|0:0,0:0:0:0:
183,62,113166,2,0,P|218:57|265:65,1,75,8|0,0:3|0:0,0:0:0:0:
281,77,113541,1,0,0:0:0:0:
303,91,113666,2,0,B|351:89|351:89|399:104|399:104|452:102,1,150,2|8,0:0|0:3,0:0:0:0:
511,35,114416,1,0,0:0:0:0:
511,35,114541,1,2,0:0:0:0:
511,35,114666,5,2,0:0:0:0:
511,214,115166,1,8,0:3:0:0:
367,105,115666,1,2,0:0:0:0:
369,284,116166,1,8,0:3:0:0:
211,196,116666,5,2,0:0:0:0:
390,194,117166,1,8,0:3:0:0:
235,285,117666,1,2,0:0:0:0:
297,116,118166,1,8,0:3:0:0:
229,56,118416,1,8,0:3:0:0:
229,56,118541,1,2,0:0:0:0:
229,56,118666,6,0,P|192:50|141:60,1,75,2|0,0:0|0:0,0:0:0:0:
65,66,119166,1,6,0:0:0:0:
110,143,119416,2,0,P|115:180|108:228,1,75,0|2,0:0|0:0,0:0:0:0:
84,245,119791,2,0,P|139:232|201:250,1,112.5,0|8,0:0|0:3,0:0:0:0:
268,292,120416,1,0,0:0:0:0:
265,202,120666,6,0,B|269:174|269:174|261:151|261:151|278:111|261:49,1,150,2|8,0:0|0:3,0:0:0:0:
351,73,121416,2,0,P|391:77|427:71,1,75,0|2,0:0|0:0,0:0:0:0:
458,52,121791,2,0,P|471:106|460:164,1,112.5,0|8,0:0|0:3,0:0:0:0:
400,227,122416,1,0,0:0:0:0:
400,227,122541,1,2,0:0:0:0:
400,227,122666,6,0,L|243:224,1,150,2|8,0:0|0:3,0:0:0:0:
178,279,123416,1,0,0:0:0:0:
105,226,123666,2,0,P|98:193|106:146,1,75,2|0,0:0|0:0,0:0:0:0:
179,99,124166,2,0,P|183:61|175:19,1,75,8|0,0:3|0:0,0:0:0:0:
97,67,124666,5,2,0:0:0:0:
219,198,125166,1,8,0:3:0:0:
262,23,125666,1,2,0:0:0:0:
391,147,126166,2,0,P|405:195|391:261,1,112.5,8|2,0:3|0:0,0:0:0:0:
357,263,126666,6,0,B|321:269|321:269|279:263,1,75,2|0,0:0|0:0,0:0:0:0:
219,198,127166,2,0,B|183:194|183:194|142:199,1,75,8|0,0:3|0:0,0:0:0:0:
67,244,127666,2,0,L|70:328,1,75,2|0,0:0|0:0,0:0:0:0:
72,345,128041,1,0,0:0:0:0:
73,371,128166,1,8,0:3:0:0:
146,319,128416,1,0,0:0:0:0:
220,370,128666,6,0,P|255:374|297:365,1,75,2|0,0:0|0:0,0:0:0:0:
372,321,129166,2,0,P|407:314|449:321,1,75,8|0,0:3|0:0,0:0:0:0:
469,333,129541,1,0,0:0:0:0:
486,354,129666,2,0,P|507:283|489:211,1,150,2|8,0:0|0:3,0:0:0:0:
424,148,130416,1,0,0:0:0:0:
424,148,130541,1,2,0:0:0:0:
424,148,130666,5,2,0:0:0:0:
303,281,131166,1,8,0:3:0:0:
170,158,131666,1,2,0:0:0:0:
112,227,131916,1,0,0:0:0:0:
181,284,132166,1,8,0:3:0:0:
241,217,132416,6,0,P|291:196|384:240,1,150,0|0,0:0|0:0,0:0:0:0:
404,314,133166,2,0,P|437:348|468:279,1,150,8|2,0:3|0:0,0:0:0:0:
368,131,134166,1,8,0:3:0:0:
281,289,134666,5,4,0:0:0:0:
122,197,142666,6,0,L|122:267,1,56.2500021457673,2|0,0:0|0:0,0:0:0:0:
157,330,143166,2,0,P|209:344|267:328,1,112.500004291535,2|2,0:0|0:0,0:0:0:0:
384,210,144166,1,2,0:0:0:0:
265,90,144666,6,0,P|213:76|155:92,1,112.500004291535,2|2,0:0|0:0,0:0:0:0:
42,214,145666,1,2,0:0:0:0:
156,337,146166,1,2,0:0:0:0:
227,292,146416,1,0,0:0:0:0:
227,292,146541,1,0,0:0:0:0:
227,292,146666,6,0,P|278:279|335:294,1,112.500004291535,2|8,0:0|0:0,0:0:0:0:
404,340,147416,1,0,0:0:0:0:
419,257,147666,2,0,P|421:224|416:197,1,56.2500021457673,2|0,0:0|0:0,0:0:0:0:
356,141,148166,1,8,0:0:0:0:
291,195,148416,6,0,L|233:191,1,56.2500021457673,0|2,0:0|0:0,0:0:0:0:
159,152,148916,2,0,L|100:156,1,56.2500021457673,0|8,0:0|0:0,0:0:0:0:
44,217,149416,2,0,P|41:250|46:282,1,56.2500021457673,0|2,0:0|0:0,0:0:0:0:
98,337,149916,2,0,L|154:340,1,56.2500021457673,0|8,0:0|0:0,0:0:0:0:
229,302,150416,1,0,0:0:0:0:
245,298,150541,1,0,0:0:0:0:
258,293,150666,6,0,L|298:291,2,28.1250010728836
194,237,151166,2,0,L|152:233,2,28.1250010728836
253,176,151666,2,0,L|293:174,2,28.1250010728836
194,115,152166,2,0,L|152:111,2,28.1250010728836
251,52,152666,5,2,0:0:0:0:
415,12,153166,1,0,0:0:0:0:
487,164,153666,2,0,L|487:192,3,28.1250010728836,0|2|2|2,0:0|0:0|0:0|0:0,0:0:0:0:
486,234,154166,2,0,L|486:300,1,56.2500021457673,0|0,0:0|0:0,0:0:0:0:
486,379,154666,1,0,0:0:0:0:
285,276,155166,5,6,0:0:0:0:
199,303,155416,2,0,P|164:310|119:303,1,75,0|2,0:0|0:0,0:0:0:0:
100,279,155791,2,0,B|87:226|87:226|98:161,1,112.5,0|8,0:0|0:3,0:0:0:0:
171,118,156416,1,0,0:0:0:0:
247,165,156666,6,0,P|319:182|394:161,1,150,2|8,0:0|0:3,0:0:0:0:
473,127,157416,2,0,P|480:166|473:204,1,75,0|2,0:0|0:0,0:0:0:0:
453,232,157791,2,0,P|440:287|459:350,1,112.5,0|8,0:0|0:3,0:0:0:0:
368,310,158416,1,0,0:0:0:0:
368,310,158541,1,2,0:0:0:0:
368,310,158666,6,0,B|297:296|297:296|215:313,1,150,2|8,0:0|0:3,0:0:0:0:
145,361,159416,1,0,0:0:0:0:
68,313,159666,2,0,P|62:276|72:224,1,75,2|0,0:0|0:0,0:0:0:0:
116,163,160166,2,0,P|120:129|112:85,1,75,8|0,0:3|0:0,0:0:0:0:
22,90,160666,5,2,0:0:0:0:
184,12,161166,1,8,0:3:0:0:
266,171,161666,1,2,0:0:0:0:
101,243,162166,2,0,P|87:285|105:359,1,112.5,8|2,0:3|0:0,0:0:0:0:
133,365,162666,6,0,L|208:360,1,75,2|0,0:0|0:0,0:0:0:0:
283,310,163166,2,0,P|322:303|359:311,1,75,8|0,0:3|0:0,0:0:0:0:
433,355,163666,2,0,L|436:280,1,75,2|0,0:0|0:0,0:0:0:0:
437,253,164041,1,0,0:0:0:0:
438,226,164166,1,8,0:3:0:0:
439,136,164416,1,0,0:0:0:0:
358,175,164666,6,0,B|321:179|321:179|283:176,1,75,2|0,0:0|0:0,0:0:0:0:
206,129,165166,2,0,B|169:124|169:124|126:131,1,75,8|0,0:3|0:0,0:0:0:0:
111,147,165541,1,0,0:0:0:0:
97,169,165666,2,0,P|80:226|102:316,1,150,2|8,0:0|0:3,0:0:0:0:
177,357,166416,1,0,0:0:0:0:
177,357,166541,1,2,0:0:0:0:
177,357,166666,5,2,0:0:0:0:
237,187,167166,1,8,0:3:0:0:
297,356,167666,1,2,0:0:0:0:
151,250,168166,1,8,0:3:0:0:
330,254,168666,5,2,0:0:0:0:
242,96,169166,1,8,0:3:0:0:
151,250,169666,1,2,0:0:0:0:
58,95,170166,1,8,0:3:0:0:
7,169,170416,1,8,0:3:0:0:
7,169,170541,1,2,0:0:0:0:
7,169,170666,6,0,L|10:248,1,75,2|0,0:0|0:0,0:0:0:0:
12,333,171166,1,6,0:0:0:0:
102,321,171416,2,0,P|137:315|177:320,1,75,0|2,0:0|0:0,0:0:0:0:
207,340,171791,2,0,B|246:342|246:342|281:334|281:334|331:338,1,112.5,0|8,0:0|0:3,0:0:0:0:
396,382,172416,1,0,0:0:0:0:
474,337,172666,6,0,P|493:261|471:190,1,150,2|8,0:0|0:3,0:0:0:0:
399,142,173416,2,0,P|393:106|400:62,1,75,0|2,0:0|0:0,0:0:0:0:
366,36,173791,2,0,B|311:26|311:26|252:36,1,112.5,0|8,0:0|0:3,0:0:0:0:
178,85,174416,1,0,0:0:0:0:
178,85,174541,1,2,0:0:0:0:
178,85,174666,6,0,L|184:237,1,150,2|8,0:0|0:3,0:0:0:0:
126,304,175416,1,0,0:0:0:0:
190,367,175666,2,0,P|227:373|269:365,1,75,2|0,0:0|0:0,0:0:0:0:
126,304,176166,2,0,P|89:298|47:306,1,75,8|0,0:3|0:0,0:0:0:0:
0,377,176666,5,2,0:0:0:0:
85,218,177166,1,8,0:3:0:0:
195,361,177666,1,2,0:0:0:0:
300,215,178166,2,0,P|356:201|415:218,1,112.5,8|2,0:3|0:0,0:0:0:0:
442,232,178666,6,0,B|447:198|447:198|441:151,1,75,2|0,0:0|0:0,0:0:0:0:
381,89,179166,2,0,L|302:90,1,75,8|0,0:3|0:0,0:0:0:0:
216,102,179666,2,0,L|139:100,1,75,2|0,0:0|0:0,0:0:0:0:
114,100,180041,1,0,0:0:0:0:
87,100,180166,1,8,0:3:0:0:
18,41,180416,1,0,0:0:0:0:
0,129,180666,6,0,P|-5:165|3:204,1,75,2|0,0:0|0:0,0:0:0:0:
61,268,181166,2,0,B|97:272|97:272|139:264,1,75,8|0,0:3|0:0,0:0:0:0:
160,259,181541,1,0,0:0:0:0:
185,253,181666,2,0,B|258:241|258:241|338:252,1,150,2|8,0:0|0:3,0:0:0:0:
421,271,182416,1,0,0:0:0:0:
421,271,182541,1,2,0:0:0:0:
421,271,182666,5,2,0:0:0:0:
417,91,183166,1,8,0:3:0:0:
286,214,183666,1,2,0:0:0:0:
196,125,183916,1,0,0:0:0:0:
286,124,184166,1,8,0:3:0:0:
197,214,184416,6,0,P|144:235|53:216,1,150,2|8,0:0|0:3,0:0:0:0:
17,134,185166,1,8,0:3:0:0:
51,51,185416,2,0,P|104:30|194:49,1,150,0|0,0:0|0:0,0:0:0:0:
223,132,186166,1,0,0:0:0:0:
216,266,186666,6,0,L|214:329,2,56.2500021457673,2|2|2,0:3|0:3|0:3,0:0:0:0:
271,201,187416,2,0,L|267:140,2,56.2500021457673,2|0|2,0:3|0:0|0:3,0:0:0:0:
332,258,188166,2,0,P|361:262|396:254,1,56.2500021457673,2|2,0:3|0:3,0:0:0:0:
449,199,188666,6,0,L|453:138,2,56.2500021457673,2|0|2,0:3|0:0|0:3,0:0:0:0:
470,281,189416,2,0,L|474:339,2,56.2500021457673,2|0|2,0:3|0:0|0:3,0:0:0:0:
387,257,190166,2,0,P|359:262|332:258,1,56.2500021457673,2|2,0:3|0:3,0:0:0:0:
271,201,190666,6,0,L|267:144,2,56.2500021457673,2|0|2,0:3|0:0|0:3,0:0:0:0:
216,266,191417,2,0,L|214:322,2,56.2500021457673,2|0|0,0:3|0:0|0:0,0:0:0:0:
177,191,192166,2,0,P|150:188|119:193,1,56.2500021457673,2|0,0:3|0:0,0:0:0:0:
67,257,192666,5,2,0:3:0:0:
6,197,192916,1,2,0:3:0:0:
5,112,193166,1,2,0:3:0:0:
65,53,193416,1,2,0:3:0:0:
125,112,193666,2,0,L|124:141,2,28.1250010728836,2|0|0,0:3|0:0|0:0,0:0:0:0:
181,49,194166,2,0,L|180:20,2,28.1250010728836,2|0|0,0:3|0:0|0:0,0:0:0:0:
239,109,194666,6,0,L|240:172,2,56.2500021457673,2|0|2,0:3|0:0|0:3,0:0:0:0:
312,66,195416,2,0,L|312:9,2,56.2500021457673,2|0|2,0:3|0:0|0:3,0:0:0:0:
385,107,196166,2,0,L|386:165,1,56.2500021457673,2|0,0:3|0:0,0:0:0:0:
452,215,196666,6,0,P|483:218|514:209,2,56.2500021457673,2|2|2,0:3|0:3|0:3,0:0:0:0:
385,163,197416,1,2,0:3:0:0:
318,215,197666,2,0,P|287:218|256:209,1,56.2500021457673,2|0,0:3|0:0,0:0:0:0:
188,171,198166,1,2,0:3:0:0:
41,119,198666,6,0,P|28:175|44:229,1,112.5,2|2,0:3|0:3,0:0:0:0:
147,324,199916,2,0,L|224:323,1,75,2|2,0:3|0:3,0:0:0:0:
296,297,200666,6,0,L|346:300,1,37.5,2|2,0:3|0:3,0:0:0:0:
335,218,201166,2,0,L|298:216,1,37.5,2|2,0:3|0:3,0:0:0:0:
296,131,201666,2,0,L|346:134,1,37.5,2|2,0:3|0:3,0:0:0:0:
335,52,202166,2,0,L|298:50,1,37.5,2|2,0:3|0:3,0:0:0:0:
220,88,202666,6,0,P|201:106|225:66,1,225,2|0,0:3|0:0,0:0:0:0:
256,192,204666,12,0,212666,0:0:0:0:
