osu file format v14

[General]
AudioFilename: Apink - LUV.mp3
AudioLeadIn: 0
PreviewTime: 77224
Countdown: 0
SampleSet: Soft
StackLeniency: 0.7
Mode: 0
LetterboxInBreaks: 0
WidescreenStoryboard: 1

[Editor]
Bookmarks: 181743,190396
DistanceSpacing: 0.8
BeatDivisor: 6
GridSize: 4
TimelineZoom: 2.4

[Metadata]
Title:LUV
TitleUnicode:LUV
Artist:Apink
ArtistUnicode:에이핑크
Creator:P A N
Version:Love
Source:
Tags:박초롱 윤보미 정은지 손나은 김남주 오하영 에이핑크 kpop nekomata A-cube Entertainment park cho rong yoon bomi jeong eun ji son na eun kim nam joo oh ha young 박초롱 윤보미 정은지 손나은 김남주 오하영 에이핑크 kpop nekomata A-cube Entertainment park cho rong yoon bomi jeong eun ji son na eun kim nam joo oh ha young p_a_n
BeatmapID:770285
BeatmapSetID:305371

[Difficulty]
HPDrainRate:7
CircleSize:4
OverallDifficulty:7.5
ApproachRate:8.5
SliderMultiplier:1.8
SliderTickRate:1

[Events]
//Background and Video events
Video,-1015,"luv.flv"
0,0,"pink.jpg",0,0
//Break Periods
2,181942,189721
//Storyboard Layer 0 (Background)
//Storyboard Layer 1 (Fail)
//Storyboard Layer 2 (Pass)
//Storyboard Layer 3 (Foreground)
//Storyboard Sound Samples

[TimingPoints]
8666,576.923076923077,4,2,1,70,1,0
10973,-80,4,2,1,80,0,1
36358,-100,4,2,1,70,0,0
75589,-133.333333333333,4,2,1,70,0,0
77031,-100,4,2,1,70,0,0
77896,-80,4,2,1,80,0,1
103281,-100,4,2,1,70,0,0
151742,-133.333333333333,4,2,1,70,0,0
153089,-100,4,2,1,70,0,0
154050,-80,4,2,1,80,0,1
179435,-100,4,2,1,70,0,0
207127,-80,4,2,1,80,0,1
232512,-100,4,2,1,70,0,0
234916,-100,4,2,1,5,0,0

[Colours]
Combo1 : 255,0,0
Combo2 : 235,235,235
Combo3 : 255,255,221
Combo4 : 255,213,234
SliderBorder : 255,255,155

[HitObjects]
116,128,8665,53,2,0:3:0:0:
116,128,8954,2,0,L|184:125,1,60,2|2,0:3|0:3,0:0:0:0:
211,124,9242,1,2,0:3:0:0:
356,253,9531,2,0,P|362:283|354:321,1,60,2|2,0:3|0:3,0:0:0:0:
342,344,9819,1,2,0:3:0:0:
225,217,10012,1,2,0:3:0:0:
212,183,10108,2,0,P|207:152|214:115,1,60,2|2,0:3|0:3,0:0:0:0:
224,90,10396,5,8,0:0:0:0:
356,22,10589,1,0,0:0:0:0:
356,22,10685,1,0,0:0:0:0:
293,155,10877,1,0,0:0:0:0:
293,155,10973,5,6,0:0:0:0:
264,13,11262,1,0,0:0:0:0:
375,116,11454,1,2,0:3:0:0:
375,116,11550,1,8,0:0:0:0:
494,16,11839,1,0,0:0:0:0:
495,163,12031,2,0,L|495:201,1,37.5,2|2,0:3|0:0,0:0:0:0:
436,354,12319,1,0,0:0:0:0:
436,354,12415,1,0,0:0:0:0:
365,212,12608,1,0,0:0:0:0:
365,212,12704,1,8,0:0:0:0:
503,289,12992,1,0,0:0:0:0:
308,352,13281,21,2,0:0:0:0:
308,31,13569,1,2,0:3:0:0:
119,290,13858,1,8,0:0:0:0:
424,192,14146,1,2,0:3:0:0:
119,93,14435,1,2,0:0:0:0:
211,223,14723,5,0,0:0:0:0:
214,65,14916,2,0,L|214:24,1,37.5,2|8,0:3|0:0,0:0:0:0:
117,190,15204,1,0,0:0:0:0:
117,190,15300,1,2,0:3:0:0:
276,146,15492,1,0,0:0:0:0:
276,146,15589,5,2,0:0:0:0:
353,288,15877,1,0,0:0:0:0:
351,124,16069,1,2,0:3:0:0:
351,124,16166,1,8,0:0:0:0:
488,180,16454,1,0,0:0:0:0:
333,205,16646,2,0,L|288:204,1,37.5,2|2,0:3|0:0,0:0:0:0:
437,103,16935,1,0,0:0:0:0:
437,103,17031,1,2,0:3:0:0:
444,254,17319,1,8,0:0:0:0:
351,124,17608,1,0,0:0:0:0:
308,352,17896,21,2,0:0:0:0:
119,93,18184,1,2,0:3:0:0:
424,192,18473,1,8,0:0:0:0:
119,290,18761,1,2,0:3:0:0:
308,31,18954,1,2,0:3:0:0:
308,31,19050,1,2,0:0:0:0:
282,273,19339,5,0,0:0:0:0:
186,141,19531,1,2,0:3:0:0:
186,141,19627,1,8,0:0:0:0:
341,192,19916,1,2,0:3:0:0:
186,241,20204,5,6,0:0:0:0:
282,109,20493,1,0,0:0:0:0:
115,112,20685,1,2,0:3:0:0:
115,112,20781,1,8,0:0:0:0:
114,280,21069,1,0,0:0:0:0:
286,280,21262,2,0,L|332:281,1,37.5,2|2,0:3|0:0,0:0:0:0:
198,131,21550,1,0,0:0:0:0:
198,131,21646,1,0,0:0:0:0:
114,280,21839,1,0,0:0:0:0:
114,280,21935,1,8,0:0:0:0:
265,194,22223,1,0,0:0:0:0:
119,93,22512,21,2,0:0:0:0:
308,352,22800,1,2,0:3:0:0:
308,31,23089,1,8,0:0:0:0:
119,290,23377,1,2,0:3:0:0:
424,192,23666,1,2,0:0:0:0:
265,194,23954,5,0,0:0:0:0:
393,285,24146,1,2,0:3:0:0:
393,285,24242,1,8,0:0:0:0:
344,135,24531,1,2,0:3:0:0:
295,284,24819,5,2,0:0:0:0:
166,202,25108,1,0,0:0:0:0:
209,63,25300,1,2,0:3:0:0:
209,63,25396,1,8,0:0:0:0:
256,205,25685,1,0,0:0:0:0:
135,116,25877,1,2,0:3:0:0:
135,116,25973,1,2,0:0:0:0:
280,119,26262,1,2,0:3:0:0:
380,236,26550,1,8,0:0:0:0:
284,364,26839,1,0,0:0:0:0:
175,233,27127,5,2,0:0:0:0:
327,173,27416,1,0,0:0:0:0:
371,327,27608,1,2,0:3:0:0:
371,327,27704,1,8,0:0:0:0:
420,150,27992,1,2,0:3:0:0:
302,271,28185,1,2,0:3:0:0:
302,271,28281,1,2,0:0:0:0:
470,227,28569,1,2,0:3:0:0:
423,61,28858,1,8,0:0:0:0:
257,109,29146,1,2,0:3:0:0:
302,271,29435,21,6,0:0:0:0:
420,150,29723,1,0,0:0:0:0:
257,109,29916,1,2,0:3:0:0:
257,109,30012,1,8,0:0:0:0:
137,227,30300,1,0,0:0:0:0:
139,64,30492,2,0,L|139:23,1,37.5,2|2,0:3|0:0,0:0:0:0:
225,185,30877,1,0,0:0:0:0:
295,26,31166,1,8,0:0:0:0:
161,137,31454,1,0,0:0:0:0:
313,199,31742,21,2,0:0:0:0:
295,26,32031,1,0,0:0:0:0:
225,185,32223,1,2,0:3:0:0:
225,185,32319,1,8,0:0:0:0:
381,256,32608,1,0,0:0:0:0:
460,96,32800,1,0,0:0:0:0:
460,96,32896,1,2,0:0:0:0:
295,26,33089,1,0,0:0:0:0:
295,26,33185,1,0,0:0:0:0:
181,150,33377,1,0,0:0:0:0:
181,150,33473,1,8,0:0:0:0:
258,294,33666,1,0,0:0:0:0:
258,294,33762,1,0,0:0:0:0:
426,264,34050,21,4,0:0:0:0:
310,130,34339,1,0,0:0:0:0:
258,294,34531,1,2,0:3:0:0:
258,294,34627,1,8,0:0:0:0:
408,165,34916,1,0,0:0:0:0:
234,198,35108,1,2,0:3:0:0:
234,198,35204,1,0,0:0:0:0:
355,334,35492,1,2,0:3:0:0:
310,130,35781,1,8,0:0:0:0:
171,255,36069,1,2,0:3:0:0:
408,165,36358,37,2,0:3:0:0:
408,165,36646,2,0,L|482:163,1,60,2|2,0:3|0:3,0:0:0:0:
499,164,36935,1,2,0:3:0:0:
312,291,37223,2,0,P|280:297|245:290,1,60,2|2,0:3|0:3,0:0:0:0:
224,282,37512,1,2,0:3:0:0:
114,152,37704,1,2,0:3:0:0:
115,122,37800,2,0,L|117:56,1,60,2|2,0:3|0:3,0:0:0:0:
119,31,38089,1,8,0:0:0:0:
245,133,38377,1,0,0:0:0:0:
112,228,38666,21,4,0:0:0:0:
224,282,38954,2,0,P|254:286|286:280,1,60,0|0,0:0|0:0,0:0:0:0:
316,266,39242,1,8,0:0:0:0:
359,166,39531,2,0,L|357:99,1,60,0|0,0:0|0:0,0:0:0:0:
356,70,39819,1,2,0:3:0:0:
259,21,40108,1,0,0:0:0:0:
246,129,40396,1,10,0:0:0:0:
148,87,40685,1,0,0:0:0:0:
148,87,40781,1,0,0:0:0:0:
148,197,40973,5,0,0:0:0:0:
259,206,41262,2,0,L|329:203,1,60,0|2,0:0|0:3,0:0:0:0:
354,202,41550,1,8,0:0:0:0:
423,280,41839,2,0,P|428:309|423:343,1,60,2|0,0:3|0:3,0:0:0:0:
407,371,42127,1,2,0:3:0:0:
315,313,42416,1,0,0:0:0:0:
220,364,42704,1,10,0:0:0:0:
128,307,42992,1,2,0:3:0:0:
35,362,43281,21,0,0:3:0:0:
61,257,43569,2,0,P|65:227|56:189,1,60,0|2,0:0|0:3,0:0:0:0:
43,165,43858,1,8,0:0:0:0:
134,108,44146,2,0,L|202:109,1,60,0|2,0:0|0:3,0:0:0:0:
230,109,44435,1,2,0:3:0:0:
307,33,44723,1,0,0:0:0:0:
341,135,45012,1,10,0:0:0:0:
417,58,45300,1,0,0:0:0:0:
450,160,45589,5,2,0:3:0:0:
370,233,45877,2,0,P|339:239|304:230,1,60,0|2,0:0|0:3,0:0:0:0:
277,219,46166,1,8,0:0:0:0:
199,142,46454,1,0,0:0:0:0:
172,245,46646,21,2,0:3:0:0:
172,245,46742,1,2,0:3:0:0:
184,62,46935,1,2,0:3:0:0:
184,62,47031,1,2,0:3:0:0:
277,219,47319,1,10,0:0:0:0:
110,150,47608,1,2,0:3:0:0:
287,111,47896,1,4,0:0:0:0:
277,219,48185,22,0,L|272:292,1,60,0|2,0:0|0:3,0:0:0:0:
272,314,48473,1,8,0:0:0:0:
174,361,48762,2,0,P|143:368|108:360,1,60,2|2,0:3|0:3,0:0:0:0:
81,350,49050,1,2,0:3:0:0:
21,259,49339,1,0,0:0:0:0:
19,151,49627,1,10,0:0:0:0:
81,62,49916,1,0,0:0:0:0:
137,153,50204,5,2,0:3:0:0:
192,60,50492,2,0,P|222:56|261:62,1,60,2|2,0:3|0:3,0:0:0:0:
285,70,50781,1,8,0:0:0:0:
352,153,51069,2,0,L|352:218,1,60,2|2,0:3|0:3,0:0:0:0:
339,247,51358,2,0,L|345:320,1,60,0|0,0:0|0:0,0:0:0:0:
347,342,51646,1,0,0:0:0:0:
448,254,51935,1,10,0:0:0:0:
352,153,52223,1,2,0:3:0:0:
255,246,52512,38,0,P|215:256|165:246,1,90,2|0,0:3|0:0,0:0:0:0:
56,215,52992,1,2,0:3:0:0:
57,178,53089,2,0,L|60:82,1,90,8|0,0:0|0:0,0:0:0:0:
146,13,53569,1,0,0:0:0:0:
146,13,53666,1,0,0:0:0:0:
196,106,53954,1,0,0:0:0:0:
269,28,54242,1,10,0:0:0:0:
320,121,54531,1,0,0:0:0:0:
394,45,54819,5,2,0:3:0:0:
438,141,55108,2,0,P|442:173|435:213,1,60,0|2,0:0|0:3,0:0:0:0:
424,233,55396,1,8,0:0:0:0:
336,294,55685,1,2,0:3:0:0:
227,296,55877,1,2,0:3:0:0:
227,296,55973,1,2,0:3:0:0:
153,215,56166,1,2,0:3:0:0:
153,215,56262,1,2,0:3:0:0:
317,213,56550,1,10,0:0:0:0:
321,378,56839,1,2,0:3:0:0:
321,378,56935,1,0,0:0:0:0:
152,377,57127,22,0,L|56:375,1,90,4|2,0:0|0:3,0:0:0:0:
0,297,57608,37,2,0:3:0:0:
0,297,57704,1,12,0:0:0:0:
97,253,57992,5,2,0:3:0:0:
97,253,58089,2,0,L|145:256,1,30,0|2,0:0|0:3,0:0:0:0:
208,254,58281,2,0,L|282:250,1,60,2|2,0:3|0:3,0:0:0:0:
303,249,58569,1,2,0:3:0:0:
373,331,58858,1,10,0:0:0:0:
444,249,59146,6,0,P|452:213|434:149,1,90,0|2,0:0|0:3,0:0:0:0:
358,91,59723,2,0,L|289:94,1,60,0|2,0:0|0:3,0:0:0:0:
261,97,60012,1,8,0:0:0:0:
166,43,60300,2,0,L|100:39,1,60,2|2,0:3|0:3,0:0:0:0:
79,64,60589,2,0,P|75:99|83:131,1,60,2|2,0:3|0:3,0:0:0:0:
99,153,60877,1,2,0:3:0:0:
261,97,61166,1,10,0:0:0:0:
325,254,61454,1,0,0:0:0:0:
164,311,61742,5,2,0:3:0:0:
80,242,62031,2,0,P|74:212|79:180,1,60,0|2,0:0|0:3,0:0:0:0:
99,153,62319,1,8,0:0:0:0:
240,184,62608,2,0,P|245:210|236:253,1,60,2|2,0:3|0:3,0:0:0:0:
229,277,62896,2,0,P|225:307|234:346,1,60,2|2,0:3|0:3,0:0:0:0:
246,368,63185,1,2,0:3:0:0:
322,291,63473,1,10,0:0:0:0:
400,365,63762,1,0,0:0:0:0:
478,290,64050,22,0,P|487:247|473:198,1,90,2|0,0:3|0:0,0:0:0:0:
400,111,64531,1,2,0:3:0:0:
364,112,64627,2,0,L|292:114,1,60,8|0,0:0|0:0,0:0:0:0:
267,115,64916,2,0,L|192:112,1,60,2|2,0:3|0:3,0:0:0:0:
171,109,65204,1,2,0:3:0:0:
66,81,65492,2,0,P|61:115|73:154,1,60,0|2,0:0|0:3,0:0:0:0:
83,171,65781,1,10,0:0:0:0:
178,220,66069,1,0,0:0:0:0:
178,220,66166,1,0,0:0:0:0:
269,217,66358,6,0,L|358:215,1,90,4|0,0:0|0:0,0:0:0:0:
410,316,66839,21,2,0:3:0:0:
410,316,66935,1,12,0:0:0:0:
302,320,67223,5,2,0:3:0:0:
302,320,67319,1,0,0:0:0:0:
193,321,67512,2,0,L|124:322,1,60,2|2,0:3|0:3,0:0:0:0:
97,321,67800,1,2,0:3:0:0:
45,225,68089,1,10,0:0:0:0:
99,132,68377,6,0,P|134:122|195:135,1,90,0|2,0:0|0:3,0:0:0:0:
269,199,68954,2,0,P|299:203|337:194,1,60,0|2,0:0|0:3,0:0:0:0:
362,187,69242,1,8,0:0:0:0:
445,117,69531,2,0,L|444:51,1,60,2|2,0:3|0:3,0:0:0:0:
418,32,69819,2,0,P|385:38|355:34,1,60,2|2,0:3|0:3,0:0:0:0:
324,24,70108,1,2,0:3:0:0:
256,107,70396,1,10,0:0:0:0:
184,26,70685,1,0,0:0:0:0:
115,109,70973,5,2,0:3:0:0:
182,193,71262,2,0,P|186:223|181:260,1,60,0|2,0:0|0:3,0:0:0:0:
169,285,71550,1,8,0:0:0:0:
294,285,71839,2,0,P|290:255|295:218,1,60,2|2,0:3|0:3,0:0:0:0:
307,193,72127,2,0,L|376:196,1,60,2|2,0:3|0:3,0:0:0:0:
403,195,72416,1,2,0:3:0:0:
473,113,72704,1,10,0:0:0:0:
510,214,72992,1,2,0:3:0:0:
436,293,73281,5,4,0:0:0:0:
345,121,73569,1,8,0:0:0:0:
510,214,73762,1,2,0:3:0:0:
510,214,73858,1,4,0:0:0:0:
315,220,74146,1,8,0:0:0:0:
473,113,74339,1,2,0:3:0:0:
473,113,74435,1,4,0:0:0:0:
436,293,74723,1,8,0:0:0:0:
345,121,74916,1,2,0:3:0:0:
345,121,75012,1,4,0:0:0:0:
510,214,75300,1,0,0:0:0:0:
348,299,75589,6,0,B|302:312|264:289|264:289|207:299|207:299|160:244|207:168,1,270.000010299683,2|2,0:3|0:3,0:0:0:0:
229,83,76935,1,2,0:3:0:0:
229,83,77031,2,0,P|198:79|159:89,1,60,0|2,0:0|0:3,0:0:0:0:
139,103,77319,5,10,0:0:0:0:
139,268,77512,1,0,0:0:0:0:
139,268,77608,1,0,0:0:0:0:
43,132,77800,1,0,0:0:0:0:
43,132,77896,5,6,0:0:0:0:
202,185,78185,1,0,0:0:0:0:
41,233,78377,1,2,0:3:0:0:
41,233,78473,1,8,0:0:0:0:
139,103,78762,1,0,0:0:0:0:
285,185,78954,2,0,L|325:185,1,37.5,2|2,0:3|0:0,0:0:0:0:
222,305,79242,1,0,0:0:0:0:
222,305,79339,1,0,0:0:0:0:
116,184,79531,1,0,0:0:0:0:
116,184,79627,1,8,0:0:0:0:
224,75,79916,1,0,0:0:0:0:
308,352,80204,5,2,0:0:0:0:
308,31,80492,1,2,0:3:0:0:
119,290,80781,1,8,0:0:0:0:
424,192,81069,1,2,0:3:0:0:
119,93,81358,1,2,0:0:0:0:
221,225,81646,5,0,0:0:0:0:
217,62,81839,2,0,L|216:21,1,37.5,2|8,0:3|0:0,0:0:0:0:
125,193,82127,1,0,0:0:0:0:
125,193,82223,1,2,0:3:0:0:
277,139,82416,1,0,0:0:0:0:
277,139,82512,5,2,0:0:0:0:
247,305,82800,1,0,0:0:0:0:
190,136,82992,1,2,0:3:0:0:
190,136,83089,1,8,0:0:0:0:
309,245,83377,1,0,0:0:0:0:
161,297,83569,2,0,L|119:296,1,37.5,2|2,0:3|0:0,0:0:0:0:
111,115,83858,1,0,0:0:0:0:
111,115,83954,1,2,0:3:0:0:
221,225,84242,1,8,0:0:0:0:
61,241,84531,1,0,0:0:0:0:
308,31,84819,21,2,0:0:0:0:
308,352,85107,1,2,0:3:0:0:
119,93,85396,1,8,0:0:0:0:
424,192,85684,1,2,0:3:0:0:
119,290,85877,1,2,0:3:0:0:
119,290,85973,1,2,0:0:0:0:
283,107,86262,37,0,0:0:0:0:
283,275,86454,1,2,0:3:0:0:
283,275,86550,1,8,0:0:0:0:
184,140,86839,1,2,0:3:0:0:
344,192,87127,21,6,0:0:0:0:
184,243,87416,1,0,0:0:0:0:
119,93,87608,1,2,0:3:0:0:
119,93,87704,1,8,0:0:0:0:
259,190,87992,1,0,0:0:0:0:
91,177,88185,2,0,L|46:177,1,37.5,2|2,0:3|0:0,0:0:0:0:
235,76,88473,1,0,0:0:0:0:
235,76,88569,1,0,0:0:0:0:
184,243,88762,1,0,0:0:0:0:
184,243,88858,1,8,0:0:0:0:
119,93,89146,1,0,0:0:0:0:
308,352,89435,37,2,0:0:0:0:
308,31,89723,1,2,0:3:0:0:
119,290,90012,1,8,0:0:0:0:
424,192,90300,1,2,0:3:0:0:
119,93,90589,1,2,0:0:0:0:
184,243,90877,5,0,0:0:0:0:
213,84,91069,1,2,0:3:0:0:
213,84,91166,1,8,0:0:0:0:
103,213,91454,1,2,0:3:0:0:
235,318,91742,5,2,0:0:0:0:
347,191,92031,1,0,0:0:0:0:
172,160,92223,1,2,0:3:0:0:
172,160,92319,1,8,0:0:0:0:
235,318,92608,1,0,0:0:0:0:
407,288,92800,1,2,0:3:0:0:
407,288,92896,1,2,0:0:0:0:
362,126,93185,1,2,0:3:0:0:
305,279,93473,1,8,0:0:0:0:
437,192,93762,1,0,0:0:0:0:
276,181,94050,5,2,0:0:0:0:
354,41,94339,1,0,0:0:0:0:
356,207,94531,1,2,0:3:0:0:
356,207,94627,1,8,0:0:0:0:
275,65,94916,1,2,0:3:0:0:
435,67,95108,1,2,0:3:0:0:
435,67,95204,1,2,0:0:0:0:
497,227,95492,1,2,0:3:0:0:
346,321,95781,1,8,0:0:0:0:
219,212,96069,1,2,0:3:0:0:
275,65,96358,21,6,0:0:0:0:
356,207,96646,1,0,0:0:0:0:
209,124,96839,1,2,0:3:0:0:
209,124,96935,1,8,0:0:0:0:
78,216,97223,1,0,0:0:0:0:
141,371,97416,2,0,L|185:371,1,37.5,2|2,0:3|0:0,0:0:0:0:
316,362,97800,1,0,0:0:0:0:
219,212,98089,1,8,0:0:0:0:
78,303,98377,1,0,0:0:0:0:
230,369,98666,21,2,0:0:0:0:
307,200,98954,1,0,0:0:0:0:
149,133,99145,1,2,0:3:0:0:
149,133,99242,1,8,0:0:0:0:
274,278,99531,1,2,0:3:0:0:
275,86,99723,1,2,0:3:0:0:
275,86,99819,1,2,0:0:0:0:
147,214,100012,1,0,0:0:0:0:
147,214,100108,1,0,0:0:0:0:
230,369,100300,1,0,0:0:0:0:
230,369,100396,1,8,0:0:0:0:
403,345,100589,1,0,0:0:0:0:
403,345,100685,1,0,0:0:0:0:
432,173,100973,37,4,0:0:0:0:
309,290,101262,1,0,0:0:0:0:
485,273,101454,1,0,0:0:0:0:
485,273,101550,1,8,0:0:0:0:
325,183,101839,1,0,0:0:0:0:
403,345,102031,1,2,0:3:0:0:
403,345,102127,1,2,0:3:0:0:
234,306,102416,1,2,0:3:0:0:
394,254,102704,1,8,0:0:0:0:
282,377,102992,1,2,0:3:0:0:
325,183,103281,21,2,0:3:0:0:
325,183,103569,2,0,L|399:180,1,60,2|2,0:3|0:3,0:0:0:0:
422,181,103858,1,2,0:3:0:0:
234,306,104146,2,0,L|173:304,1,60,2|2,0:3|0:3,0:0:0:0:
138,304,104435,1,2,0:3:0:0:
71,182,104627,1,2,0:3:0:0:
62,153,104723,2,0,P|57:126|66:86,1,60,2|2,0:3|0:3,0:0:0:0:
73,60,105012,1,8,0:0:0:0:
165,194,105300,1,0,0:0:0:0:
227,44,105589,38,0,P|283:30|301:111,1,150,4|2,0:0|0:3,0:0:0:0:
290,128,106166,1,8,0:0:0:0:
165,194,106454,2,0,P|161:228|172:264,1,60,0|2,0:0|0:3,0:0:0:0:
183,277,106742,2,0,P|222:262|326:279,1,150,2|2,0:3|0:3,0:0:0:0:
347,300,107319,1,10,0:0:0:0:
253,369,107608,1,0,0:0:0:0:
183,277,107896,22,0,P|166:237|182:129,1,150,2|2,0:3|0:3,0:0:0:0:
198,110,108473,1,8,0:0:0:0:
290,60,108666,2,0,L|385:61,1,90,0|0,0:0|0:0,0:0:0:0:
409,61,109050,1,2,0:3:0:0:
498,146,109242,1,2,0:3:0:0:
498,146,109339,1,2,0:3:0:0:
393,201,109531,1,2,0:3:0:0:
393,201,109627,1,10,0:0:0:0:
499,60,109916,1,2,0:3:0:0:
501,240,110204,6,0,P|466:296|374:310,1,150,4|2,0:0|0:3,0:0:0:0:
358,308,110781,1,8,0:0:0:0:
278,168,111069,2,0,P|248:164|209:173,1,60,2|2,0:3|0:3,0:0:0:0:
191,181,111358,2,0,L|202:338,1,150,2|0,0:3|0:0,0:0:0:0:
204,360,111935,1,10,0:0:0:0:
86,242,112223,1,0,0:0:0:0:
184,101,112512,21,12,0:0:0:0:
334,43,112704,1,2,0:3:0:0:
362,34,112800,1,2,0:3:0:0:
335,142,112992,1,0,0:0:0:0:
363,150,113088,1,12,0:0:0:0:
281,229,113281,1,2,0:3:0:0:
299,251,113377,1,2,0:3:0:0:
188,257,113569,1,2,0:3:0:0:
190,285,113665,1,12,0:0:0:0:
86,242,113954,2,0,L|42:312,1,60,2|2,0:3|0:3,0:0:0:0:
38,318,114242,1,14,0:0:0:0:
147,379,114531,1,0,0:0:0:0:
265,329,114819,37,4,0:0:0:0:
367,362,115108,2,0,L|438:360,1,60,0|2,0:0|0:3,0:0:0:0:
462,360,115396,1,0,0:0:0:0:
489,259,115685,2,0,P|494:228|484:195,1,60,0|2,0:0|0:3,0:0:0:0:
472,167,115973,1,2,0:3:0:0:
386,233,116262,1,0,0:0:0:0:
323,35,116550,5,10,0:0:0:0:
340,142,116839,5,0,0:0:0:0:
234,165,117127,1,2,0:3:0:0:
181,74,117416,2,0,P|148:70|114:78,1,60,0|2,0:0|0:3,0:0:0:0:
88,88,117704,1,0,0:0:0:0:
54,190,117992,2,0,L|56:260,1,60,0|2,0:0|0:3,0:0:0:0:
57,286,118281,1,2,0:3:0:0:
140,217,118569,1,0,0:0:0:0:
200,376,118858,37,10,0:0:0:0:
57,286,119146,37,2,0:3:0:0:
223,260,119435,1,2,0:3:0:0:
116,287,119723,2,0,L|46:285,1,60,0|2,0:0|0:3,0:0:0:0:
19,283,120012,1,0,0:0:0:0:
223,260,120300,2,0,L|297:263,1,60,0|2,0:0|0:3,0:0:0:0:
319,265,120589,1,2,0:3:0:0:
413,212,120877,1,0,0:0:0:0:
451,375,121166,5,10,0:0:0:0:
498,278,121454,5,0,0:0:0:0:
413,212,121742,1,0,0:0:0:0:
319,265,122031,1,0,0:0:0:0:
340,367,122223,1,2,0:3:0:0:
340,367,122319,1,8,0:0:0:0:
420,292,122608,1,2,0:3:0:0:
319,265,122800,37,2,0:3:0:0:
319,265,122896,1,2,0:3:0:0:
163,315,123089,1,2,0:3:0:0:
163,315,123185,1,2,0:3:0:0:
257,184,123473,1,10,0:0:0:0:
257,346,123762,1,2,0:3:0:0:
164,219,124050,1,4,0:0:0:0:
80,294,124339,5,0,0:0:0:0:
80,294,124435,2,0,L|81:260,1,30
78,187,124627,1,8,0:0:0:0:
6,109,124916,2,0,P|0:75|6:46,1,60,0|2,0:0|0:3,0:0:0:0:
23,19,125204,1,2,0:3:0:0:
114,80,125492,1,0,0:0:0:0:
208,22,125781,1,10,0:0:0:0:
300,81,126069,1,0,0:0:0:0:
209,141,126358,22,0,P|199:183|211:229,1,90,2|0,0:3|0:0,0:0:0:0:
271,316,126839,1,2,0:3:0:0:
271,316,126935,1,8,0:0:0:0:
378,346,127223,2,0,P|410:352|441:341,1,60,0|2,0:0|0:3,0:0:0:0:
470,331,127512,2,0,L|466:229,1,90,2|0,0:3|0:0,0:0:0:0:
460,113,128089,1,10,0:0:0:0:
359,218,128377,1,2,0:3:0:0:
358,78,128666,38,0,P|320:68|266:80,1,90,2|0,0:3|0:0,0:0:0:0:
213,183,129146,1,2,0:3:0:0:
178,192,129242,2,0,P|131:205|84:190,1,90,8|2,0:0|0:3,0:0:0:0:
24,112,129723,1,2,0:3:0:0:
24,112,129819,1,2,0:3:0:0:
92,194,130108,1,0,0:0:0:0:
20,274,130396,1,10,0:0:0:0:
92,354,130685,1,0,0:0:0:0:
163,272,130973,6,0,P|197:264|260:275,1,90,2|0,0:3|0:0,0:0:0:0:
329,346,131454,1,2,0:3:0:0:
329,346,131550,1,8,0:0:0:0:
416,282,131839,2,0,P|420:252|410:216,1,60,2|2,0:3|0:3,0:0:0:0:
398,190,132127,1,0,0:0:0:0:
316,119,132319,1,2,0:3:0:0:
316,119,132416,1,2,0:3:0:0:
359,21,132704,1,10,0:0:0:0:
451,98,132992,21,0,0:0:0:0:
451,98,133089,1,0,0:0:0:0:
316,119,133281,2,0,P|277:129|225:120,1,90,4|0,0:0|0:0,0:0:0:0:
153,49,133762,37,2,0:3:0:0:
153,49,133858,1,12,0:0:0:0:
77,127,134146,6,0,P|82:161|76:194,1,60,0|2,0:0|0:3,0:0:0:0:
60,217,134435,2,0,P|55:246|64:281,1,60,2|2,0:3|0:3,0:0:0:0:
81,306,134723,1,2,0:3:0:0:
172,363,135012,1,10,0:0:0:0:
235,275,135300,1,0,0:0:0:0:
146,213,135589,5,2,0:3:0:0:
235,275,135877,2,0,P|270:280|302:271,1,60,0|2,0:0|0:3,0:0:0:0:
327,260,136166,1,8,0:0:0:0:
323,115,136454,2,0,P|288:110|256:119,1,60,0|2,0:0|0:3,0:0:0:0:
231,130,136742,2,0,P|200:136|164:127,1,60,2|2,0:3|0:3,0:0:0:0:
141,116,137031,1,2,0:3:0:0:
228,33,137319,1,10,0:0:0:0:
228,33,137608,1,2,0:3:0:0:
323,115,137896,5,2,0:3:0:0:
413,30,138185,2,0,P|447:25|484:33,1,60,0|2,0:0|0:3,0:0:0:0:
505,40,138473,1,8,0:0:0:0:
473,146,138762,2,0,P|470:176|478:216,1,60,0|2,0:0|0:3,0:0:0:0:
491,237,139050,2,0,L|422:235,1,60,2|2,0:3|0:3,0:0:0:0:
394,235,139339,1,2,0:3:0:0:
309,307,139627,1,10,0:0:0:0:
226,235,139916,1,0,0:0:0:0:
142,307,140204,21,2,0:3:0:0:
57,237,140492,2,0,P|50:201|62:166,1,60,0|2,0:0|0:3,0:0:0:0:
69,145,140781,1,8,0:0:0:0:
168,98,141069,2,0,L|233:99,1,60,0|2,0:0|0:3,0:0:0:0:
264,99,141358,2,0,L|331:96,1,60,2|0,0:3|0:0,0:0:0:0:
359,94,141646,1,0,0:0:0:0:
426,188,141839,1,2,0:3:0:0:
426,188,141935,1,10,0:0:0:0:
427,298,142223,1,0,0:0:0:0:
427,298,142319,1,0,0:0:0:0:
358,377,142512,6,0,P|316:385|268:377,1,90,4|0,0:0|0:0,0:0:0:0:
315,281,142992,21,2,0:3:0:0:
315,281,143089,1,12,0:0:0:0:
427,298,143377,37,2,0:3:0:0:
427,298,143473,1,0,0:0:0:0:
485,210,143666,2,0,P|489:180|480:142,1,60,2|2,0:3|0:3,0:0:0:0:
465,121,143954,1,2,0:3:0:0:
375,187,144242,1,10,0:0:0:0:
289,120,144531,1,0,0:0:0:0:
202,187,144819,21,2,0:3:0:0:
110,124,145108,2,0,L|114:187,1,60,0|2,0:0|0:3,0:0:0:0:
116,219,145396,1,8,0:0:0:0:
197,290,145685,2,0,L|196:357,1,60,2|2,0:3|0:3,0:0:0:0:
169,374,145973,2,0,P|138:380|102:375,1,60,2|2,0:3|0:3,0:0:0:0:
75,364,146262,1,2,0:3:0:0:
116,219,146550,1,10,0:0:0:0:
275,211,146839,1,0,0:0:0:0:
346,355,147127,5,2,0:3:0:0:
392,258,147416,2,0,P|395:231|389:197,1,60,0|2,0:0|0:3,0:0:0:0:
374,166,147704,1,8,0:0:0:0:
275,211,147992,2,0,P|242:217|206:210,1,60,2|0,0:3|0:0,0:0:0:0:
185,195,148281,2,0,P|154:191|112:200,1,60,2|2,0:3|0:3,0:0:0:0:
96,214,148569,1,0,0:0:0:0:
53,106,148858,1,10,0:0:0:0:
150,33,149146,1,2,0:3:0:0:
254,99,149435,21,4,0:0:0:0:
96,214,149723,1,8,0:0:0:0:
150,33,149916,1,2,0:3:0:0:
150,33,150012,1,4,0:0:0:0:
215,208,150300,1,8,0:0:0:0:
53,106,150492,1,2,0:3:0:0:
53,106,150589,1,4,0:0:0:0:
254,99,150877,1,8,0:0:0:0:
96,214,151069,1,2,0:3:0:0:
96,214,151166,1,4,0:0:0:0:
150,33,151454,1,0,0:0:0:0:
215,208,151742,6,0,B|254:214|285:205|285:205|313:212|313:212|378:204|378:204|425:211|425:211|370:231,1,270.000010299683,2|2,0:3|0:3,0:0:0:0:
344,336,153089,1,8,0:0:0:0:
344,336,153185,2,0,P|377:339|409:333,1,60,0|0,0:0|0:0,0:0:0:0:
438,325,153473,1,8,0:0:0:0:
512,191,153666,21,0,0:0:0:0:
512,191,153762,1,0,0:0:0:0:
433,56,153954,1,0,0:0:0:0:
433,56,154050,37,6,0:0:0:0:
283,87,154339,1,0,0:0:0:0:
428,153,154531,1,2,0:3:0:0:
428,153,154627,1,8,0:0:0:0:
345,19,154916,1,0,0:0:0:0:
330,162,155108,2,0,L|331:202,1,37.5,2|2,0:3|0:0,0:0:0:0:
166,212,155396,1,0,0:0:0:0:
166,212,155492,1,0,0:0:0:0:
283,87,155685,1,0,0:0:0:0:
283,87,155781,1,8,0:0:0:0:
251,255,156069,1,0,0:0:0:0:
119,93,156358,21,2,0:0:0:0:
308,352,156646,1,2,0:3:0:0:
308,31,156935,1,8,0:0:0:0:
119,290,157223,1,2,0:3:0:0:
424,192,157512,1,2,0:0:0:0:
249,160,157800,5,0,0:0:0:0:
400,87,157992,2,0,L|439:86,1,37.5,2|8,0:3|0:0,0:0:0:0:
318,237,158281,1,0,0:0:0:0:
318,237,158377,1,2,0:3:0:0:
297,68,158569,1,0,0:0:0:0:
297,68,158666,5,2,0:0:0:0:
476,66,158954,1,0,0:0:0:0:
473,256,159146,1,2,0:3:0:0:
473,256,159242,1,8,0:0:0:0:
300,256,159531,1,0,0:0:0:0:
443,165,159723,2,0,L|491:166,1,37.5,2|2,0:3|0:0,0:0:0:0:
378,327,160012,1,0,0:0:0:0:
378,327,160108,1,2,0:3:0:0:
290,174,160396,1,8,0:0:0:0:
218,338,160685,1,0,0:0:0:0:
308,31,160973,21,2,0:0:0:0:
308,352,161261,1,2,0:3:0:0:
119,93,161550,1,8,0:0:0:0:
424,192,161838,1,2,0:3:0:0:
119,290,162031,1,2,0:3:0:0:
119,290,162127,1,2,0:0:0:0:
283,106,162416,5,2,0:3:0:0:
283,277,162608,1,2,0:3:0:0:
283,277,162704,1,8,0:0:0:0:
182,139,162993,1,2,0:3:0:0:
345,192,163281,5,6,0:0:0:0:
182,244,163570,1,0,0:0:0:0:
132,80,163762,1,2,0:3:0:0:
132,80,163858,1,8,0:0:0:0:
308,31,164146,1,0,0:0:0:0:
345,192,164339,2,0,L|345:235,1,37.5,2|2,0:3|0:0,0:0:0:0:
404,36,164627,1,0,0:0:0:0:
404,36,164723,1,0,0:0:0:0:
282,127,164916,1,0,0:0:0:0:
282,127,165012,1,8,0:0:0:0:
424,192,165300,1,0,0:0:0:0:
119,290,165589,21,2,0:0:0:0:
308,31,165877,1,2,0:3:0:0:
308,348,166166,1,8,0:0:0:0:
119,93,166454,1,2,0:3:0:0:
424,192,166743,1,2,0:0:0:0:
233,124,167031,5,0,0:0:0:0:
423,71,167223,1,2,0:3:0:0:
423,71,167319,1,8,0:0:0:0:
305,220,167608,1,2,0:3:0:0:
308,31,167896,21,2,0:0:0:0:
121,34,168185,1,0,0:0:0:0:
120,217,168377,1,2,0:3:0:0:
120,217,168473,1,8,0:0:0:0:
38,79,168762,1,0,0:0:0:0:
208,79,168954,1,2,0:3:0:0:
208,79,169050,1,2,0:0:0:0:
37,173,169339,1,2,0:3:0:0:
121,34,169627,1,8,0:0:0:0:
207,175,169916,1,0,0:0:0:0:
36,267,170204,37,2,0:0:0:0:
121,126,170492,1,0,0:0:0:0:
205,269,170685,1,2,0:3:0:0:
205,269,170781,1,8,0:0:0:0:
37,173,171069,1,2,0:3:0:0:
207,175,171262,1,2,0:3:0:0:
207,175,171358,1,2,0:0:0:0:
119,323,171646,1,2,0:3:0:0:
121,155,171935,1,8,0:0:0:0:
291,158,172223,1,2,0:3:0:0:
293,327,172512,37,6,0:0:0:0:
148,237,172800,1,0,0:0:0:0:
240,89,172992,1,2,0:3:0:0:
240,89,173089,1,8,0:0:0:0:
388,186,173377,1,0,0:0:0:0:
293,327,173569,2,0,L|250:327,1,37.5,2|2,0:3|0:0,0:0:0:0:
92,249,173954,1,0,0:0:0:0:
106,80,174242,1,8,0:0:0:0:
284,40,174531,1,0,0:0:0:0:
244,202,174819,21,2,0:0:0:0:
183,48,175108,1,0,0:0:0:0:
328,140,175300,1,2,0:3:0:0:
328,140,175396,1,8,0:0:0:0:
155,142,175685,1,0,0:0:0:0:
289,286,175877,1,0,0:0:0:0:
289,286,175973,1,2,0:0:0:0:
418,181,176166,1,0,0:0:0:0:
418,181,176262,1,0,0:0:0:0:
349,38,176454,1,0,0:0:0:0:
349,38,176550,1,8,0:0:0:0:
183,48,176742,1,0,0:0:0:0:
183,48,176838,1,0,0:0:0:0:
152,202,177127,37,4,0:0:0:0:
291,124,177416,1,0,0:0:0:0:
289,286,177608,1,2,0:3:0:0:
289,286,177704,1,8,0:0:0:0:
129,287,177992,1,0,0:0:0:0:
131,124,178185,1,2,0:3:0:0:
131,124,178281,1,2,0:3:0:0:
222,255,178569,1,2,0:3:0:0:
69,208,178858,1,8,0:0:0:0:
223,161,179146,1,2,0:3:0:0:
222,356,179435,21,2,0:3:0:0:
222,356,179723,2,0,P|183:363|153:353,1,60,2|2,0:3|0:3,0:0:0:0:
129,345,180012,1,2,0:3:0:0:
131,124,180300,2,0,P|170:117|200:127,1,60,2|2,0:3|0:3,0:0:0:0:
221,141,180589,1,2,0:3:0:0:
338,249,180781,1,2,0:3:0:0:
337,285,180877,2,0,L|335:360,1,60,2|2,0:3|0:3,0:0:0:0:
335,381,181166,1,8,0:0:0:0:
449,260,181454,1,2,0:3:0:0:
338,137,181742,21,6,0:0:0:0:
333,241,190396,37,10,0:0:0:0:
333,241,190973,6,0,L|261:245,1,60,4|0,0:0|0:0,0:0:0:0:
236,245,191262,1,0,0:0:0:0:
169,161,191454,1,2,0:3:0:0:
156,127,191550,2,0,L|158:32,1,90,8|2,0:0|0:3,0:0:0:0:
60,91,192031,1,2,0:3:0:0:
61,126,192127,2,0,L|63:200,1,60,2|2,0:3|0:3,0:0:0:0:
63,222,192416,1,2,0:3:0:0:
5,313,192704,1,10,0:0:0:0:
91,376,192992,1,0,0:0:0:0:
156,289,193281,6,0,P|198:280|248:293,1,90,2|0,0:3|0:0,0:0:0:0:
329,219,193762,1,2,0:3:0:0:
338,184,193858,2,0,P|347:140|330:86,1,90,8|2,0:0|0:3,0:0:0:0:
249,32,194339,1,2,0:3:0:0:
213,33,194435,2,0,L|149:36,1,60,2|2,0:3|0:3,0:0:0:0:
117,36,194723,1,2,0:3:0:0:
174,127,195012,2,0,P|216:136|270:120,1,90,10|0,0:0|0:0,0:0:0:0:
351,65,195589,38,0,P|394:54|438:63,1,90,2|0,0:3|0:0,0:0:0:0:
490,158,196069,1,2,0:3:0:0:
488,194,196166,2,0,L|484:289,1,90,8|2,0:0|0:3,0:0:0:0:
402,353,196646,1,2,0:3:0:0:
367,361,196742,2,0,P|333:368|305:362,1,60,2|2,0:3|0:3,0:0:0:0:
275,347,197031,1,2,0:3:0:0:
232,247,197319,1,10,0:0:0:0:
338,263,197608,1,0,0:0:0:0:
275,347,197896,6,0,L|168:342,1,90,2|0,0:3|0:0,0:0:0:0:
108,264,198377,1,2,0:3:0:0:
94,230,198473,2,0,P|82:187|95:134,1,90,8|0,0:0|0:0,0:0:0:0:
163,62,198954,1,2,0:3:0:0:
163,62,199050,1,2,0:3:0:0:
235,144,199242,1,2,0:3:0:0:
235,144,199339,1,2,0:3:0:0:
307,61,199627,1,10,0:0:0:0:
307,61,199916,1,2,0:3:0:0:
235,144,200204,22,0,L|243:240,1,90,4|0,0:0|0:0,0:0:0:0:
485,233,200685,1,2,0:3:0:0:
485,233,200781,2,0,L|491:141,1,90,12|0,0:0|0:0,0:0:0:0:
307,61,201262,1,2,0:3:0:0:
307,61,201358,2,0,L|229:59,1,60,4|2,0:0|0:3,0:0:0:0:
211,56,201646,1,2,0:3:0:0:
108,219,201935,2,0,P|101:258|114:311,1,90,12|0,0:0|0:0,0:0:0:0:
128,85,202512,37,4,0:0:0:0:
30,289,202800,1,2,0:0:0:0:
209,148,202992,1,2,0:3:0:0:
209,148,203089,1,12,0:0:0:0:
0,201,203377,1,2,0:0:0:0:
229,241,203569,1,2,0:3:0:0:
229,241,203666,1,4,0:0:0:0:
39,122,203954,1,2,0:0:0:0:
173,313,204242,1,10,0:0:0:0:
128,85,204531,1,2,0:0:0:0:
30,289,204819,21,6,0:0:0:0:
30,289,206262,1,2,0:3:0:0:
122,148,206550,53,8,0:0:0:0:
264,240,206742,1,0,0:0:0:0:
264,240,206839,1,2,0:1:0:0:
170,375,207031,1,0,0:0:0:0:
170,375,207127,5,6,0:0:0:0:
104,233,207416,1,0,0:0:0:0:
247,151,207608,1,2,0:3:0:0:
247,151,207704,1,8,0:0:0:0:
316,297,207992,1,0,0:0:0:0:
170,235,208185,2,0,L|130:233,1,37.5,2|2,0:3|0:0,0:0:0:0:
105,51,208473,1,0,0:0:0:0:
105,51,208569,1,0,0:0:0:0:
247,151,208762,1,0,0:0:0:0:
247,151,208858,1,8,0:0:0:0:
57,159,209146,1,0,0:0:0:0:
308,31,209435,5,2,0:0:0:0:
308,352,209723,1,2,0:3:0:0:
119,93,210012,1,8,0:0:0:0:
424,192,210300,1,2,0:3:0:0:
119,290,210589,1,2,0:0:0:0:
186,145,210877,5,0,0:0:0:0:
221,304,211069,2,0,L|222:352,1,37.5,2|8,0:3|0:0,0:0:0:0:
101,194,211358,1,0,0:0:0:0:
101,194,211454,1,2,0:3:0:0:
257,212,211646,1,0,0:0:0:0:
257,212,211742,5,2,0:0:0:0:
190,67,212031,1,0,0:0:0:0:
178,229,212223,1,2,0:3:0:0:
178,229,212319,1,8,0:0:0:0:
272,98,212608,1,0,0:0:0:0:
119,93,212800,2,0,L|76:91,1,37.5,2|2,0:3|0:0,0:0:0:0:
36,266,213089,1,0,0:0:0:0:
36,266,213185,1,2,0:3:0:0:
199,298,213473,1,8,0:0:0:0:
234,124,213762,1,0,0:0:0:0:
308,352,214050,21,2,0:0:0:0:
308,31,214338,1,2,0:3:0:0:
119,290,214627,1,8,0:0:0:0:
424,192,214915,1,2,0:3:0:0:
119,93,215108,1,2,0:3:0:0:
119,93,215204,1,2,0:0:0:0:
283,276,215492,37,0,0:0:0:0:
283,106,215685,1,2,0:3:0:0:
283,106,215780,1,8,0:0:0:0:
183,243,216069,1,0,0:0:0:0:
344,192,216357,21,6,0:0:0:0:
183,139,216646,1,0,0:0:0:0:
213,317,216839,1,2,0:3:0:0:
213,317,216935,1,8,0:0:0:0:
383,289,217223,1,0,0:0:0:0:
366,108,217416,2,0,L|365:56,1,37.5,2|2,0:3|0:0,0:0:0:0:
259,190,217704,1,0,0:0:0:0:
259,190,217800,1,0,0:0:0:0:
424,192,217992,1,0,0:0:0:0:
424,192,218089,1,8,0:0:0:0:
283,107,218377,1,0,0:0:0:0:
308,352,218666,37,2,0:0:0:0:
308,31,218954,1,2,0:3:0:0:
119,290,219243,1,8,0:0:0:0:
424,192,219531,1,2,0:3:0:0:
119,93,219820,1,2,0:0:0:0:
216,223,220108,21,0,0:0:0:0:
217,62,220300,1,2,0:3:0:0:
217,62,220396,1,8,0:0:0:0:
119,194,220685,1,2,0:3:0:0:
279,140,220973,5,2,0:0:0:0:
274,308,221262,1,0,0:0:0:0:
380,180,221454,1,2,0:3:0:0:
380,180,221550,1,8,0:0:0:0:
216,223,221839,1,0,0:0:0:0:
372,277,222031,1,2,0:3:0:0:
372,277,222127,1,2,0:0:0:0:
279,140,222416,1,0,0:0:0:0:
274,308,222704,1,8,0:0:0:0:
101,300,222992,1,0,0:0:0:0:
106,133,223281,21,2,0:0:0:0:
303,224,223569,1,0,0:0:0:0:
184,337,223762,1,2,0:3:0:0:
184,337,223858,1,8,0:0:0:0:
65,218,224146,1,2,0:3:0:0:
193,104,224339,1,2,0:3:0:0:
193,104,224435,1,2,0:0:0:0:
186,300,224723,1,2,0:3:0:0:
193,104,225012,1,8,0:0:0:0:
186,300,225300,1,2,0:3:0:0:
313,146,225589,5,6,0:0:0:0:
113,199,225877,1,0,0:0:0:0:
305,265,226069,1,2,0:3:0:0:
305,265,226166,1,8,0:0:0:0:
111,318,226454,1,0,0:0:0:0:
111,120,226646,2,0,L|111:79,1,37.5,2|2,0:3|0:0,0:0:0:0:
186,300,227031,1,0,0:0:0:0:
35,158,227319,1,8,0:0:0:0:
185,157,227608,1,0,0:0:0:0:
35,300,227896,5,2,0:0:0:0:
206,227,228185,1,0,0:0:0:0:
111,120,228377,1,2,0:3:0:0:
111,120,228473,1,8,0:0:0:0:
6,229,228762,1,0,0:0:0:0:
111,318,228954,1,2,0:3:0:0:
111,318,229050,1,2,0:0:0:0:
262,318,229242,1,0,0:0:0:0:
262,318,229338,1,0,0:0:0:0:
310,175,229531,1,0,0:0:0:0:
310,175,229627,1,8,0:0:0:0:
186,91,229819,1,0,0:0:0:0:
186,91,229915,1,0,0:0:0:0:
60,177,230204,21,4,0:0:0:0:
111,318,230492,1,0,0:0:0:0:
209,198,230685,1,2,0:3:0:0:
209,198,230781,1,8,0:0:0:0:
47,260,231069,1,0,0:0:0:0:
196,287,231262,1,2,0:3:0:0:
196,287,231358,1,0,0:0:0:0:
142,146,231646,1,2,0:3:0:0:
111,318,231935,1,8,0:0:0:0:
274,351,232223,1,2,0:3:0:0:
318,172,232512,38,0,P|322:140|312:104,1,60,4|0,2:0|2:0,2:0:0:0:
290,88,232800,2,0,L|222:90,1,60,2|2,2:3|2:3,2:0:0:0:
195,91,233089,1,8,2:0:0:0:
98,225,233377,2,0,P|94:250|101:292,1,60,2|2,2:3|2:3,2:0:0:0:
111,318,233666,1,2,2:3:0:0:
274,351,233858,1,2,2:3:0:0:
310,349,233954,2,0,L|383:348,1,60,2|2,2:3|2:3,2:0:0:0:
403,335,234242,2,0,P|412:291|397:237,1,90,8|0,2:0|2:0,2:0:0:0:
256,154,234819,5,2,2:0:0:0:
256,192,234916,12,0,237127,0:0:0:0:
