osu file format v14

[General]
AudioFilename: Boo - Apink.mp3
AudioLeadIn: 0
PreviewTime: 99674
Countdown: 0
SampleSet: Soft
StackLeniency: 0.7
Mode: 0
LetterboxInBreaks: 0
EpilepsyWarning: 1
WidescreenStoryboard: 1

[Editor]
Bookmarks: 128229,135341
DistanceSpacing: 0.5
BeatDivisor: 4
GridSize: 4
TimelineZoom: 1

[Metadata]
Title:Boo
TitleUnicode:Boo
Artist:Apink
ArtistUnicode:Apink
Creator:P A N
Version:Only you <3
Source:
Tags:박초롱 윤보미 정은지 손나은 김남주 오하영 에이핑크 홍유경 kpop A-cube Entertainment park cho rong yoon bomi jeong eun ji son na eun kim nam joo oh ha young hong yoo kyung p_a_n
BeatmapID:841068
BeatmapSetID:384978

[Difficulty]
HPDrainRate:7
CircleSize:4
OverallDifficulty:8
ApproachRate:9
SliderMultiplier:1.9
SliderTickRate:1

[Events]
//Background and Video events
0,0,"bg.jpg",0,0
//Break Periods
2,128419,134731
//Storyboard Layer 0 (Background)
//Storyboard Layer 1 (Fail)
//Storyboard Layer 2 (Pass)
//Storyboard Layer 3 (Foreground)
//Storyboard Sound Samples

[TimingPoints]
220,444.444444444444,4,2,1,70,1,0
14442,-133.333333333333,4,2,1,60,0,0
27775,-66.6666666666667,4,2,1,80,0,0
28664,-100,4,2,1,80,0,0
41108,-66.6666666666667,4,2,1,80,0,0
41997,-133.333333333333,4,2,1,80,0,0
42886,-100,4,2,1,90,0,1
49997,-66.6666666666667,4,2,2,90,0,1
53108,-100,4,2,1,90,0,1
53553,-66.6666666666667,4,2,2,90,0,1
55775,-100,4,2,1,90,0,0
57108,-100,4,2,1,90,0,1
64219,-66.6666666666667,4,2,2,90,0,1
67331,-100,4,2,1,90,0,1
71331,-100,4,2,1,60,0,0
73997,-133.333333333333,4,2,1,60,0,0
85553,-100,4,2,1,80,0,0
97997,-66.6666666666667,4,2,1,80,0,0
98886,-133.333333333333,4,2,1,80,0,0
99775,-100,4,2,1,90,0,1
106886,-66.6666666666667,4,2,2,90,0,1
112664,-100,4,2,1,90,0,0
113997,-100,4,2,1,90,0,1
121108,-66.6666666666667,4,2,2,90,0,1
124219,-100,4,2,1,90,0,1
128219,-100,4,2,1,80,0,0
141553,-133.333333333333,4,2,1,80,0,0
143331,-100,4,2,1,80,0,0
153553,-66.6666666666667,4,2,1,80,0,0
153997,-100,4,2,1,80,0,0
154442,-66.6666666666667,4,2,1,80,0,0
155331,-100,4,2,1,80,0,0
156664,-100,4,2,1,90,0,1
167331,-66.6666666666667,4,2,2,90,0,1
170886,-71.4285714285714,4,2,1,90,0,0

[Colours]
Combo1 : 255,255,128
Combo2 : 255,193,224
Combo3 : 100,100,255
Combo4 : 255,32,94
SliderBorder : 255,255,0

[HitObjects]
255,274,220,5,2,0:3:0:0:
227,295,331,1,0,0:0:0:0:
201,319,442,1,0,0:0:0:0:
174,341,553,1,0,0:0:0:0:
147,367,664,1,0,0:3:0:0:
162,326,775,1,0,0:0:0:0:
172,292,886,1,0,0:0:0:0:
182,258,997,1,0,0:0:0:0:
193,227,1108,5,2,0:3:0:0:
163,208,1219,1,0,0:0:0:0:
133,189,1331,1,0,0:0:0:0:
103,170,1442,1,0,0:0:0:0:
76,155,1553,1,0,0:3:0:0:
110,155,1664,1,0,0:0:0:0:
144,155,1775,1,0,0:0:0:0:
178,155,1886,1,0,0:0:0:0:
212,154,1997,5,2,0:3:0:0:
223,120,2108,1,0,0:0:0:0:
235,87,2219,1,0,0:0:0:0:
246,53,2331,1,0,0:0:0:0:
255,21,2442,1,0,0:3:0:0:
266,53,2553,1,0,0:0:0:0:
277,87,2665,1,0,0:0:0:0:
289,120,2776,1,0,0:0:0:0:
300,154,2887,5,2,0:3:0:0:
334,155,2998,1,0,0:0:0:0:
368,155,3109,1,0,0:0:0:0:
402,155,3220,1,0,0:0:0:0:
436,155,3331,1,0,0:3:0:0:
409,170,3442,1,0,0:0:0:0:
379,189,3553,1,0,0:0:0:0:
349,208,3665,1,0,0:0:0:0:
319,227,3776,5,2,0:3:0:0:
330,258,3887,1,0,0:0:0:0:
340,292,3998,1,0,0:0:0:0:
350,326,4109,1,0,0:0:0:0:
365,367,4220,1,0,0:3:0:0:
338,341,4331,1,0,0:0:0:0:
311,319,4442,1,0,0:0:0:0:
285,295,4553,1,0,0:0:0:0:
257,274,4664,5,2,0:3:0:0:
227,295,4775,1,0,0:0:0:0:
201,319,4886,1,0,0:0:0:0:
174,341,4997,1,0,0:0:0:0:
147,367,5108,1,0,0:0:0:0:
114,358,5219,1,0,0:0:0:0:
84,341,5331,1,0,0:0:0:0:
58,320,5442,1,0,0:0:0:0:
35,295,5553,5,2,0:3:0:0:
20,265,5664,1,0,0:0:0:0:
10,233,5775,1,0,0:0:0:0:
2,200,5886,1,0,0:0:0:0:
0,166,5997,1,0,0:0:0:0:
3,132,6108,1,0,0:0:0:0:
14,100,6219,1,0,0:0:0:0:
31,71,6331,1,0,0:0:0:0:
55,49,6442,5,2,0:3:0:0:
85,36,6553,1,0,0:0:0:0:
118,34,6664,1,0,0:0:0:0:
150,38,6775,1,0,0:0:0:0:
180,50,6886,1,0,0:0:0:0:
205,71,6997,1,0,0:0:0:0:
229,93,7108,1,0,0:0:0:0:
246,121,7219,1,0,0:0:0:0:
255,153,7331,5,2,0:3:0:0:
266,121,7442,1,0,0:0:0:0:
283,93,7553,1,0,0:0:0:0:
307,71,7664,1,0,0:0:0:0:
332,50,7775,1,0,0:0:0:0:
362,38,7886,1,0,0:0:0:0:
394,34,7997,1,0,0:0:0:0:
427,36,8108,1,0,0:0:0:0:
457,49,8219,5,2,0:3:0:0:
481,71,8330,1,0,0:0:0:0:
498,100,8442,1,0,0:0:0:0:
509,132,8553,1,0,0:0:0:0:
512,166,8664,1,0,0:0:0:0:
510,200,8775,1,0,0:0:0:0:
502,233,8886,1,0,0:0:0:0:
492,265,8997,1,0,0:0:0:0:
477,295,9108,5,2,0:3:0:0:
454,320,9219,1,0,0:0:0:0:
428,341,9330,1,0,0:0:0:0:
398,358,9442,1,0,0:0:0:0:
365,367,9553,1,0,0:0:0:0:
335,351,9664,1,0,0:0:0:0:
317,323,9775,1,0,0:0:0:0:
306,291,9886,1,0,0:0:0:0:
304,257,9997,5,2,0:3:0:0:
309,224,10108,1,0,0:0:0:0:
322,193,10219,1,0,0:0:0:0:
339,164,10331,1,0,0:0:0:0:
359,137,10442,1,0,0:0:0:0:
379,110,10553,1,0,0:0:0:0:
391,79,10664,1,0,0:0:0:0:
393,45,10775,1,0,0:0:0:0:
386,11,10886,5,2,0:3:0:0:
338,13,10997,1,0,0:0:0:0:
290,16,11108,1,0,0:0:0:0:
242,19,11219,1,0,0:0:0:0:
194,22,11331,1,0,0:0:0:0:
146,25,11442,1,0,0:0:0:0:
98,28,11553,1,0,0:0:0:0:
50,32,11664,1,0,0:0:0:0:
7,10,11775,5,2,0:3:0:0:
9,58,11886,1,0,0:0:0:0:
12,106,11997,1,0,0:0:0:0:
15,154,12108,1,0,0:0:0:0:
18,202,12220,1,0,0:0:0:0:
21,250,12331,1,0,0:0:0:0:
24,298,12442,1,0,0:0:0:0:
28,346,12553,1,0,0:0:0:0:
3,379,12664,5,2,0:3:0:0:
51,377,12775,1,0,0:0:0:0:
99,374,12886,1,0,0:0:0:0:
147,371,12997,1,0,0:0:0:0:
195,368,13109,1,0,0:0:0:0:
243,365,13220,1,0,0:0:0:0:
291,362,13331,1,0,0:0:0:0:
339,358,13442,1,0,0:0:0:0:
380,384,13553,5,2,0:3:0:0:
378,336,13664,1,0,0:0:0:0:
376,288,13775,1,0,0:0:0:0:
373,240,13886,1,0,0:0:0:0:
370,192,13997,1,0,0:0:0:0:
367,144,14109,1,0,0:0:0:0:
364,96,14220,1,0,0:0:0:0:
361,48,14331,1,0,0:0:0:0:
402,18,14442,6,0,P|392:69|308:51,1,142.500005435944,2|0,0:3|0:0,0:0:0:0:
218,26,15108,1,0,0:0:0:0:
173,115,15331,2,0,B|162:187|162:187|177:260,1,142.500005435944,2|0,0:3|0:0,0:0:0:0:
431,353,16219,6,0,P|476:333|372:309,1,285.000010871888,2|2,0:3|0:3,0:0:0:0:
177,349,17997,5,2,0:3:0:0:
155,216,18219,1,0,0:0:0:0:
91,337,18442,1,0,0:0:0:0:
218,276,18664,1,0,0:0:0:0:
78,254,18886,2,0,P|63:207|79:112,1,142.500005435944,2|0,0:3|0:0,0:0:0:0:
236,51,19775,6,0,P|251:98|235:193,1,142.500005435944,2|0,0:3|0:0,0:0:0:0:
419,250,20664,2,0,P|404:203|420:108,1,142.500005435944,2|0,0:3|0:0,0:0:0:0:
477,338,21553,6,0,B|424:362|369:339|369:339|317:318|257:341,1,213.750008153916,2|0,0:3|0:0,0:0:0:0:
268,336,22442,2,0,B|219:354|167:333|167:333|112:310|59:334,1,213.750008153916,2|0,0:3|0:0,0:0:0:0:
60,334,23331,6,0,B|24:267|57:195|57:195|96:119|52:49,1,285.000010871888,2|2,0:3|0:3,0:0:0:0:
58,60,24664,1,0,0:0:0:0:
256,373,25108,5,2,0:3:0:0:
362,44,25553,1,0,0:0:0:0:
83,248,25997,1,2,0:3:0:0:
428,248,26442,1,0,0:0:0:0:
149,44,26886,1,2,0:3:0:0:
149,44,27775,6,0,P|138:118|178:35,1,285.000010871888,12|0,0:0|0:0,0:0:0:0:
449,328,28664,5,2,0:0:0:0:
368,183,28886,1,0,0:0:0:0:
350,346,29108,1,2,0:0:0:0:
469,224,29331,1,0,0:0:0:0:
301,257,29553,2,0,L|200:254,1,95,2|0,0:0|0:0,0:0:0:0:
103,59,29997,6,0,P|96:112|106:158,1,95,2|0,0:0|0:0,0:0:0:0:
206,347,30442,2,0,P|213:294|204:248,1,95,2|0,0:0|0:0,0:0:0:0:
103,59,30886,6,0,P|50:52|4:62,1,95,2|0,0:0|0:0,0:0:0:0:
205,253,31331,2,0,P|258:260|304:251,1,95,2|0,0:0|0:0,0:0:0:0:
483,79,31775,2,0,L|485:178,1,95,2|0,0:0|0:0,0:0:0:0:
233,98,32219,5,2,0:0:0:0:
298,252,32442,1,0,0:0:0:0:
336,93,32664,1,2,0:0:0:0:
209,198,32886,1,0,0:0:0:0:
376,184,33108,2,0,P|422:210|448:255,1,95,2|0,0:0|0:0,0:0:0:0:
193,96,33553,2,0,P|191:49|211:6,1,95,2|0,0:0|0:0,0:0:0:0:
206,294,33997,2,0,P|167:320|120:324,1,95,2|0,0:0|0:0,0:0:0:0:
14,140,34442,2,0,L|15:45,1,95,2|0,0:0|0:0,0:0:0:0:
206,199,34886,6,0,L|205:294,1,95,2|0,0:0|0:0,0:0:0:0:
402,150,35331,2,0,L|403:55,1,95,2|0,0:0|0:0,0:0:0:0:
488,270,35775,6,0,L|487:317,4,47.5,2|0|0|0|2,0:0|0:0|0:0|0:0|0:0,0:0:0:0:
402,150,36442,1,0,0:0:0:0:
323,264,36664,6,0,P|303:272|275:275,3,47.5,2|0|0|0,0:0|0:0|0:0|0:0,0:0:0:0:
176,267,37108,2,0,P|179:245|190:219,3,47.5,2|0|0|0,0:0|0:0|0:0|0:0,0:0:0:0:
245,140,37553,2,0,P|261:153|278:176,3,47.5,2|0|0|0,0:0|0:0|0:0|0:0,0:0:0:0:
323,264,37997,2,0,L|316:362,1,95,2|0,0:0|0:0,0:0:0:0:
400,149,38442,1,2,0:0:0:0:
245,140,38664,6,0,L|196:142,1,47.5
114,198,38886,2,0,L|112:149,1,47.5,2|0,0:0|0:0,0:0:0:0:
55,70,39108,2,0,L|104:68,1,47.5
185,13,39331,6,0,L|186:60,3,47.5,2|0|0|0,0:0|0:0|0:0|0:0,0:0:0:0:
327,13,39775,2,0,L|325:60,3,47.5,2|0|0|0,0:0|0:0|0:0|0:0,0:0:0:0:
202,97,40219,6,0,L|154:101,3,47.5,2|0|0|0,0:0|0:0|0:0|0:0,0:0:0:0:
310,97,40664,2,0,L|357:101,3,47.5,2|0|0|0,0:0|0:0|0:0|0:0,0:0:0:0:
195,176,41108,6,0,P|258:355|317:174,1,498.750019025803,4|0,0:0|0:0,0:0:0:0:
316,224,41997,6,0,P|311:283|201:216,1,249.375009512902,6|0,0:0|0:0,0:0:0:0:
356,187,42886,6,0,L|455:193,1,95,6|0,0:0|0:0,0:0:0:0:
156,187,43331,2,0,L|57:193,1,95,8|0,0:0|0:0,0:0:0:0:
406,112,43775,6,0,L|505:118,1,95,2|0,0:0|0:0,0:0:0:0:
106,112,44219,2,0,L|7:118,1,95,8|0,0:0|0:0,0:0:0:0:
256,46,44664,5,2,0:0:0:0:
255,337,44886,1,0,0:0:0:0:
106,112,45108,1,8,0:0:0:0:
406,112,45331,1,0,0:0:0:0:
151,289,45553,2,0,P|140:335|150:382,1,95,2|0,0:0|0:0,0:0:0:0:
362,380,45997,2,0,P|371:334|361:289,1,95,8|0,0:0|0:0,0:0:0:0:
255,23,46442,5,2,0:0:0:0:
151,289,46664,1,0,0:0:0:0:
406,112,46886,1,8,0:0:0:0:
106,112,47108,1,0,0:0:0:0:
360,288,47331,6,0,B|407:294|407:294|454:288,1,95,2|0,0:0|0:0,0:0:0:0:
255,23,47775,2,0,L|256:134,1,95,8|0,0:0|0:0,0:0:0:0:
151,289,48219,2,0,B|104:295|104:295|57:289,1,95,2|0,0:0|0:0,0:0:0:0:
60,39,48664,2,0,B|107:33|107:33|154:39,1,95,8|0,0:0|0:0,0:0:0:0:
254,248,49108,5,2,0:0:0:0:
254,248,49219,1,0,3:0:0:0:
254,248,49331,1,0,0:0:0:0:
362,136,49553,1,8,0:0:0:0:
255,23,49775,1,0,0:0:0:0:
0,119,49997,6,0,B|-5:250|-5:250|25:294|98:275|109:211|60:197|60:197|108:181|104:113|35:118,1,427.500016307831,2|0,0:0|0:0,0:0:0:0:
171,306,50886,2,0,P|259:333|160:281,1,427.500016307831,2|0,0:0|0:0,0:0:0:0:
377,228,51775,2,0,P|465:255|366:203,1,427.500016307831,2|0,0:0|0:0,0:0:0:0:
362,351,52664,1,2,0:0:0:0:
362,351,52775,1,0,3:0:0:0:
362,351,52886,1,0,0:0:0:0:
150,351,53108,2,0,L|52:352,1,95,8|0,0:0|0:0,0:0:0:0:
0,229,53553,6,0,B|-4:99|-4:99|25:55|98:74|109:138|60:152|60:152|108:168|104:236|38:231,1,427.500016307831,2|0,0:0|0:0,0:0:0:0:
171,43,54442,2,0,P|301:110|158:76,1,427.500016307831,2|0,0:0|0:0,0:0:0:0:
415,114,55331,2,0,P|463:157|374:155,1,213.750008153916,6|0,0:0|0:0,0:0:0:0:
336,241,55775,6,0,P|375:267|421:276,1,95,6|0,0:0|0:0,0:0:0:0:
506,76,56219,2,0,P|466:49|420:40,1,95,6|0,0:0|0:0,0:0:0:0:
255,168,56664,6,0,L|260:228,1,47.5,6|2,0:0|0:0,0:0:0:0:
158,76,56886,2,0,L|163:26,1,47.5,2|2,0:0|0:0,0:0:0:0:
73,174,57108,6,0,L|77:280,1,95,6|0,0:0|0:0,0:0:0:0:
439,174,57553,2,0,L|435:280,1,95,8|0,0:0|0:0,0:0:0:0:
123,346,57997,6,0,P|77:355|25:345,1,95,2|0,0:0|0:0,0:0:0:0:
389,346,58442,2,0,P|435:355|487:345,1,95,8|0,0:0|0:0,0:0:0:0:
256,46,58886,5,2,0:0:0:0:
255,331,59108,1,0,0:0:0:0:
112,87,59331,1,8,0:0:0:0:
400,87,59553,1,0,0:0:0:0:
133,167,59775,2,0,P|80:165|44:138,1,95,2|0,0:0|0:0,0:0:0:0:
379,167,60219,2,0,P|432:165|468:138,1,95,8|0,0:0|0:0,0:0:0:0:
256,378,60664,5,2,0:0:0:0:
112,87,60886,1,0,0:0:0:0:
419,271,61108,1,8,0:0:0:0:
93,271,61331,1,0,0:0:0:0:
400,87,61553,6,0,B|428:60|428:60|450:57|450:57|485:27,1,95,2|0,0:0|0:0,0:0:0:0:
256,283,61997,2,0,L|256:382,1,95,8|0,0:0|0:0,0:0:0:0:
112,87,62442,2,0,B|84:60|84:60|62:57|62:57|27:27,1,95,2|0,0:0|0:0,0:0:0:0:
365,298,62886,2,0,B|393:325|393:325|415:328|415:328|450:358,1,95,8|0,0:0|0:0,0:0:0:0:
256,118,63331,5,2,0:0:0:0:
256,118,63442,1,0,3:0:0:0:
256,118,63553,1,0,0:0:0:0:
365,298,63775,1,8,0:0:0:0:
147,298,63997,1,0,0:0:0:0:
0,168,64219,6,0,B|-5:37|-5:37|25:-7|98:12|109:76|60:90|60:90|108:106|104:174|35:169,1,427.500016307831,2|0,0:0|0:0,0:0:0:0:
176,231,65108,2,0,P|264:258|165:206,1,427.500016307831,2|0,0:0|0:0,0:0:0:0:
383,147,65997,2,0,P|471:174|372:122,1,427.500016307831,2|0,0:0|0:0,0:0:0:0:
371,310,66886,1,2,0:0:0:0:
371,310,66997,1,0,3:0:0:0:
371,310,67108,1,0,0:0:0:0:
255,124,67331,2,0,L|255:29,1,95,8|0,0:0|0:0,0:0:0:0:
141,310,67775,6,0,P|93:319|41:312,1,95,2|0,0:0|0:0,0:0:0:0:
369,215,68219,2,0,P|417:206|469:213,1,95,8|0,0:0|0:0,0:0:0:0:
76,120,68664,6,0,B|69:74|69:74|74:18,1,95,2|0,0:0|0:0,0:0:0:0:
438,25,69108,2,0,B|443:74|443:74|436:120,1,95,8|0,0:0|0:0,0:0:0:0:
256,375,69553,5,6,0:0:0:0:
150,70,69775,1,0,0:0:0:0:
426,294,69997,1,4,0:0:0:0:
84,294,70219,1,0,0:0:0:0:
360,70,70442,1,6,0:0:0:0:
360,70,70553,1,2,0:0:0:0:
360,70,70664,1,2,0:0:0:0:
84,294,70886,2,0,L|-11:289,1,95,6|0,0:0|0:0,0:0:0:0:
426,294,71331,5,4,0:0:0:0:
476,186,71775,1,0,0:0:0:0:
426,80,72219,1,2,0:3:0:0:
310,55,72663,1,0,0:0:0:0:
218,128,73108,1,2,0:3:0:0:
218,246,73552,1,0,0:0:0:0:
310,319,73997,2,0,B|357:324|357:324|398:313|398:313|462:319,1,142.500005435944,2|0,0:3|0:0,0:0:0:0:
86,294,74886,5,2,0:3:0:0:
36,186,75330,1,0,0:0:0:0:
86,80,75774,1,2,0:3:0:0:
202,55,76218,1,0,0:0:0:0:
294,128,76663,1,2,0:3:0:0:
294,246,77107,1,0,0:0:0:0:
202,319,77552,2,0,B|155:324|155:324|114:313|114:313|50:319,1,142.500005435944,2|0,0:3|0:0,0:0:0:0:
49,57,78442,5,2,0:3:0:0:
461,124,79331,1,2,0:3:0:0:
49,192,80219,1,2,0:3:0:0:
461,258,81108,1,2,0:3:0:0:
49,325,81997,5,2,0:3:0:0:
461,258,82442,1,0,0:0:0:0:
49,192,82887,1,2,0:3:0:0:
461,124,83331,1,0,0:0:0:0:
49,57,83775,5,2,0:3:0:0:
461,124,83997,1,0,0:0:0:0:
49,192,84219,1,0,0:0:0:0:
461,258,84442,1,0,0:0:0:0:
49,325,84664,5,8,0:0:0:0:
49,325,85553,5,2,0:0:0:0:
151,191,85775,1,0,0:0:0:0:
146,358,85997,1,2,0:0:0:0:
50,225,86219,1,0,0:0:0:0:
207,280,86442,2,0,L|307:277,1,95,2|0,0:0|0:0,0:0:0:0:
210,27,86886,6,0,P|165:21|113:27,1,95,2|0,0:0|0:0,0:0:0:0:
112,279,87331,2,0,P|157:285|209:279,1,95,2|0,0:0|0:0,0:0:0:0:
32,97,87775,6,0,P|26:142|32:194,1,95,2|0,0:0|0:0,0:0:0:0:
307,192,88219,2,0,P|313:147|307:95,1,95,2|0,0:0|0:0,0:0:0:0:
31,191,88664,2,0,L|34:297,1,95,2|0,0:0|0:0,0:0:0:0:
281,287,89108,5,2,0:0:0:0:
128,302,89331,1,0,0:0:0:0:
240,198,89553,1,2,0:0:0:0:
208,347,89775,1,0,0:0:0:0:
147,211,89997,6,0,B|139:172|139:172|147:117,1,95,2|0,0:0|0:0,0:0:0:0:
327,275,90442,2,0,B|293:304|293:304|244:321,1,95,2|0,0:0|0:0,0:0:0:0:
292,88,90886,2,0,B|336:103|336:103|374:136,1,95,2|0,0:0|0:0,0:0:0:0:
371,358,91331,2,0,L|327:275,1,95,2|0,0:0|0:0,0:0:0:0:
52,208,91775,6,0,L|147:211,1,95,2|0,0:0|0:0,0:0:0:0:
343,8,92219,2,0,L|292:88,1,95,2|0,0:0|0:0,0:0:0:0:
185,275,92664,2,0,L|157:318,4,47.5,2|0|0|0|2,0:0|0:0|0:0|0:0|0:0,0:0:0:0:
273,128,93331,1,0,0:0:0:0:
126,42,93553,6,0,B|102:39|102:39|66:42,3,47.5,2|0|0|0,0:0|0:0|0:0|0:0,0:0:0:0:
37,138,93997,2,0,B|46:160|46:160|59:179,3,47.5,2|0|0|0,0:0|0:0|0:0|0:0,0:0:0:0:
168,173,94442,2,0,B|182:153|182:153|192:132,3,47.5,2|0|0|0,0:0|0:0|0:0|0:0,0:0:0:0:
262,49,94886,2,0,P|307:41|359:49,1,95,2|0,0:0|0:0,0:0:0:0:
479,173,95331,1,2,0:0:0:0:
402,327,95553,6,0,L|414:272,1,47.5
346,148,95775,2,0,L|357:205,1,47.5,2|0,0:0|0:0,0:0:0:0:
316,342,95997,2,0,L|328:287,1,47.5
260,163,96219,6,0,L|271:220,3,47.5,2|0|0|0,0:0|0:0|0:0|0:0,0:0:0:0:
190,119,96664,2,0,L|133:130,3,47.5,2|0|0|0,0:0|0:0|0:0|0:0,0:0:0:0:
242,59,97108,6,0,L|231:2,3,47.5,2|0|0|0,0:0|0:0|0:0|0:0,0:0:0:0:
310,101,97553,2,0,L|367:90,3,47.5,2|0|0|0,0:0|0:0|0:0|0:0,0:0:0:0:
355,184,97997,6,0,P|361:304|158:188,1,498.750019025803,6|0,0:0|0:0,0:0:0:0:
181,206,98886,6,0,B|232:211|256:298|256:298|278:211|340:197,1,249.375009512902,6|0,0:0|0:0,0:0:0:0:
401,124,99775,6,0,P|409:78|397:27,1,95,6|0,0:0|0:0,0:0:0:0:
113,31,100219,2,0,P|103:77|111:124,1,95,8|0,0:0|0:0,0:0:0:0:
400,207,100664,6,0,L|499:211,1,95,2|0,0:0|0:0,0:0:0:0:
112,207,101108,2,0,L|13:211,1,95,8|0,0:0|0:0,0:0:0:0:
255,272,101553,5,2,0:0:0:0:
113,31,101775,1,0,0:0:0:0:
398,31,101997,1,8,0:0:0:0:
255,272,102219,1,0,0:0:0:0:
112,30,102442,2,0,B|68:48|68:48|33:80,1,95,2|0,0:0|0:0,0:0:0:0:
397,30,102886,2,0,B|442:48|442:48|477:80,1,95,8|0,0:0|0:0,0:0:0:0:
256,323,103331,5,2,0:0:0:0:
112,30,103553,1,0,0:0:0:0:
417,203,103775,1,8,0:0:0:0:
95,203,103997,1,0,0:0:0:0:
397,30,104219,6,0,B|436:34|436:34|453:29|453:29|501:30,1,95,2|0,0:0|0:0,0:0:0:0:
256,228,104664,2,0,L|256:328,1,95,8|0,0:0|0:0,0:0:0:0:
112,30,105108,2,0,B|73:34|73:34|56:29|56:29|8:30,1,95,2|0,0:0|0:0,0:0:0:0:
14,315,105553,2,0,B|53:311|53:311|70:316|70:316|118:315,1,95,8|0,0:0|0:0,0:0:0:0:
255,114,105997,5,2,0:0:0:0:
255,114,106108,1,0,3:0:0:0:
255,114,106219,1,0,0:0:0:0:
370,236,106442,1,8,0:0:0:0:
255,362,106664,1,0,0:0:0:0:
0,231,106886,6,0,B|-4:101|-4:101|25:57|98:76|109:140|60:154|60:154|108:170|104:238|38:233,1,427.500016307831,2|0,0:0|0:0,0:0:0:0:
178,204,107775,2,0,P|308:271|165:237,1,427.500016307831,2|0,0:0|0:0,0:0:0:0:
386,125,108664,2,0,P|516:192|373:158,1,427.500016307831,2|0,0:0|0:0,0:0:0:0:
255,22,109553,5,2,0:0:0:0:
255,22,109664,1,0,3:0:0:0:
255,22,109775,1,0,0:0:0:0:
140,158,109997,1,8,0:0:0:0:
254,303,110219,1,0,0:0:0:0:
0,319,110442,6,0,B|-4:189|-4:189|25:145|98:164|109:228|60:242|60:242|108:258|104:326|38:321,1,427.500016307831,2|0,0:0|0:0,0:0:0:0:
179,107,111331,2,0,P|309:174|166:140,1,427.500016307831,2|0,0:0|0:0,0:0:0:0:
425,219,112219,2,0,P|451:280|359:249,1,213.750008153916,6|0,0:0|0:0,0:0:0:0:
425,219,112664,6,0,B|430:173|430:173|424:120,1,95,6|0,0:0|0:0,0:0:0:0:
264,260,113108,2,0,B|259:306|259:306|265:359,1,95,6|0,0:0|0:0,0:0:0:0:
321,126,113553,6,0,L|339:73,1,47.5,6|2,0:0|0:0,0:0:0:0:
191,126,113775,2,0,L|173:73,1,47.5,2|2,0:0|0:0,0:0:0:0:
358,258,113997,6,0,L|460:253,1,95,6|0,0:0|0:0,0:0:0:0:
154,258,114442,2,0,L|52:253,1,95,8|0,0:0|0:0,0:0:0:0:
408,341,114886,6,0,L|510:336,1,95,2|0,0:0|0:0,0:0:0:0:
104,341,115331,2,0,L|2:336,1,95,8|0,0:0|0:0,0:0:0:0:
256,19,115775,5,2,0:0:0:0:
340,281,115997,1,0,0:0:0:0:
116,119,116220,1,8,0:0:0:0:
393,119,116442,1,0,0:0:0:0:
169,281,116664,2,0,P|161:335|171:374,1,95,2|0,0:0|0:0,0:0:0:0:
338,373,117108,2,0,P|348:327|340:281,1,95,8|0,0:0|0:0,0:0:0:0:
88,46,117553,5,2,0:0:0:0:
87,292,117775,1,0,0:0:0:0:
255,104,117997,1,8,0:0:0:0:
425,292,118219,1,0,0:0:0:0:
424,46,118442,6,0,P|381:38|328:47,1,95,2|0,0:0|0:0,0:0:0:0:
88,46,118886,2,0,P|131:38|184:47,1,95,8|0,0:0|0:0,0:0:0:0:
384,206,119331,2,0,L|424:291,1,95,2|0,0:0|0:0,0:0:0:0:
127,205,119775,2,0,L|87:291,1,95,8|0,0:0|0:0,0:0:0:0:
256,18,120219,5,2,0:0:0:0:
256,18,120331,1,0,3:0:0:0:
256,18,120442,1,0,0:0:0:0:
384,207,120664,1,8,0:0:0:0:
127,206,120886,1,0,0:0:0:0:
0,21,121108,6,0,B|-5:152|-5:152|25:196|98:177|109:113|60:99|60:99|108:83|104:15|35:20,1,427.500016307831,2|0,0:0|0:0,0:0:0:0:
175,218,121997,2,0,P|263:245|164:193,1,427.500016307831,2|0,0:0|0:0,0:0:0:0:
381,128,122886,2,0,P|469:155|370:103,1,427.500016307831,2|0,0:0|0:0,0:0:0:0:
368,294,123775,1,2,0:0:0:0:
368,294,123886,1,0,3:0:0:0:
368,294,123997,1,0,0:0:0:0:
256,122,124219,2,0,L|255:28,1,95,8|0,0:0|0:0,0:0:0:0:
455,243,124664,6,0,P|465:292|455:341,1,95,2|0,0:0|0:0,0:0:0:0:
54,335,125108,2,0,P|47:289|57:243,1,95,8|0,0:0|0:0,0:0:0:0:
406,129,125553,6,0,B|453:122|453:122|505:130,1,95,2|0,0:0|0:0,0:0:0:0:
150,243,125997,2,0,B|103:250|103:250|51:242,1,95,8|0,0:0|0:0,0:0:0:0:
349,31,126442,5,4,0:0:0:0:
184,316,126664,1,0,0:0:0:0:
184,31,126886,1,6,0:0:0:0:
349,316,127108,1,0,0:0:0:0:
103,173,127331,1,6,0:0:0:0:
103,173,127442,1,2,0:0:0:0:
103,173,127553,1,2,0:0:0:0:
430,173,127775,2,0,L|527:186,1,95,6|0,0:0|0:0,0:0:0:0:
184,316,128219,5,6,0:0:0:0:
256,90,135331,5,6,0:0:0:0:
196,273,135553,1,0,0:0:0:0:
352,160,135775,1,2,0:0:0:0:
159,160,135997,1,0,0:0:0:0:
315,273,136219,1,2,0:0:0:0:
357,295,136331,1,0,0:0:0:0:
403,304,136442,1,0,0:0:0:0:
449,297,136553,1,0,0:0:0:0:
494,281,136664,1,2,0:0:0:0:
433,79,136886,1,0,0:0:0:0:
255,191,137108,5,2,0:0:0:0:
79,79,137331,1,0,0:0:0:0:
184,264,137553,1,2,0:0:0:0:
257,63,137775,1,0,0:0:0:0:
85,193,137997,1,2,0:0:0:0:
69,237,138108,1,0,0:0:0:0:
62,284,138219,1,0,0:0:0:0:
69,331,138331,1,0,0:0:0:0:
82,376,138442,1,2,0:0:0:0:
256,287,138664,1,0,0:0:0:0:
85,193,138886,5,2,0:0:0:0:
257,63,139108,1,0,0:0:0:0:
184,264,139331,1,2,0:0:0:0:
86,79,139553,1,0,0:0:0:0:
254,191,139775,1,2,0:0:0:0:
426,79,139997,1,0,0:0:0:0:
328,264,140219,2,0,P|320:312|334:366,1,95,2|0,0:0|0:0,0:0:0:0:
427,157,140664,5,6,0:0:0:0:
85,157,140886,1,0,0:0:0:0:
388,310,141108,2,2,L|436:336,1,47.5,6|2,0:0|0:0,0:0:0:0:
124,310,141331,2,2,L|76:336,1,47.5
256,216,141553,6,0,B|230:164|258:112|258:112|286:59|254:6,1,213.750008153916,6|0,0:0|0:0,0:0:0:0:
64,101,142442,5,12,0:0:0:0:
170,256,142664,1,0,0:0:0:0:
0,190,142886,1,8,0:0:0:0:
175,147,143108,1,0,0:0:0:0:
60,288,143331,6,0,P|52:338|67:398,1,95,2|0,0:0|0:0,0:0:0:0:
260,190,143775,2,0,P|268:140|251:83,1,95,8|0,0:0|0:0,0:0:0:0:
217,304,144219,6,0,P|262:312|318:300,1,95,2|0,0:0|0:0,0:0:0:0:
303,31,144664,2,0,P|256:21|201:35,1,95,8|0,0:0|0:0,0:0:0:0:
143,271,145108,1,2,0:0:0:0:
143,271,145219,1,0,3:0:0:0:
143,271,145331,1,0,0:0:0:0:
319,108,145553,1,8,0:0:0:0:
77,126,145775,1,0,0:0:0:0:
207,331,145997,5,2,0:0:0:0:
214,87,146219,1,0,0:0:0:0:
68,274,146442,1,8,0:0:0:0:
302,210,146664,1,0,0:0:0:0:
77,126,146886,6,0,P|31:117|-16:125,1,95,2|0,0:0|0:0,0:0:0:0:
302,210,147331,2,0,P|352:216|399:208,1,95,8|0,0:0|0:0,0:0:0:0:
219,17,147775,6,0,P|207:65|221:113,1,95,2|0,0:0|0:0,0:0:0:0:
394,301,148219,2,0,P|404:253|392:202,1,95,8|0,0:0|0:0,0:0:0:0:
207,331,148664,1,2,0:0:0:0:
207,331,148775,1,0,3:0:0:0:
207,331,148886,1,0,0:0:0:0:
306,131,149108,1,8,0:0:0:0:
347,358,149331,1,0,0:0:0:0:
77,236,149553,5,2,0:0:0:0:
341,239,149775,1,0,0:0:0:0:
120,87,149997,1,8,0:0:0:0:
207,331,150219,1,0,0:0:0:0:
285,79,150442,5,2,0:0:0:0:
455,27,150664,1,0,0:0:0:0:
509,197,150886,1,8,0:0:0:0:
341,239,151108,1,0,0:0:0:0:
69,160,151331,5,2,0:0:0:0:
341,239,151553,1,0,0:0:0:0:
165,19,151775,1,8,0:0:0:0:
177,296,151997,1,0,0:0:0:0:
339,66,152219,5,2,0:0:0:0:
339,66,152331,1,0,3:0:0:0:
339,66,152442,1,0,0:0:0:0:
503,152,152664,1,8,0:0:0:0:
341,239,152886,1,0,0:0:0:0:
96,171,153108,6,0,B|90:125|90:125|95:71,1,95,2|0,0:0|0:0,0:0:0:0:
503,152,153553,6,0,B|498:203|498:203|510:244|510:244|505:292,1,142.500005435944,8|0,0:0|0:0,0:0:0:0:
416,171,153997,6,0,B|422:125|422:125|414:74,1,95,2|0,0:0|0:0,0:0:0:0:
9,152,154442,6,0,B|14:203|14:203|2:244|2:244|7:304,1,142.500005435944,8|0,0:0|0:0,0:0:0:0:
293,152,154886,2,0,B|288:101|288:101|300:60|300:60|295:0,1,142.500005435944,2|0,0:0|0:0,0:0:0:0:
202,174,155331,6,0,L|210:273,1,95,6|0,0:0|0:0,0:0:0:0:
192,22,155775,1,6,0:0:0:0:
192,22,155886,1,2,0:0:0:0:
192,22,155997,1,2,0:0:0:0:
9,152,156219,1,6,0:0:0:0:
150,324,156442,1,2,0:0:0:0:
366,216,156664,6,0,P|412:223|465:213,1,95,6|0,0:0|0:0,0:0:0:0:
146,168,157108,2,0,P|100:161|47:171,1,95,8|0,0:0|0:0,0:0:0:0:
409,137,157553,6,0,B|414:88|414:88|406:38,1,95,2|0,0:0|0:0,0:0:0:0:
103,247,157997,2,0,B|98:296|98:296|106:346,1,95,8|0,0:0|0:0,0:0:0:0:
260,28,158442,5,2,0:0:0:0:
352,312,158664,1,0,0:0:0:0:
110,137,158886,1,8,0:0:0:0:
408,137,159108,1,0,0:0:0:0:
160,312,159331,2,0,L|64:317,1,95,2|0,0:0|0:0,0:0:0:0:
352,312,159775,2,0,L|448:317,1,95,8|0,0:0|0:0,0:0:0:0:
256,62,160219,5,2,0:0:0:0:
256,374,160442,1,0,0:0:0:0:
110,137,160664,1,8,0:0:0:0:
408,137,160886,1,0,0:0:0:0:
256,374,161108,6,0,B|252:336|252:336|260:321|260:321|256:274,1,95,2|0,0:0|0:0,0:0:0:0:
69,76,161553,2,0,B|103:91|103:91|112:105|112:105|155:126,1,95,8|0,0:0|0:0,0:0:0:0:
443,76,161997,2,0,B|408:91|408:91|399:105|399:105|356:126,1,95,2|0,0:0|0:0,0:0:0:0:
148,261,162442,2,0,B|112:278|112:278|103:292|103:292|69:308,1,95,8|0,0:0|0:0,0:0:0:0:
255,348,162886,1,2,0:0:0:0:
255,348,162997,1,0,3:0:0:0:
255,348,163108,1,0,0:0:0:0:
119,119,163331,1,8,0:0:0:0:
393,119,163553,1,0,0:0:0:0:
395,319,163775,6,0,B|349:299|349:299|318:262,1,95,2|0,0:0|0:0,0:0:0:0:
117,65,164219,2,0,B|163:85|163:85|191:119,1,95,8|0,0:0|0:0,0:0:0:0:
215,375,164664,2,0,B|209:326|209:326|225:283,1,95,2|0,0:0|0:0,0:0:0:0:
296,8,165108,2,0,B|302:57|302:57|286:100,1,95,8|0,0:0|0:0,0:0:0:0:
76,248,165553,2,0,B|116:219|116:219|161:211,1,95,2|0,0:0|0:0,0:0:0:0:
435,135,165997,2,0,B|395:164|395:164|347:173,1,95,8|0,0:0|0:0,0:0:0:0:
117,65,166442,5,2,0:0:0:0:
117,65,166553,1,0,3:0:0:0:
117,65,166664,1,0,0:0:0:0:
350,172,166886,1,8,0:0:0:0:
215,375,167108,1,0,0:0:0:0:
0,248,167331,6,0,B|-4:118|-4:118|25:74|98:93|109:157|60:171|60:171|108:187|104:255|38:250,1,427.500016307831,2|0,0:0|0:0,0:0:0:0:
210,211,168220,2,0,P|326:315|173:280,1,427.500016307831,2|0,2:0|0:0,0:0:0:0:
364,117,169108,5,6,0:0:0:0:
463,104,169331,1,0,0:0:0:0:
512,190,169553,1,6,0:0:0:0:
441,260,169775,1,0,0:0:0:0:
351,217,169997,6,0,L|345:144,1,71.2500027179719,6|0,0:0|0:0,0:0:0:0:
166,145,170219,2,0,L|161:217,1,71.2500027179719,2|2,0:0|0:0,0:0:0:0:
337,354,170442,2,0,P|390:377|443:319,1,142.500005435944,6|0,0:0|0:0,0:0:0:0:
248,257,170886,5,6,0:0:0:0:
225,281,170997,1,0,0:0:0:0:
203,306,171108,1,0,0:0:0:0:
181,331,171219,1,0,0:0:0:0:
157,354,171331,1,0,0:0:0:0:
161,321,171442,1,0,0:0:0:0:
166,288,171553,1,0,0:0:0:0:
172,255,171664,1,0,0:0:0:0:
178,221,171775,5,2,0:3:0:0:
147,207,171886,1,0,0:0:0:0:
116,193,171997,1,0,0:0:0:0:
85,179,172108,1,0,0:0:0:0:
57,165,172219,1,0,0:0:0:0:
89,159,172331,1,0,0:0:0:0:
121,154,172442,1,0,0:0:0:0:
153,150,172553,1,0,0:0:0:0:
190,144,172664,5,2,0:3:0:0:
194,110,172775,1,0,0:0:0:0:
198,77,172886,1,0,0:0:0:0:
202,44,172997,1,0,0:0:0:0:
205,12,173108,1,0,0:0:0:0:
221,41,173219,1,0,0:0:0:0:
233,71,173331,1,0,0:0:0:0:
249,100,173442,1,0,0:0:0:0:
267,131,173553,5,2,0:3:0:0:
300,126,173664,1,0,0:0:0:0:
332,120,173775,1,0,0:0:0:0:
364,115,173886,1,0,0:0:0:0:
398,105,173997,1,0,0:0:0:0:
375,130,174108,1,0,0:0:0:0:
351,153,174219,1,0,0:0:0:0:
328,177,174331,1,0,0:0:0:0:
303,201,174442,5,2,0:3:0:0:
317,231,174553,1,0,0:0:0:0:
333,259,174664,1,0,0:0:0:0:
348,288,174775,1,0,0:0:0:0:
368,317,174886,1,0,0:0:0:0:
337,303,174997,1,0,0:0:0:0:
307,287,175108,1,0,0:0:0:0:
276,272,175219,1,0,0:0:0:0:
248,257,175331,5,2,0:3:0:0:
247,223,175442,1,0,0:0:0:0:
248,189,175553,1,0,0:0:0:0:
248,155,175664,1,0,0:0:0:0:
248,121,175775,1,0,0:0:0:0:
248,87,175886,1,0,0:0:0:0:
248,53,175997,1,0,0:0:0:0:
248,19,176108,1,0,0:0:0:0:
280,10,176219,5,2,0:3:0:0:
313,8,176331,1,0,0:0:0:0:
346,10,176442,1,0,0:0:0:0:
377,19,176553,1,0,0:0:0:0:
390,49,176664,1,0,0:0:0:0:
390,82,176775,1,0,0:0:0:0:
367,106,176886,1,0,0:0:0:0:
337,120,176997,1,0,0:0:0:0:
305,130,177108,5,2,0:3:0:0:
336,139,177219,1,0,0:0:0:0:
366,153,177331,1,0,0:0:0:0:
390,175,177442,1,0,0:0:0:0:
401,206,177553,1,0,0:0:0:0:
392,238,177664,1,0,0:0:0:0:
366,259,177775,1,0,0:0:0:0:
334,269,177886,1,0,0:0:0:0:
300,272,177997,5,2,0:3:0:0:
278,306,178108,1,0,0:0:0:0:
244,328,178219,1,0,0:0:0:0:
205,335,178331,1,0,0:0:0:0:
166,328,178442,1,0,0:0:0:0:
133,306,178553,1,0,0:0:0:0:
111,272,178664,1,0,0:0:0:0:
103,233,178775,1,0,0:0:0:0:
111,194,178886,5,2,0:3:0:0:
133,161,178997,1,0,0:0:0:0:
166,139,179108,1,0,0:0:0:0:
205,131,179219,1,0,0:0:0:0:
244,139,179331,1,0,0:0:0:0:
278,161,179442,1,0,0:0:0:0:
300,194,179553,1,0,0:0:0:0:
308,233,179664,1,0,0:0:0:0:
315,265,179775,5,2,0:3:0:0:
337,299,179886,1,0,0:0:0:0:
371,321,179997,1,0,0:0:0:0:
410,328,180109,1,0,0:0:0:0:
449,321,180220,1,0,0:0:0:0:
482,299,180331,1,0,0:0:0:0:
504,265,180442,1,0,0:0:0:0:
512,226,180553,1,0,0:0:0:0:
504,187,180664,5,2,0:3:0:0:
482,154,180775,1,0,0:0:0:0:
449,132,180886,1,0,0:0:0:0:
410,124,180997,1,0,0:0:0:0:
371,132,181109,1,0,0:0:0:0:
337,154,181220,1,0,0:0:0:0:
315,187,181331,1,0,0:0:0:0:
307,226,181442,1,0,0:0:0:0:
315,265,181553,5,2,0:3:0:0:
272,282,181664,1,0,0:0:0:0:
229,265,181775,1,0,0:0:0:0:
211,221,181886,1,0,0:0:0:0:
229,178,181997,1,0,0:0:0:0:
272,161,182108,1,0,0:0:0:0:
315,178,182219,1,0,0:0:0:0:
333,222,182331,1,0,0:0:0:0:
315,265,182442,5,2,0:3:0:0:
298,222,182553,1,0,0:0:0:0:
315,179,182664,1,0,0:0:0:0:
359,161,182775,1,0,0:0:0:0:
402,179,182886,1,0,0:0:0:0:
419,222,182997,1,0,0:0:0:0:
402,265,183108,1,0,0:0:0:0:
358,283,183220,1,0,0:0:0:0:
315,265,183331,5,2,0:3:0:0:
358,248,183442,1,0,0:0:0:0:
401,265,183553,1,0,0:0:0:0:
419,309,183664,1,0,0:0:0:0:
401,352,183775,1,0,0:0:0:0:
358,369,183886,1,0,0:0:0:0:
315,352,183997,1,0,0:0:0:0:
297,308,184109,1,0,0:0:0:0:
315,265,184219,5,2,0:3:0:0:
332,308,184330,1,0,0:0:0:0:
315,351,184441,1,0,0:0:0:0:
271,369,184552,1,0,0:0:0:0:
228,351,184663,1,0,0:0:0:0:
211,308,184774,1,0,0:0:0:0:
228,265,184885,1,0,0:0:0:0:
272,247,184997,1,0,0:0:0:0:
