osu file format v14

[General]
AudioFilename: Boo - Apink.mp3
AudioLeadIn: 0
PreviewTime: 99674
Countdown: 0
SampleSet: Soft
StackLeniency: 0.7
Mode: 0
LetterboxInBreaks: 0
EpilepsyWarning: 1
WidescreenStoryboard: 1

[Editor]
Bookmarks: 128229,135341
DistanceSpacing: 0.8
BeatDivisor: 4
GridSize: 4
TimelineZoom: 1

[Metadata]
Title:Boo
TitleUnicode:Boo
Artist:Apink
ArtistUnicode:Apink
Creator:P A N
Version:Insane
Source:
Tags:박초롱 윤보미 정은지 손나은 김남주 오하영 에이핑크 홍유경 kpop A-cube Entertainment park cho rong yoon bomi jeong eun ji son na eun kim nam joo oh ha young hong yoo kyung p_a_n
BeatmapID:844815
BeatmapSetID:384978

[Difficulty]
HPDrainRate:6
CircleSize:4
OverallDifficulty:7
ApproachRate:8.5
SliderMultiplier:1.7
SliderTickRate:1

[Events]
//Background and Video events
0,0,"bg.jpg",0,0
//Break Periods
2,71531,84878
2,128419,134656
//Storyboard Layer 0 (Background)
//Storyboard Layer 1 (Fail)
//Storyboard Layer 2 (Pass)
//Storyboard Layer 3 (Foreground)
//Storyboard Sound Samples

[TimingPoints]
220,444.444444444444,4,2,1,70,1,0
14442,-133.333333333333,4,2,1,60,0,0
27775,-133.333333333333,4,2,1,80,0,0
28664,-100,4,2,1,80,0,0
42886,-100,4,2,1,90,0,1
49997,-100,4,2,2,90,0,1
53108,-100,4,2,1,90,0,1
53553,-100,4,2,2,90,0,1
55775,-100,4,2,1,90,0,0
57108,-100,4,2,1,90,0,1
64219,-100,4,2,2,90,0,1
67331,-100,4,2,1,90,0,1
71331,-100,4,2,1,60,0,0
85553,-100,4,2,1,80,0,0
99775,-100,4,2,1,90,0,1
106886,-100,4,2,2,90,0,1
112664,-100,4,2,1,90,0,0
113997,-100,4,2,1,90,0,1
121108,-100,4,2,2,90,0,1
124219,-100,4,2,1,90,0,1
128219,-100,4,2,1,80,0,0
143331,-100,4,2,1,80,0,0
156664,-100,4,2,1,90,0,1
167331,-100,4,2,2,90,0,1
170886,-100,4,2,1,90,0,0

[Colours]
Combo1 : 255,255,128
Combo2 : 255,193,224
Combo3 : 100,100,255
Combo4 : 255,32,94
SliderBorder : 255,255,0

[HitObjects]
88,96,14442,6,0,P|73:155|99:232,1,127.500004863739,2|0,0:3|0:0,0:0:0:0:
176,257,15108,1,0,0:0:0:0:
264,219,15331,2,0,P|280:158|265:96,1,127.500004863739,2|0,0:3|0:0,0:0:0:0:
176,257,16219,6,0,B|256:247|256:247|322:259|322:259|373:251|373:251|365:277|375:311,1,255.000009727478,2|2,0:3|0:3,0:0:0:0:
417,65,17997,5,2,0:3:0:0:
332,21,18219,1,0,0:0:0:0:
265,89,18442,1,0,0:0:0:0:
308,174,18664,1,0,0:0:0:0:
402,161,18886,2,0,B|414:221|414:221|398:287,1,127.500004863739,2|0,0:3|0:0,0:0:0:0:
221,359,19775,5,2,0:3:0:0:
221,359,20664,2,0,P|166:344|94:360,1,127.500004863739,2|0,0:3|0:0,0:0:0:0:
49,172,21553,6,0,B|18:138|18:138|30:86|30:86|82:75|82:75|120:105,1,191.250007295609,2|0,0:3|0:0,0:0:0:0:
208,99,22442,2,0,B|252:89|252:89|291:125|291:125|275:176|275:176|230:193,1,191.250007295609,2|0,0:3|0:0,0:0:0:0:
169,255,23331,6,0,B|235:286|235:286|345:248|345:248|372:175,1,255.000009727478,2|2,0:3|0:3,0:0:0:0:
257,29,24664,1,0,0:0:0:0:
128,170,25108,5,2,0:3:0:0:
237,326,25553,1,0,0:0:0:0:
242,135,25997,1,2,0:3:0:0:
128,289,26442,1,0,0:0:0:0:
310,233,26886,1,2,0:3:0:0:
310,233,27775,5,12,0:0:0:0:
92,90,28664,5,2,0:0:0:0:
183,178,28886,1,0,0:0:0:0:
162,52,29108,1,2,0:0:0:0:
106,167,29331,1,0,0:0:0:0:
219,109,29553,2,0,P|259:102|307:111,1,85,2|0,0:0|0:0,0:0:0:0:
345,229,29997,6,0,L|339:320,1,85,2|0,0:0|0:0,0:0:0:0:
476,249,30442,2,0,L|482:158,1,85,2|0,0:0|0:0,0:0:0:0:
329,238,30886,6,0,L|323:329,1,85,2|0,0:0|0:0,0:0:0:0:
490,244,31331,2,0,L|496:153,1,85,2|0,0:0|0:0,0:0:0:0:
416,59,31775,2,0,B|373:54|373:54|327:59,1,85,2|0,0:0|0:0,0:0:0:0:
236,143,32219,5,2,0:0:0:0:
329,238,32442,1,0,0:0:0:0:
203,216,32664,1,2,0:0:0:0:
316,158,32886,1,0,0:0:0:0:
260,272,33108,2,0,P|253:318|263:360,1,85,2|0,0:0|0:0,0:0:0:0:
203,216,33553,2,0,P|157:208|117:217,1,85,2|0,0:0|0:0,0:0:0:0:
37,312,33997,6,0,L|31:227,1,85,2|0,0:0|0:0,0:0:0:0:
94,115,34442,2,0,L|95:26,1,85,2|0,0:0|0:0,0:0:0:0:
205,92,34886,2,0,B|247:97|247:97|293:91,1,85,2|0,0:0|0:0,0:0:0:0:
399,27,35331,2,0,B|441:21|441:21|483:26,1,85,2|0,0:0|0:0,0:0:0:0:
443,147,35775,6,0,B|434:202|434:202|449:251|449:251|442:320,1,170,2|2,0:0|0:0,0:0:0:0:
511,199,36442,1,0,0:0:0:0:
370,261,36664,2,0,P|331:269|280:260,1,85,2|0,0:0|0:0,0:0:0:0:
208,162,37108,2,0,P|200:118|209:73,1,85,2|0,0:0|0:0,0:0:0:0:
109,201,37553,6,0,P|127:275|107:369,1,170,2|2,0:0|0:0,0:0:0:0:
8,286,38219,1,0,0:0:0:0:
109,201,38442,1,2,0:0:0:0:
206,283,38664,1,0,0:0:0:0:
328,156,38886,1,2,0:0:0:0:
328,282,39108,1,0,0:0:0:0:
204,156,39331,6,0,P|197:117|208:60,1,85,2|0,0:0|0:0,0:0:0:0:
328,156,39775,2,0,P|334:197|327:239,1,85,2|0,0:0|0:0,0:0:0:0:
206,283,40219,2,0,L|115:280,1,85,2|0,0:0|0:0,0:0:0:0:
0,171,40664,2,0,L|91:166,1,85,2|0,0:0|0:0,0:0:0:0:
204,156,41108,5,4,0:0:0:0:
348,366,41553,1,0,0:0:0:0:
497,159,41997,1,6,0:0:0:0:
417,129,42219,1,0,0:0:0:0:
336,100,42442,1,0,0:0:0:0:
256,70,42664,1,0,0:0:0:0:
156,160,42886,6,0,L|163:258,1,85,6|0,0:0|0:0,0:0:0:0:
39,299,43331,2,0,L|32:201,1,85,8|0,0:0|0:0,0:0:0:0:
175,151,43775,6,0,L|182:249,1,85,2|0,0:0|0:0,0:0:0:0:
19,309,44219,2,0,L|12:211,1,85,8|0,0:0|0:0,0:0:0:0:
197,141,44664,5,2,0:0:0:0:
299,262,44886,1,0,0:0:0:0:
287,102,45108,1,8,0:0:0:0:
205,237,45331,1,0,0:0:0:0:
352,180,45553,1,2,0:0:0:0:
352,180,45664,1,0,3:0:0:0:
352,180,45775,1,0,0:0:0:0:
197,141,45997,2,0,P|189:100|200:47,1,85,8|0,0:0|0:0,0:0:0:0:
319,23,46442,5,2,0:0:0:0:
439,132,46664,1,0,0:0:0:0:
280,111,46886,1,8,0:0:0:0:
422,35,47108,1,0,0:0:0:0:
352,180,47331,6,0,B|344:222|344:222|352:269,1,85,2|0,0:0|0:0,0:0:0:0:
258,383,47775,2,0,B|298:368|298:368|330:341,1,85,8|0,0:0|0:0,0:0:0:0:
483,365,48219,2,0,B|450:337|450:337|411:322,1,85,2|0,0:0|0:0,0:0:0:0:
273,284,48664,2,0,L|183:288,1,85,8|0,0:0|0:0,0:0:0:0:
40,293,49108,1,2,0:0:0:0:
40,293,49219,1,0,3:0:0:0:
40,293,49331,1,0,0:0:0:0:
93,151,49553,2,0,B|98:110|98:110|91:57,1,85,8|0,0:0|0:0,0:0:0:0:
23,192,49997,6,0,P|76:224|174:175,1,170,2|8,0:0|0:0,0:0:0:0:
256,17,50664,1,0,0:0:0:0:
343,184,50886,2,0,P|414:225|489:192,1,170,2|8,0:0|0:0,0:0:0:0:
379,42,51553,1,0,0:0:0:0:
257,185,51775,6,0,B|239:233|255:268|255:268|274:305|254:355,1,170,2|8,0:0|0:0,0:0:0:0:
144,228,52442,1,0,0:0:0:0:
257,102,52664,1,2,0:0:0:0:
257,102,52775,1,0,3:0:0:0:
257,102,52886,1,0,0:0:0:0:
368,228,53108,2,0,P|375:272|367:319,1,85,8|0,0:0|0:0,0:0:0:0:
175,358,53553,6,0,B|118:366|118:366|60:352|60:352|4:360,1,170,2|8,0:0|0:0,0:0:0:0:
0,181,54219,1,0,0:0:0:0:
177,196,54442,2,0,P|198:266|171:364,1,170,2|8,0:0|0:0,0:0:0:0:
73,212,55108,1,0,0:0:0:0:
215,99,55331,6,0,P|253:91|305:103,1,85,6|0,0:0|0:0,0:0:0:0:
396,220,55775,2,0,L|394:314,1,85,6|0,0:0|0:0,0:0:0:0:
489,164,56219,2,0,L|483:78,1,85,6|0,0:0|0:0,0:0:0:0:
344,161,56664,1,6,0:0:0:0:
314,178,56775,1,2,0:0:0:0:
280,183,56886,1,2,0:0:0:0:
246,178,56997,1,2,0:0:0:0:
215,163,57108,6,0,P|171:156|124:165,1,85,6|0,0:0|0:0,0:0:0:0:
192,286,57553,2,0,P|236:293|283:284,1,85,8|0,0:0|0:0,0:0:0:0:
122,247,57997,6,0,P|114:294|129:343,1,85,2|0,0:0|0:0,0:0:0:0:
282,201,58442,2,0,P|290:154|275:105,1,85,8|0,0:0|0:0,0:0:0:0:
119,40,58886,5,2,0:0:0:0:
215,163,59108,1,0,0:0:0:0:
212,11,59331,1,8,0:0:0:0:
124,137,59553,1,0,0:0:0:0:
275,86,59775,1,2,0:0:0:0:
275,86,59886,1,0,3:0:0:0:
275,86,59997,1,0,0:0:0:0:
124,137,60219,2,0,P|82:144|37:137,1,85,8|0,0:0|0:0,0:0:0:0:
82,342,60664,5,2,0:0:0:0:
149,224,60886,1,0,0:0:0:0:
256,303,61108,1,8,0:0:0:0:
363,224,61331,1,0,0:0:0:0:
430,342,61553,6,0,P|443:305|441:255,1,85,2|0,0:0|0:0,0:0:0:0:
297,172,61997,2,0,P|322:201|366:225,1,85,8|0,0:0|0:0,0:0:0:0:
512,145,62442,2,0,P|473:152|431:178,1,85,2|0,0:0|0:0,0:0:0:0:
340,306,62886,2,0,L|249:302,1,85,8|0,0:0|0:0,0:0:0:0:
136,205,63331,1,2,0:0:0:0:
136,205,63442,1,0,3:0:0:0:
136,205,63553,1,0,0:0:0:0:
13,294,63775,2,0,P|7:338|15:377,1,85,8|0,0:0|0:0,0:0:0:0:
136,205,64219,6,0,P|156:124|132:32,1,170,2|8,0:0|0:0,0:0:0:0:
18,187,64886,1,0,0:0:0:0:
171,307,65108,2,0,L|351:305,1,170,2|8,0:0|0:0,0:0:0:0:
494,187,65775,1,0,0:0:0:0:
375,41,65997,6,0,P|355:123|376:205,1,170,2|8,0:0|0:0,0:0:0:0:
512,262,66664,1,0,0:0:0:0:
496,110,66886,1,2,0:0:0:0:
496,110,66997,1,0,3:0:0:0:
496,110,67108,1,0,0:0:0:0:
375,204,67331,2,0,L|288:200,1,85,8|0,0:0|0:0,0:0:0:0:
148,99,67775,6,0,P|140:54|149:11,1,85,2|0,0:0|0:0,0:0:0:0:
317,17,68219,2,0,P|325:62|316:105,1,85,8|0,0:0|0:0,0:0:0:0:
173,177,68664,2,0,L|77:173,1,85,2|0,0:0|0:0,0:0:0:0:
116,364,69108,2,0,L|212:368,1,85,8|0,0:0|0:0,0:0:0:0:
255,190,69553,5,6,0:0:0:0:
315,365,69775,1,0,0:0:0:0:
163,259,69997,1,4,0:0:0:0:
349,256,70219,1,0,0:0:0:0:
201,368,70442,1,6,0:0:0:0:
201,368,70553,1,2,0:0:0:0:
201,368,70664,1,2,0:0:0:0:
88,223,70886,2,0,P|80:183|91:133,1,85,6|0,0:0|0:0,0:0:0:0:
257,58,71331,5,4,0:0:0:0:
388,99,85553,5,2,0:0:0:0:
345,219,85775,1,0,0:0:0:0:
311,96,85997,1,2,0:0:0:0:
410,176,86219,1,0,0:0:0:0:
282,168,86442,2,0,L|187:162,1,85,2|0,0:0|0:0,0:0:0:0:
48,218,86886,6,0,P|43:261|52:308,1,85,2|0,0:0|0:0,0:0:0:0:
199,246,87331,2,0,P|204:203|195:156,1,85,2|0,0:0|0:0,0:0:0:0:
26,228,87775,6,0,P|21:271|30:318,1,85,2|0,0:0|0:0,0:0:0:0:
216,238,88220,2,0,P|221:195|212:148,1,85,2|0,0:0|0:0,0:0:0:0:
86,70,88664,2,0,L|0:72,1,85,2|0,0:0|0:0,0:0:0:0:
201,78,89108,5,2,0:0:0:0:
292,167,89331,1,0,0:0:0:0:
272,41,89553,1,2,0:0:0:0:
214,154,89775,1,0,0:0:0:0:
329,99,89997,2,0,B|372:94|372:94|421:102,1,85,2|0,0:0|0:0,0:0:0:0:
498,195,90442,2,0,L|494:295,1,85,2|0,0:0|0:0,0:0:0:0:
382,340,90886,6,0,L|386:240,1,85,2|0,0:0|0:0,0:0:0:0:
297,167,91331,2,0,L|204:152,1,85,2|0,0:0|0:0,0:0:0:0:
300,349,91775,2,0,L|304:249,1,85,2|0,0:0|0:0,0:0:0:0:
329,99,92220,2,0,L|236:84,1,85,2|0,0:0|0:0,0:0:0:0:
72,57,92664,6,0,P|49:132|74:218,1,170,2|2,0:0|0:0,0:0:0:0:
174,139,93331,1,0,0:0:0:0:
273,218,93553,2,0,B|314:223|314:223|361:217,1,85,2|0,0:0|0:0,0:0:0:0:
413,98,93997,2,0,B|372:93|372:93|325:99,1,85,2|0,0:0|0:0,0:0:0:0:
174,139,94442,6,0,B|158:223|158:223|177:312,1,170,2|2,0:0|0:0,0:0:0:0:
273,218,95108,1,0,0:0:0:0:
174,140,95331,1,2,0:0:0:0:
75,221,95553,1,0,0:0:0:0:
76,73,95775,1,2,0:0:0:0:
0,199,95997,1,0,0:0:0:0:
75,329,96219,6,0,P|120:335|165:326,1,85,2|0,0:0|0:0,0:0:0:0:
273,218,96664,2,0,L|268:130,1,85,2|0,0:0|0:0,0:0:0:0:
108,166,97108,2,0,L|112:250,1,85,2|0,0:0|0:0,0:0:0:0:
237,295,97553,2,0,P|282:301|327:292,1,85,2|0,0:0|0:0,0:0:0:0:
431,231,97997,5,6,0:0:0:0:
265,36,98442,1,0,0:0:0:0:
87,216,98886,1,6,0:0:0:0:
162,255,99108,1,0,0:0:0:0:
237,295,99331,1,0,0:0:0:0:
313,331,99553,1,0,0:0:0:0:
431,231,99775,6,0,L|429:132,1,85,6|0,0:0|0:0,0:0:0:0:
271,112,100219,2,0,L|273:211,1,85,8|0,0:0|0:0,0:0:0:0:
456,240,100664,6,0,L|454:141,1,85,2|0,0:0|0:0,0:0:0:0:
244,101,101108,2,0,L|246:200,1,85,8|0,0:0|0:0,0:0:0:0:
81,337,101553,5,2,0:0:0:0:
121,192,101775,1,0,0:0:0:0:
172,334,101997,1,8,0:0:0:0:
48,253,102219,1,0,0:0:0:0:
200,246,102442,1,2,0:0:0:0:
200,246,102553,1,0,3:0:0:0:
200,246,102664,1,0,0:0:0:0:
81,337,102886,2,0,P|40:344|-10:335,1,85,8|0,0:0|0:0,0:0:0:0:
66,106,103331,5,2,0:0:0:0:
48,253,103553,1,0,0:0:0:0:
149,148,103775,1,8,0:0:0:0:
0,174,103997,1,0,0:0:0:0:
137,236,104219,6,0,B|180:241|180:241|226:235,1,85,2|0,0:0|0:0,0:0:0:0:
277,66,104664,2,0,B|251:101|251:101|233:144,1,85,8|0,0:0|0:0,0:0:0:0:
353,273,105108,2,0,B|336:233|336:233|308:196,1,85,2|0,0:0|0:0,0:0:0:0:
149,148,105553,2,0,L|62:151,1,85,8|0,0:0|0:0,0:0:0:0:
0,318,105997,1,2,0:0:0:0:
0,318,106108,1,0,3:0:0:0:
0,318,106219,1,0,0:0:0:0:
166,358,106442,2,0,P|172:317|162:260,1,85,8|0,0:0|0:0,0:0:0:0:
64,150,106886,6,0,B|120:157|120:157|175:146|175:146|244:153,1,170,2|8,0:0|0:0,0:0:0:0:
112,76,107553,1,0,0:0:0:0:
182,227,107775,2,0,P|260:251|347:225,1,170,2|8,0:0|0:0,0:0:0:0:
360,64,108442,1,0,0:0:0:0:
483,176,108664,6,0,B|496:232|496:232|489:353,1,170,2|8,0:0|0:0,0:0:0:0:
342,227,109331,1,0,0:0:0:0:
206,342,109553,1,2,0:0:0:0:
206,342,109664,1,0,3:0:0:0:
206,342,109775,1,0,0:0:0:0:
60,229,109997,2,0,P|52:188|64:134,1,85,8|0,0:0|0:0,0:0:0:0:
212,43,110442,6,0,B|248:40|248:40|286:60|286:60|298:108|298:108|270:151,1,170,2|8,0:0|0:0,0:0:0:0:
124,46,111108,1,0,0:0:0:0:
191,220,111331,2,0,B|236:251|236:251|359:247,1,170,2|8,0:0|0:0,0:0:0:0:
364,68,111997,1,0,0:0:0:0:
473,209,112219,6,0,P|480:252|472:296,1,85,6|0,0:0|0:0,0:0:0:0:
315,358,112664,2,0,L|229:355,1,85,6|0,0:0|0:0,0:0:0:0:
106,222,113108,2,0,L|196:219,1,85,6|0,0:0|0:0,0:0:0:0:
363,177,113553,1,6,0:0:0:0:
375,145,113664,1,2,0:0:0:0:
381,111,113775,1,2,0:0:0:0:
374,77,113886,1,2,0:0:0:0:
365,44,113997,6,0,L|272:45,1,85,6|0,0:0|0:0,0:0:0:0:
278,177,114442,2,0,L|371:176,1,85,8|0,0:0|0:0,0:0:0:0:
365,21,114886,6,0,L|272:22,1,85,2|0,0:0|0:0,0:0:0:0:
277,203,115331,2,0,L|370:202,1,85,8|0,0:0|0:0,0:0:0:0:
429,343,115775,5,2,0:0:0:0:
461,189,115997,1,0,0:0:0:0:
345,295,116219,1,8,0:0:0:0:
503,279,116442,1,0,0:0:0:0:
361,202,116664,1,2,0:0:0:0:
361,202,116775,1,0,3:0:0:0:
361,202,116886,1,0,0:0:0:0:
272,338,117108,2,0,B|229:343|229:343|181:337,1,85,8|0,0:0|0:0,0:0:0:0:
6,242,117553,5,2,0:0:0:0:
141,162,117775,1,0,0:0:0:0:
83,307,117997,1,8,0:0:0:0:
42,157,118219,1,0,0:0:0:0:
166,257,118442,6,0,P|205:263|254:255,1,85,2|0,0:0|0:0,0:0:0:0:
353,115,118886,2,0,P|328:145|310:192,1,85,8|0,0:0|0:0,0:0:0:0:
382,350,119331,2,0,P|367:313|336:274,1,85,2|0,0:0|0:0,0:0:0:0:
225,161,119775,2,0,L|138:162,1,85,8|0,0:0|0:0,0:0:0:0:
68,27,120219,1,2,0:0:0:0:
68,27,120331,1,0,3:0:0:0:
68,27,120442,1,0,0:0:0:0:
7,167,120664,2,0,P|0:211|9:255,1,85,8|0,0:0|0:0,0:0:0:0:
167,349,121108,6,0,B|213:357|213:357|257:345|257:345|289:357|342:345,1,170,2|8,0:0|0:0,0:0:0:0:
434,209,121775,1,0,0:0:0:0:
295,111,121997,2,0,P|271:185|299:280,1,170,2|8,0:0|0:0,0:0:0:0:
434,132,122664,1,0,0:0:0:0:
293,30,122886,6,0,B|232:37|232:37|184:28|184:28|111:33,1,170,2|8,0:0|0:0,0:0:0:0:
82,187,123553,1,0,0:0:0:0:
23,38,123775,1,2,0:0:0:0:
23,38,123886,1,0,3:0:0:0:
23,38,123997,1,0,0:0:0:0:
165,123,124219,2,0,B|205:127|205:127|252:122,1,85,8|0,0:0|0:0,0:0:0:0:
401,28,124664,6,0,P|408:70|401:117,1,85,2|0,0:0|0:0,0:0:0:0:
250,205,125108,2,0,P|243:163|251:116,1,85,8|0,0:0|0:0,0:0:0:0:
401,28,125553,2,0,L|496:30,1,85,2|0,0:0|0:0,0:0:0:0:
512,194,125997,2,0,L|417:192,1,85,8|0,0:0|0:0,0:0:0:0:
255,64,126442,5,4,0:0:0:0:
193,257,126664,1,0,0:0:0:0:
357,138,126886,1,6,0:0:0:0:
154,138,127108,1,0,0:0:0:0:
318,258,127331,1,6,0:0:0:0:
318,258,127442,1,2,0:0:0:0:
318,258,127553,1,2,0:0:0:0:
154,138,127775,2,0,B|111:132|111:132|62:139,1,85,6|0,0:0|0:0,0:0:0:0:
0,298,128219,5,6,0:0:0:0:
188,73,135331,5,6,0:0:0:0:
324,73,135553,1,0,0:0:0:0:
189,157,135775,1,2,0:0:0:0:
323,157,135997,1,0,0:0:0:0:
190,243,136219,1,2,0:0:0:0:
157,254,136331,1,0,0:0:0:0:
123,258,136442,1,0,0:0:0:0:
89,254,136553,1,0,0:0:0:0:
56,244,136664,2,0,P|48:210|57:154,1,85,2|0,0:0|0:0,0:0:0:0:
121,42,137108,5,2,0:0:0:0:
189,157,137331,1,0,0:0:0:0:
323,157,137553,1,2,0:0:0:0:
391,42,137776,1,0,0:0:0:0:
457,160,137997,1,2,0:0:0:0:
466,193,138108,1,0,0:0:0:0:
470,226,138219,1,0,0:0:0:0:
466,260,138331,1,0,0:0:0:0:
458,293,138442,2,0,L|372:289,1,85,2|0,0:0|0:0,0:0:0:0:
256,185,138886,5,2,0:0:0:0:
139,289,139108,1,0,0:0:0:0:
256,185,139331,1,2,0:0:0:0:
255,342,139553,1,0,0:0:0:0:
256,185,139775,1,2,0:0:0:0:
373,289,139997,1,0,0:0:0:0:
256,185,140219,2,0,L|256:94,1,85,2|0,0:0|0:0,0:0:0:0:
161,180,140664,5,6,0:0:0:0:
255,265,140886,1,0,0:0:0:0:
351,180,141108,1,6,0:0:0:0:
383,171,141219,1,2,0:0:0:0:
417,168,141331,1,2,0:0:0:0:
450,173,141442,1,2,0:0:0:0:
481,184,141553,2,0,L|477:274,1,85,6|0,0:0|0:0,0:0:0:0:
488,87,141997,1,0,0:0:0:0:
256,65,142442,5,12,0:0:0:0:
204,222,142664,1,0,0:0:0:0:
338,125,142886,1,8,0:0:0:0:
173,125,143108,1,0,0:0:0:0:
307,222,143331,6,0,B|343:237|343:237|388:241,1,85,2|0,0:0|0:0,0:0:0:0:
205,162,143775,2,0,B|169:147|169:147|124:143,1,85,8|0,0:0|0:0,0:0:0:0:
286,141,144219,2,0,B|301:105|301:105|305:60,1,85,2|0,0:0|0:0,0:0:0:0:
226,243,144664,2,0,B|211:279|211:279|207:324,1,85,8|0,0:0|0:0,0:0:0:0:
365,330,145108,1,2,0:0:0:0:
365,330,145219,1,0,3:0:0:0:
365,330,145331,1,0,0:0:0:0:
226,243,145553,2,0,P|185:234|143:241,1,85,8|0,0:0|0:0,0:0:0:0:
31,373,145997,5,2,0:0:0:0:
30,219,146219,1,0,0:0:0:0:
128,314,146442,1,8,0:0:0:0:
129,161,146664,1,0,0:0:0:0:
226,243,146886,6,0,P|232:286|222:339,1,85,2|0,0:0|0:0,0:0:0:0:
286,141,147331,2,0,P|279:99|285:57,1,85,8|0,0:0|0:0,0:0:0:0:
205,161,147776,2,0,P|163:168|121:162,1,85,2|0,0:0|0:0,0:0:0:0:
307,222,148220,2,0,P|350:216|403:226,1,85,8|0,0:0|0:0,0:0:0:0:
356,374,148664,1,2,0:0:0:0:
356,374,148775,1,0,3:0:0:0:
356,374,148886,1,0,0:0:0:0:
307,222,149108,2,0,B|299:181|299:181|307:136,1,85,8|0,0:0|0:0,0:0:0:0:
359,11,149553,5,2,0:0:0:0:
153,11,149775,1,0,0:0:0:0:
348,43,149997,1,8,0:0:0:0:
164,43,150219,1,0,0:0:0:0:
326,139,150442,6,0,L|306:221,1,85,2|0,0:0|0:0,0:0:0:0:
186,139,150886,2,0,L|205:221,1,85,8|0,0:0|0:0,0:0:0:0:
359,373,151331,5,2,0:0:0:0:
153,373,151553,1,0,0:0:0:0:
348,341,151775,1,8,0:0:0:0:
164,341,151997,1,0,0:0:0:0:
326,245,152220,6,0,L|306:162,1,85,2|0,0:0|0:0,0:0:0:0:
186,245,152664,2,0,L|205:162,1,85,8|0,0:0|0:0,0:0:0:0:
346,38,153108,6,0,P|388:31|434:40,1,85,2|0,0:0|0:0,0:0:0:0:
205,162,153553,2,0,P|163:169|117:160,1,85,8|0,0:0|0:0,0:0:0:0:
284,121,153997,2,0,P|291:165|281:214,1,85,2|0,0:0|0:0,0:0:0:0:
47,202,154442,2,0,P|40:158|50:109,1,85,8|0,0:0|0:0,0:0:0:0:
171,38,154886,6,0,L|266:40,1,85,2|0,0:0|0:0,0:0:0:0:
397,127,155331,2,0,L|393:219,1,85,6|0,0:0|0:0,0:0:0:0:
264,327,155775,1,6,0:0:0:0:
264,327,155886,1,2,0:0:0:0:
264,327,155997,1,2,0:0:0:0:
205,162,156219,2,0,P|246:156|291:163,1,85,6|2,0:0|0:0,0:0:0:0:
423,265,156664,6,0,L|419:357,1,85,6|0,0:0|0:0,0:0:0:0:
263,326,157108,2,0,L|267:242,1,85,8|0,0:0|0:0,0:0:0:0:
443,286,157553,6,0,L|439:378,1,85,2|0,0:0|0:0,0:0:0:0:
238,316,157997,2,0,L|241:231,1,85,8|0,0:0|0:0,0:0:0:0:
248,19,158442,5,2,0:0:0:0:
117,111,158664,1,0,0:0:0:0:
283,112,158886,1,8,0:0:0:0:
149,17,159108,1,0,0:0:0:0:
202,169,159331,1,2,0:0:0:0:
202,169,159442,1,0,3:0:0:0:
202,169,159553,1,0,0:0:0:0:
323,45,159775,2,0,P|363:39|414:48,1,85,8|0,0:0|0:0,0:0:0:0:
411,211,160219,5,2,0:0:0:0:
283,112,160442,1,0,0:0:0:0:
329,263,160664,1,8,0:0:0:0:
380,115,160886,1,0,0:0:0:0:
249,203,161108,6,0,P|208:208|162:196,1,85,2|0,0:0|0:0,0:0:0:0:
24,277,161553,2,0,P|40:238|73:205,1,85,8|0,0:0|0:0,0:0:0:0:
70,46,161997,2,0,P|94:79|107:124,1,85,2|0,0:0|0:0,0:0:0:0:
126,283,162442,2,0,L|119:379,1,85,8|0,0:0|0:0,0:0:0:0:
165,197,162886,1,2,0:0:0:0:
165,197,162997,1,0,3:0:0:0:
165,197,163108,1,0,0:0:0:0:
279,298,163331,2,0,B|321:302|321:302|369:297,1,85,8|0,0:0|0:0,0:0:0:0:
481,176,163775,2,0,B|485:134|485:134|480:86,1,85,2|0,0:0|0:0,0:0:0:0:
299,42,164219,6,0,L|205:45,1,85,8|0,0:0|0:0,0:0:0:0:
299,184,164664,2,0,L|388:180,1,85,2|0,0:0|0:0,0:0:0:0:
284,22,165108,6,0,L|190:25,1,85,8|0,0:0|0:0,0:0:0:0:
314,206,165553,2,0,L|403:202,1,85,2|0,0:0|0:0,0:0:0:0:
230,181,165997,2,0,P|227:228|245:270,1,85,8|0,0:0|0:0,0:0:0:0:
299,120,166442,1,2,0:0:0:0:
299,120,166553,1,0,3:0:0:0:
299,120,166664,1,0,0:0:0:0:
145,129,166886,2,0,L|55:133,1,85,8|0,0:0|0:0,0:0:0:0:
215,32,167331,6,0,B|272:38|272:38|329:27|329:27|401:35,1,170,2|8,0:0|0:0,0:0:0:0:
435,189,167997,1,0,0:0:0:0:
293,279,168219,2,0,B|276:239|276:239|268:198|268:198|278:157|278:157|304:109,1,170,2|8,0:0|0:0,0:0:0:0:
435,189,168886,1,0,0:0:0:0:
293,279,169108,5,6,0:0:0:0:
197,139,169331,1,0,0:0:0:0:
337,49,169553,1,6,0:0:0:0:
365,237,169775,1,0,0:0:0:0:
197,139,169997,1,6,0:0:0:0:
164,130,170108,1,2,0:0:0:0:
130,126,170219,1,2,0:0:0:0:
95,129,170331,1,2,0:0:0:0:
62,138,170442,2,0,L|66:229,1,85,6|0,0:0|0:0,0:0:0:0:
73,370,170886,5,6,0:0:0:0:
