osu file format v9

[General]
AudioFilename: Happiness.mp3
AudioLeadIn: 1511
PreviewTime: 68092
Countdown: 0
SampleSet: Soft
StackLeniency: 0.6
Mode: 0
LetterboxInBreaks: 0

[Editor]
Bookmarks: 35483,177396,181048,221222,225396,229570,233744,237918
DistanceSpacing: 1
BeatDivisor: 4
GridSize: 4

[Metadata]
Title:Happiness
Artist:Aoyama Teruma
Creator:Sumisola
Version:Hard
Source:
Tags:H-miku Emotions

[Difficulty]
HPDrainRate:6
CircleSize:4
OverallDifficulty:6
ApproachRate:6
SliderMultiplier:1.2
SliderTickRate:1

[Events]
//Background and Video events
0,0,"02.jpg"
//Break Periods
2,19000,34446
2,102478,109576
2,160913,176359
2,215174,220185
//Storyboard Layer 0 (Background)
//Storyboard Layer 1 (Fail)
//Storyboard Layer 2 (Pass)
//Storyboard Layer 3 (Foreground)
//Storyboard Sound Samples
//Background Colour Transformations
3,100,163,162,255

[TimingPoints]
2105,521.739130434783,4,2,2,50,1,0
3148,-100,4,2,2,50,0,0
10452,-100,4,2,2,60,0,0
18800,-100,4,2,2,60,0,1
18931,-100,4,2,2,60,0,0
64713,-100,4,2,0,50,0,0
65235,-100,4,2,0,60,0,0
65757,-100,4,2,0,70,0,0
66278,-100,4,2,2,80,0,0
68887,-100,4,2,2,90,0,1
69018,-100,4,2,2,90,0,0
85583,-100,4,2,2,100,0,1
85713,-100,4,2,2,100,0,0
102278,-100,4,2,2,65,0,1
102409,-100,4,2,2,65,0,0
110626,-100,4,2,2,60,0,0
127322,-100,4,2,2,70,0,1
127452,-100,4,2,2,70,0,0
139844,-100,4,2,0,75,0,0
140365,-100,4,2,0,80,0,0
140887,-100,4,2,0,85,0,0
141409,-100,4,2,0,90,0,0
144018,-100,4,2,2,90,0,1
144148,-100,4,2,2,90,0,0
160713,-100,4,2,0,61,0,1
160844,-100,4,2,0,61,0,0
169061,-100,4,2,2,61,0,0
181583,-100,4,2,2,80,0,1
181713,-100,4,2,2,80,0,0
189931,-100,4,2,2,80,0,1
190061,-100,4,2,2,80,0,0
198278,-100,4,2,2,100,0,1
198409,-100,4,2,2,100,0,0
206626,-100,4,2,2,100,0,1
206757,-100,4,2,2,100,0,0
214974,-100,4,2,0,80,0,1
215105,-100,4,2,0,80,0,0
221235,-100,4,2,0,80,0,1
221365,-100,4,2,0,80,0,0
221757,-100,4,2,2,75,0,0
237931,-100,4,2,2,75,0,1
238061,-100,4,2,2,75,0,0

[Colours]
Combo1 : 255,206,134
Combo2 : 153,253,153
Combo3 : 142,142,253
Combo4 : 250,255,142
Combo5 : 255,134,134

[HitObjects]
68,60,2105,2,0,B|80:128|156:144,1,120,4|2
256,192,3148,1,0
288,76,3670,2,0,B|356:88|372:164,1,120,2|0
372,272,4713,1,2
252,272,5235,2,0,B|192:272,2,60,0|0|2
132,272,6278,6,0,B|132:208|184:168,1,120,0|2
300,192,7322,2,0,B|300:124|240:88,1,120,0|2
180,192,8365,2,0,B|180:264|256:284,2,120,0|2|0
256,100,9931,1,2
332,192,10452,5,4
256,284,10974,1,0
176,192,11496,2,0,B|296:192,1,120,8|0
416,192,12539,1,0
344,96,13061,1,0
272,192,13583,2,0,B|208:192,2,60,8|0|0
344,288,14626,6,0,B|276:288,1,60
224,288,15148,1,0
152,192,15670,2,0,B|220:192,1,60,8|0
272,192,16191,1,0
364,116,16713,2,0,B|292:116,1,60,2|0
276,64,17235,2,0,B|216:64,1,60,2|0
164,96,17757,5,0
164,156,18018,1,8
224,156,18278,1,8
224,216,18539,1,8
256,268,18800,1,4
384,320,35496,6,0,B|328:300|312:228,1,120,4|0
360,192,36278,2,0,B|424:192,2,60,0|8|0
300,192,37061,1,0
188,136,37583,2,0,B|160:192|188:256,2,120,0|0|8
212,80,38887,1,0
256,40,39148,1,0
360,96,39670,6,0,B|388:68|412:96|444:116|480:92,2,120,0|0|8
256,156,41235,1,0
196,156,41496,2,0,B|128:156,1,60
152,100,42018,2,0,B|80:100,1,60
108,44,42539,2,0,B|40:44,1,60,0|8
44,164,43322,1,0
104,268,43844,6,0,B|168:292|228:264,2,120,0|0|8
160,164,45409,1,0
108,136,45670,1,0
160,108,45931,1,0
212,136,46191,1,0
272,136,46452,2,0,B|340:136,2,60,0|0|8
164,192,47496,5,0
256,268,48018,2,0,B|328:268,2,60
256,268,49061,1,8
164,192,49583,1,0
256,112,50105,2,0,B|336:112,2,60
256,112,51148,1,8
168,192,51670,1,0
256,272,52191,5,4
304,236,52452,1,0
348,196,52713,2,0,B|348:124|284:92,1,120,8|0
172,100,53757,1,8
112,100,54018,1,0
140,152,54278,2,0,B|156:184|192:192,1,60
244,188,54800,2,0,B|272:188,1,30,8|0
336,188,55191,2,0,B|368:188,1,30
420,296,55844,5,8
456,248,56105,1,0
456,188,56365,2,0,B|492:188,2,30
456,128,56887,1,8
416,84,57148,2,0,B|388:60|360:88|336:104|296:80,1,120
240,84,57931,2,0,B|204:84,2,30,8|0|0
256,140,58452,2,0,B|320:140,1,60,4|0
348,192,58974,1,4
408,192,59235,1,0
380,244,59496,2,0,B|380:280|356:304,1,60,4|0
300,300,60018,1,4
180,296,60539,6,0,B|116:296,1,60,4|0
80,252,61061,2,0,B|40:192|80:140,1,120,8|0
188,192,62105,1,8
248,192,62365,1,0
288,148,62626,2,0,B|316:128|344:152|376:168|408:148,1,120,0|8
404,272,63670,1,0
284,276,64191,1,8
224,276,64452,1,0
192,224,64713,6,0,B|200:160|256:128,3,120,4|4|4|4
376,124,66800,2,0,B|432:156|440:220,1,120,8|8
344,292,67844,1,0
268,200,68365,1,0
192,108,68887,5,4
132,108,69148,1,0
160,160,69409,1,8
104,268,69931,2,0,B|164:312|224:264,1,120,0|8
256,156,70974,2,0,B|284:176|284:212,1,60
224,212,71496,2,0,B|192:228|156:208,1,60,8|0
132,164,72018,1,0
132,164,72278,1,8
132,164,72539,1,8
180,56,73061,5,0
240,56,73322,1,0
280,100,73583,2,0,B|348:100,1,60,8|0
324,160,74104,1,0
264,160,74365,1,0
212,192,74626,2,0,B|148:192,1,60,8|0
92,192,75148,1,0
92,192,75409,1,0
68,136,75670,2,0,B|8:136,2,60,8|0|0
96,80,76452,2,0,B|168:80,1,60,8|8
200,192,77235,6,0,B|228:168|256:196|288:208|320:188,2,120,4|8|0
140,192,78539,1,0
80,192,78800,1,8
140,296,79322,2,0,B|208:296,1,60
200,296,79844,2,0,B|264:296,1,60,8|0
260,296,80365,2,0,B|324:296,1,60,0|8
320,296,80887,1,8
380,192,81409,5,0
356,136,81670,1,0
316,92,81931,1,8
204,136,82452,1,0
144,136,82713,1,0
172,196,82974,1,8
256,296,83496,2,0,B|380:296,3,120,0|8|0|8
384,164,85583,6,0,B|316:164,2,60,4|0|8
312,52,86626,2,0,B|340:28|368:56|400:68|432:48,2,120,0|8|0
192,108,88191,1,8
124,108,88452,1,0
56,108,88713,2,0,B|24:124|24:160,2,60,0|8|8
160,192,89757,5,0
228,192,90018,1,0
292,192,90278,1,8
360,192,90539,1,0
416,228,90800,2,0,B|428:192|416:168,2,60,0|0|8
308,308,91844,5,4
308,308,92104,1,0
244,292,92365,1,4
244,292,92626,1,0
204,240,92887,1,4
204,240,93148,1,0
204,240,93409,1,4
256,120,93931,6,0,B|328:120,2,60,0|0|8
188,120,94713,1,0
120,120,94974,2,0,B|52:140|48:216,1,120,0|8
160,276,96018,1,0
160,276,96278,1,0
212,236,96539,1,8
212,236,96800,1,0
260,192,97061,1,0
260,192,97322,1,8
260,192,97583,1,8
360,276,98104,6,0,B|416:240,1,60
364,200,98626,2,0,B|396:144,1,60,8|0
332,128,99148,2,0,B|312:64,2,60,0|0|8
288,176,99931,2,0,B|160:176,1,120
100,176,100713,1,8
204,92,101235,1,0
336,92,101757,1,0
440,172,102278,1,4
64,56,110626,6,0,B|200:56,1,120,0|8
188,124,111409,2,0,B|312:124,1,120
376,124,112191,1,8
456,228,112713,2,0,B|396:252|336:228,1,120,0|8
284,192,113496,1,0
228,160,113757,2,0,B|168:136|108:160,1,120,0|8
112,292,114800,6,0,B|48:292,2,60,0|0|8
200,192,115844,2,0,B|260:192,2,60,0|0|8
68,192,116887,2,0,B|80:156|108:140,1,60
156,180,117409,2,0,B|188:164|196:132,1,60,8|0
144,92,117931,2,0,B|164:64|196:52,1,60
189,54,118452,1,8
256,168,118974,5,0
324,168,119235,1,0
288,224,119496,1,8
172,284,120018,1,0
120,244,120278,1,0
180,220,120539,1,8
256,112,121061,2,0,B|316:88|376:116,2,120,0|8|0
152,192,122626,1,8
256,272,123148,6,0,B|320:272,1,60
284,212,123670,1,8
256,84,124191,2,0,B|328:84,1,60
284,144,124713,1,8
160,192,125235,2,0,B|84:192,2,60,0|0|8
208,236,126018,1,0
256,192,126278,2,0,B|284:192,4,30,2|0|0|0|8
256,192,127322,5,4
164,96,127844,1,8
296,96,128365,2,0,B|368:96,2,60,0|0|8
388,192,129409,2,0,B|328:220|272:192,1,120,0|8
204,80,130452,1,0
152,120,130713,1,0
212,144,130974,1,8
220,276,131496,6,0,B|288:276,1,60
256,216,132018,2,0,B|320:216,1,60,8|0
296,152,132539,2,0,B|360:152,1,60
336,88,133061,2,0,B|396:88,1,60,8|0
404,152,133583,1,4
404,284,134104,1,4
404,152,134626,1,4
316,52,135148,1,4
196,112,135670,6,0,B|132:112,1,60
100,168,136191,2,0,B|160:168,1,60,8|0
196,224,136713,1,0
128,224,136974,1,0
60,224,137235,1,8
100,348,137757,5,0
100,280,138018,1,0
156,316,138278,1,8
156,248,138539,1,0
212,280,138800,2,0,B|236:256|236:224,2,60,0|0|8
112,192,139844,5,4
188,84,140365,1,4
320,84,140887,1,4
396,192,141409,1,4
320,300,141931,2,0,B|248:300,2,60,4|2|8
396,192,142974,2,0,B|424:192,6,30
396,192,144018,6,0,B|340:160|340:88,1,120,4|8
380,48,144800,1,0
412,100,145061,2,0,B|404:168|308:184,1,120,0|8
288,140,145844,1,0
324,92,146104,2,0,B|380:120|396:188,1,120,0|8
344,216,146887,1,0
300,256,147148,2,0,B|332:312,2,60,0|8|8
200,192,148191,6,0,B|128:192,1,60
140,192,148713,2,0,B|140:128,1,60,8|0
140,132,149235,2,0,B|204:132,1,60
200,132,149757,1,8
304,72,150278,2,0,B|368:72,1,60,4|0
352,132,150800,1,4
412,132,151061,1,0
380,184,151322,2,0,B|380:244,2,60,4|8|8
260,192,152365,6,0,B|228:172|200:196|168:212|136:188,2,120,0|8|0
260,192,153670,1,0
260,192,153931,1,8
364,132,154452,2,0,B|388:192|368:256,2,120,0|8|0
364,132,155757,1,8
364,132,156018,1,8
280,48,156539,5,0
224,68,156800,1,0
184,112,157061,1,8
152,164,157322,1,0
140,224,157583,2,0,B|200:256|272:220,1,120,0|8
316,228,158365,1,0
364,192,158626,1,0
256,136,159148,1,8
148,192,159670,1,0
256,248,160191,1,0
360,192,160713,1,4
256,192,177409,12,0,181061
140,92,181583,5,4
200,92,181844,1,0
244,132,182104,2,0,B|308:132,2,60,8|0|0
200,172,182887,1,0
140,172,183148,2,0,B|100:224|140:284,2,120,8|0|8
176,124,184452,1,0
220,84,184713,2,0,B|280:84,2,60,0|8|8
256,200,185757,6,0,B|312:228|372:200,3,120,0|8|0|8
372,140,187583,1,0
344,88,187844,2,0,B|268:88,2,60,0|0|8
404,88,188626,1,0
440,136,188887,2,0,B|512:136,2,60,0|8|8
408,252,189931,6,0,B|348:272|284:252,1,120,4|8
260,200,190713,1,0
296,152,190974,2,0,B|328:144|360:152,2,60,0|0|8
236,152,191757,1,0
180,172,192018,2,0,B|148:180|120:196,1,60
168,232,192539,2,0,B|136:252|128:276,1,60,8|0
188,292,193061,2,0,B|172:324|184:360,1,60,0|8
183,351,193583,1,8
300,320,194105,6,0,B|364:320,1,60
380,264,194626,1,8
380,264,194887,1,0
400,208,195148,2,0,B|472:208,1,60
456,148,195670,1,8
456,148,195931,1,0
456,88,196191,2,0,B|396:64|336:88,3,120,0|8|0|8
220,88,198278,6,0,B|184:68|156:92|132:108|92:84,2,120,4|8|0
264,128,199583,1,0
300,176,199844,1,8
264,224,200105,1,0
224,268,200365,2,0,B|188:248|160:272|136:288|96:264,2,120,0|8|0
284,268,201670,1,8
284,268,201931,1,8
260,152,202452,5,0
200,152,202713,1,0
228,100,202974,2,0,B|292:100,2,60,8|0|0
184,60,203757,1,0
124,60,204018,1,8
64,60,204278,1,0
92,112,204539,2,0,B|92:184|160:208,2,120,0|8|0
92,112,205844,1,8
92,112,206105,1,8
200,60,206626,6,0,B|268:80|276:152,1,120,4|8
164,192,207670,2,0,B|176:260|248:288,1,120,0|8
316,192,208713,2,0,B|380:216|404:276,1,120,0|8
292,324,209757,1,0
256,276,210018,1,8
256,216,210278,1,8
256,96,210800,5,0
256,96,211061,1,0
196,96,211322,1,8
196,96,211583,1,0
136,96,211844,2,0,B|108:112|108:148,2,60,0|0|8
256,96,212887,2,0,B|324:124|324:192,3,120,0|8|0|8
256,284,214974,1,4
256,192,221235,12,0,225409
256,192,225931,5,8
220,232,226191,1,0
184,192,226452,1,0
148,232,226713,1,0
112,192,226974,1,8
76,232,227235,1,0
40,192,227496,2,0,B|40:156|64:128,3,60,2|0|4|0
116,116,228539,2,0,B|152:116|184:116,3,60,8|0|4|0
256,192,229583,12,0,233757
152,80,234278,6,0,B|232:80,1,60,8|0
212,140,234800,2,0,B|280:140,1,60
304,192,235322,2,0,B|368:192,2,60,8|0|0
256,228,236105,1,0
256,288,236365,1,8
316,288,236626,2,0,B|440:288,2,120
260,264,237931,1,4
