osu file format v9

[General]
AudioFilename: Happiness.mp3
AudioLeadIn: 1511
PreviewTime: 68092
Countdown: 0
SampleSet: Soft
StackLeniency: 0.6
Mode: 0
LetterboxInBreaks: 0

[Editor]
Bookmarks: 2161,35553,43900,52248,221222,225396,229570,233744
DistanceSpacing: 1.5
BeatDivisor: 2
GridSize: 4

[Metadata]
Title:Happiness
Artist:Aoyama Teruma
Creator:Sumisola
Version:Easy
Source:
Tags:H-miku Emotions

[Difficulty]
HPDrainRate:2
CircleSize:3
OverallDifficulty:2
ApproachRate:2
SliderMultiplier:0.9
SliderTickRate:1

[Events]
//Background and Video events
0,0,"01.jpg"
//Break Periods
2,19000,33936
2,102478,109066
2,160913,180023
2,214652,219675
//Storyboard Layer 0 (Background)
//Storyboard Layer 1 (Fail)
//Storyboard Layer 2 (Pass)
//Storyboard Layer 3 (Foreground)
//Storyboard Sound Samples
//Background Colour Transformations
3,100,163,162,255

[TimingPoints]
2105,521.739130434783,4,2,2,50,1,0
3148,-100,4,2,2,50,0,0
10452,-100,4,2,2,60,0,0
18800,-100,4,2,2,60,0,1
18931,-100,4,2,2,60,0,0
64713,-100,4,2,2,50,0,0
65235,-100,4,2,2,60,0,0
65757,-100,4,2,2,70,0,0
66278,-100,4,2,2,80,0,0
68887,-100,4,2,2,90,0,1
69018,-100,4,2,2,90,0,0
85583,-100,4,2,2,100,0,1
85713,-100,4,2,2,100,0,0
102278,-100,4,2,2,65,0,1
102409,-100,4,2,2,65,0,0
110626,-100,4,2,2,60,0,0
127322,-100,4,2,2,70,0,1
127452,-100,4,2,2,70,0,0
139844,-100,4,2,2,75,0,0
140365,-100,4,2,2,80,0,0
140887,-100,4,2,2,85,0,0
141409,-100,4,2,2,90,0,0
144018,-100,4,2,2,90,0,1
144148,-100,4,2,2,90,0,0
160713,-100,4,2,2,61,0,1
160844,-100,4,2,2,61,0,0
169061,-100,4,2,2,61,0,0
181583,-100,4,2,2,80,0,1
181713,-100,4,2,2,80,0,0
189931,-100,4,2,2,80,0,1
190061,-100,4,2,2,80,0,0
198278,-100,4,2,2,100,0,1
198409,-100,4,2,2,100,0,0
206626,-100,4,2,2,100,0,1
206757,-100,4,2,2,100,0,0
214974,-100,4,2,2,80,0,1
215105,-100,4,2,2,80,0,0
221235,-100,4,2,2,80,0,1
221365,-100,4,2,2,80,0,0
221757,-100,4,2,2,75,0,0
237931,-100,4,2,2,75,0,1
238061,-100,4,2,2,75,0,0

[Colours]
Combo1 : 255,201,119
Combo2 : 151,253,151
Combo3 : 157,157,253
Combo4 : 250,255,142
Combo5 : 255,140,140

[HitObjects]
156,112,2105,2,0,B|100:192|152:284,3,180,4|2|2|2
360,112,6278,2,0,B|416:192|364:284,3,180,2|2|2|2
112,192,10452,6,0,B|112:88|208:52,1,180,4|8
416,224,12539,2,0,B|416:328|320:364,1,180,0|8
60,304,14626,2,0,B|60:252|128:216,1,90
236,268,15670,2,0,B|272:232|272:188,1,90,8|0
256,192,16713,12,4,18800
256,336,35496,5,4
88,192,37583,1,8
256,48,39670,1,2
424,192,41757,1,8
192,304,43844,6,0,B|100:304,2,90,0|0|8
316,64,45931,2,0,B|408:64,2,90,0|0|8
80,192,48018,6,0,B|92:136|152:112,2,90,0|0|8
352,192,50105,2,0,B|340:248|280:272,2,90,0|0|8
112,72,52191,6,0,B|208:72,1,90,4|8
336,68,53235,1,0
264,184,53757,1,8
264,320,54278,6,0,B|168:320,1,90,0|8
124,192,55322,1,0
260,192,55844,1,8
396,192,56365,6,0,B|432:224|432:272,2,90,0|8|0
312,84,57931,1,8
176,84,58452,2,0,B|84:84,3,90,4|4|4|4
44,212,60539,6,0,B|56:312|168:340,1,180,2|2
272,92,62626,2,0,B|384:92|408:192,1,180,2|2
136,192,64713,5,4
220,296,65235,1,4
300,188,65757,1,4
384,80,66278,1,4
460,192,66800,2,0,B|356:192,3,90,4|8|2|8
328,320,68887,6,0,B|236:320,1,90,4|8
200,192,69931,2,0,B|104:192,1,90,0|8
152,64,70974,2,0,B|244:64,1,90,0|8
376,64,72018,1,0
420,192,72539,1,8
284,192,73061,6,0,B|192:192,1,90,0|8
100,288,74105,1,0
236,288,74626,1,8
364,248,75148,2,0,B|364:152,1,90,0|8
232,140,76191,2,0,B|232:48,1,90,0|8
100,80,77235,5,0
100,216,77757,1,8
216,144,78278,1,0
216,280,78800,1,8
332,208,79322,2,0,B|424:208,3,90,0|8|0|8
352,92,81409,6,0,B|276:36,1,90,0|8
204,152,82452,2,0,B|92:152,1,90,0|8
148,284,83496,2,0,B|76:352,1,90,0|8
216,340,84539,2,0,B|312:340,1,90,0|8
384,228,85583,6,0,B|300:188|208:228,3,180,4|0|0|0
80,192,89235,1,8
160,84,89757,2,0,B|256:56|352:88,3,180
88,192,93931,5,0
224,192,94452,1,8
148,304,94974,2,0,B|56:304,1,90
32,160,96018,1,0
100,44,96539,1,8
236,44,97061,1,0
304,160,97583,1,8
256,284,98105,6,0,B|356:284,1,90,0|8
444,192,99148,2,0,B|352:192,1,90,0|8
260,96,100191,2,0,B|156:96,3,90,0|8|0|8
256,192,102278,1,4
448,328,110626,6,0,B|352:328,1,90,0|8
240,264,111670,2,0,B|148:264,1,90,0|8
76,152,112713,2,0,B|164:124|280:160,1,180
256,288,114278,1,8
388,260,114800,2,0,B|456:188,1,90,0|8
320,152,115844,2,0,B|320:52,1,90,0|8
188,92,116887,2,0,B|160:144|196:176|240:228|176:268,1,180
108,148,118452,1,8
244,152,118974,6,0,B|296:168|308:220,3,90,0|8|0|8
188,276,121061,2,0,B|204:328|256:340,3,90,0|8|0|8
360,264,123148,2,0,B|396:232|396:180,1,90,0|8
296,92,124191,2,0,B|248:56|216:100|160:128|112:80,1,180
36,192,125757,2,0,B|84:228|116:184|172:156|220:204,1,180,8|8
144,312,127322,6,0,B|248:312,1,90,4|8
344,232,128365,2,0,B|452:232,1,90,0|8
444,96,129409,2,0,B|348:96,1,90,0|8
244,176,130452,2,0,B|156:176,1,90,0|8
148,312,131496,6,0,B|48:312,3,90,0|8|0|8
44,176,133583,1,4
180,176,134105,1,4
108,60,134626,1,4
244,60,135148,1,4
380,60,135670,6,0,B|420:144|388:240,1,180,2|2
124,192,137757,2,0,B|168:156|200:200|268:228|320:176,1,180,2|2
60,64,139844,1,4
32,196,140365,1,4
64,328,140887,1,4
84,196,141409,1,4
220,192,141931,2,0,B|316:192,1,90,2|8
396,88,142974,2,0,B|296:88,1,90,2|8
172,92,144018,5,4
80,192,144539,1,8
176,288,145061,1,0
268,192,145583,1,8
396,148,146104,2,0,B|424:196|400:236,3,90,0|8|0|8
272,192,148191,1,0
200,80,148713,1,8
124,192,149235,1,0
204,300,149757,1,8
344,260,150278,2,0,B|368:304|344:348,3,90,0|8|0|8
260,240,152365,6,0,B|280:188|332:172,1,90,0|8
260,56,153409,2,0,B|304:84|316:136,1,90,0|8
196,192,154452,2,0,B|180:236|216:276,1,90,0|8
264,148,155496,2,0,B|312:164|328:212,1,90,0|8
312,344,156539,1,0
176,344,157061,1,8
212,212,157583,1,0
348,212,158104,1,8
316,76,158626,2,0,B|412:76,3,90,0|8|0|8
476,192,160713,1,4
352,56,181583,6,0,B|396:84|396:136,1,90,4|8
400,264,182626,2,0,B|400:316|360:348,1,90,0|8
232,324,183670,2,0,B|136:324,1,90,0|8
100,196,184713,1,0
180,88,185235,1,8
256,200,185757,2,0,B|356:200,1,90,0|8
432,304,186800,2,0,B|332:304,1,90,0|8
208,304,187844,1,4
132,192,188365,1,4
208,80,188887,1,4
284,192,189409,1,4
256,324,189931,6,0,B|156:324,3,90,0|8|0|8
132,192,192018,2,0,B|248:192,3,90,0|8|0|8
300,84,194104,2,0,B|348:92|376:128,1,90,0|8
288,232,195148,2,0,B|272:276|224:296,1,90,0|8
136,196,196191,2,0,B|96:216|44:192,1,90,0|8
128,84,197235,2,0,B|148:44|208:36,1,90,0|8
196,172,198278,5,4
196,308,198800,1,8
316,244,199322,1,0
452,244,199844,1,8
380,128,200365,2,0,B|380:36,3,90,0|8|0|8
256,96,202452,1,0
256,232,202974,1,8
372,164,203496,2,0,B|272:164,1,90,0|8
216,44,204539,2,0,B|168:60|148:104,1,90,0|8
152,236,205583,2,0,B|180:276|244:280,1,90,0|8
288,156,206626,6,0,B|388:156,3,90,0|8|0|8
284,60,208713,1,0
172,136,209235,1,8
176,272,209757,1,0
284,352,210278,1,8
396,276,210800,2,0,B|300:276,1,90,0|8
348,148,211844,2,0,B|236:148,1,90,0|8
132,192,212887,1,0
256,244,213409,1,8
380,192,213931,1,0
256,140,214452,1,8
256,192,221235,12,0,224887
256,192,225931,6,0,B|256:100,1,90,8|0
256,192,226974,2,0,B|192:260,1,90,8|0
256,192,228018,2,0,B|328:256,1,90,8|0
256,192,229061,1,8
256,192,229583,12,0,233235
256,192,234278,5,8
296,64,234800,1,0
428,80,235322,1,8
352,192,235844,2,0,B|448:192,1,90,0|8
352,92,236887,2,0,B|256:92,1,90,0|8
172,192,237931,1,4
